osu file format v14

[General]
AudioFilename: kancollemp3.mp3
AudioLeadIn: 0
PreviewTime: 57753
Countdown: 0
SampleSet: Soft
StackLeniency: 0.3
Mode: 0
LetterboxInBreaks: 0
EpilepsyWarning: 1
WidescreenStoryboard: 1

[Editor]
Bookmarks: 6753,234366
DistanceSpacing: 1.1
BeatDivisor: 4
GridSize: 4
TimelineZoom: 1.5

[Metadata]
Title:Shounen yo, Tokkou no Sakigake to Nare
TitleUnicode:少年よ、特攻の魁となれ
Artist:senya
ArtistUnicode:senya
Creator:-Mo-
Version:Hard
Source:
Tags:Satellite Narcissu yf_bmp Dailycare [C_u_r_i] Yuuhei Catharsis 幽閉カタルシス Shoujo Fractal 少女フラクタル 武蔵、大和 Kantai Collection KanColle 艦隊これくしょん 艦これ 艦隊これくしょん -艦これ- Kamase-tora かませ虎 奥山ナマリ Mayumi Morinaga 森永真由美 Korekushon Combined Fleet M3-2016春 Dagger-Gazel
BeatmapID:1188550
BeatmapSetID:562169

[Difficulty]
HPDrainRate:5
CircleSize:4
OverallDifficulty:6
ApproachRate:7.8
SliderMultiplier:1.45
SliderTickRate:1

[Events]
//Background and Video events
0,0,"yamabg.jpg",0,0
//Break Periods
2,83785,88039
2,197405,202619
//Storyboard Layer 0 (Background)
//Storyboard Layer 1 (Fail)
//Storyboard Layer 2 (Pass)
//Storyboard Layer 3 (Foreground)
Sprite,Foreground,Centre,"sb\hl.png",554,237 C,0,195656,,255,255,255 F,2,195656,195856,1,0 S,2,195656,195856,1,0.2
Sprite,Foreground,Centre,"sb\hl.png",544,142 C,0,195850,,255,255,255 F,2,195850,196050,1,0 S,2,195850,196050,1,0.2
Sprite,Foreground,Centre,"sb\hl.png",556,243 C,0,196043,,255,255,255 M,0,196043,196091,556,243,549.9677,260.0917 M,0,196091,196139,549.9677,260.0917,543.9353,277.1834 M,0,196139,196188,543.9353,277.1834,537.9029,294.2751 M,0,196188,196236,537.9029,294.2751,532,311 F,2,196236,196436,1,0 S,2,196236,196436,1,0.2
Sprite,Foreground,Centre,"sb\hl.png",440,288 C,0,196430,,255,255,255 M,0,196430,196478,440,288,421.9014,288.9783 M,0,196478,196526,421.9014,288.9783,403.8029,289.9566 M,0,196526,196575,403.8029,289.9566,421.9014,288.9783 M,0,196575,196623,421.9014,288.9783,440,288 M,0,196623,196671,440,288,421.9014,288.9783 M,0,196671,196720,421.9014,288.9783,403.8029,289.9566 F,2,196720,196920,1,0 S,2,196720,196920,1,0.2
Sprite,Foreground,Centre,"sb\hl.png",371,306 C,0,196818,,255,255,255 M,0,196818,196866,371,306,352.9343,304.5352 M,0,196866,196914,352.9343,304.5352,334.8686,303.0704 M,0,196914,196963,334.8686,303.0704,352.9343,304.5352 M,0,196963,197011,352.9343,304.5352,371,306 M,0,197011,197059,371,306,352.9343,304.5352 M,0,197059,197108,352.9343,304.5352,334.8686,303.0704 F,2,197108,197308,1,0 S,2,197108,197308,1,0.2
Sprite,Foreground,Centre,"sb\hl.png",436,297 C,0,132172,,255,255,255 M,0,132172,132220,436,297,417.9843,298.9879 M,0,132220,132268,417.9843,298.9879,399.9687,300.9759 M,0,132268,132317,399.9687,300.9759,381.953,302.9638 M,0,132317,132365,381.953,302.9638,363.9374,304.9517 M,0,132365,132413,363.9374,304.9517,345.9218,306.9397 M,0,132413,132462,345.9218,306.9397,327.9061,308.9276 M,0,132462,132510,327.9061,308.9276,309.8904,310.9155 M,0,132510,132559,309.8904,310.9155,291.8748,312.9035 F,2,132559,132759,1,0 S,2,132559,132759,1,0.2
Sprite,Foreground,Centre,"sb\hl.png",226,382 C,0,132753,,255,255,255 F,2,132753,132953,1,0 S,2,132753,132953,1,0.2
Sprite,Foreground,Centre,"sb\hl.png",201,290 C,0,132947,,255,255,255 M,0,132947,132995,201,290,200.0217,271.9014 M,0,132995,133043,200.0217,271.9014,199.0434,253.8028 M,0,133043,133092,199.0434,253.8028,200.0217,271.9014 M,0,133092,133140,200.0217,271.9014,201,290 M,0,133140,133188,201,290,200.0217,271.9014 M,0,133188,133237,200.0217,271.9014,199.0434,253.8028 F,2,133237,133437,1,0 S,2,133237,133437,1,0.2
Sprite,Foreground,Centre,"sb\hl.png",183,221 C,0,133334,,255,255,255 M,0,133334,133382,183,221,184.4648,202.9343 M,0,133382,133430,184.4648,202.9343,185.9296,184.8686 M,0,133430,133479,185.9296,184.8686,184.4648,202.9343 M,0,133479,133527,184.4648,202.9343,183,221 M,0,133527,133575,183,221,184.4648,202.9343 M,0,133575,133624,184.4648,202.9343,185.9296,184.8686 F,2,133624,133824,1,0 S,2,133624,133824,1,0.2
Sprite,Foreground,Centre,"sb\hl.png",477,313 C,0,56301,,255,255,255 F,2,56301,56501,1,0 S,2,56301,56501,1,0.2
Sprite,Foreground,Centre,"sb\hl.png",481,407 C,0,56495,,255,255,255 F,2,56495,56695,1,0 S,2,56495,56695,1,0.2
Sprite,Foreground,Centre,"sb\hl.png",475,307 C,0,56689,,255,255,255 M,0,56689,56737,475,307,474.7735,288.8764 M,0,56737,56785,474.7735,288.8764,474.5469,270.7528 M,0,56785,56834,474.5469,270.7528,474.3204,252.6292 M,0,56834,56882,474.3204,252.6292,474.0938,234.5057 F,2,56882,57082,1,0 S,2,56882,57082,1,0.2
Sprite,Foreground,Centre,"sb\hl.png",383,208 C,0,57076,,255,255,255 M,0,57076,57124,383,208,364.9014,208.9783 M,0,57124,57172,364.9014,208.9783,346.8029,209.9566 M,0,57172,57221,346.8029,209.9566,364.9014,208.9783 M,0,57221,57269,364.9014,208.9783,383,208 M,0,57269,57317,383,208,364.9014,208.9783 M,0,57317,57366,364.9014,208.9783,346.8029,209.9566 F,2,57366,57566,1,0 S,2,57366,57566,1,0.2
Sprite,Foreground,Centre,"sb\hl.png",314,226 C,0,57463,,255,255,255 M,0,57463,57511,314,226,295.9343,224.5352 M,0,57511,57559,295.9343,224.5352,277.8686,223.0704 M,0,57559,57608,277.8686,223.0704,295.9343,224.5352 M,0,57608,57656,295.9343,224.5352,314,226 M,0,57656,57704,314,226,295.9343,224.5352 M,0,57704,57753,295.9343,224.5352,277.8686,223.0704 F,2,57753,57953,1,0 S,2,57753,57953,1,0.2
//Storyboard Sound Samples

[TimingPoints]
560,387.096774193548,4,2,80,70,1,0
19140,-125,4,2,80,50,0,0
31527,-99.9999999999999,4,2,80,70,0,0
43914,-125,4,2,80,70,0,0
50108,-111.111111111111,4,2,80,70,0,0
53205,-100,4,2,80,70,0,0
56301,-100,4,2,80,50,0,0
57850,-83.3333333333333,4,2,80,70,0,1
64043,-90.9090909090909,4,2,80,70,0,1
67140,-83.3333333333333,4,2,80,70,0,1
69269,-83.3333333333333,4,2,80,70,0,0
70237,-83.3333333333333,4,2,80,70,0,1
76430,-90.9090909090909,4,2,80,70,0,1
79527,-83.3333333333333,4,2,80,70,0,1
80301,-83.3333333333333,4,2,80,70,0,0
81076,-66.6666666666667,4,2,80,70,0,1
82624,-125,4,2,80,70,0,0
83205,-125,4,2,80,20,0,0
88818,-111.111111111111,4,2,80,70,0,0
95011,-100,4,2,80,70,0,0
96559,-125,4,2,80,70,0,0
97140,-125,4,2,80,30,0,0
97334,-125,4,2,80,70,0,0
98108,-100,4,2,80,70,0,0
101205,-111.111111111111,4,2,80,70,0,0
107398,-100,4,2,80,70,0,0
119785,-125,4,2,80,70,0,0
125979,-100,4,2,80,70,0,0
129076,-100,4,2,80,70,0,0
132172,-100,4,2,80,50,0,0
133721,-83.3333333333333,4,2,80,70,0,1
139914,-90.9090909090909,4,2,80,70,0,1
143011,-83.3333333333333,4,2,80,70,0,1
145140,-83.3333333333333,4,2,80,70,0,0
146108,-83.3333333333333,4,2,80,70,0,1
152301,-90.9090909090909,4,2,80,70,0,1
155398,-83.3333333333333,4,2,80,70,0,1
156172,-83.3333333333333,4,2,80,70,0,0
156947,-66.6666666666667,4,2,80,70,0,1
158495,-100,4,2,80,70,0,0
164301,-100,4,3,80,70,0,0
164398,-100,4,2,80,70,0,0
170882,-100,4,2,80,70,0,1
170979,-100,4,2,80,70,0,0
183269,-125,4,2,80,70,0,0
183366,-125,4,2,80,50,0,0
189463,-111.111111111111,4,2,80,70,0,0
192559,-100,4,2,80,70,0,0
195656,-100,4,2,80,50,0,0
203398,-111.111111111111,4,2,80,70,0,0
206495,-100,4,2,80,70,0,0
209592,-83.3333333333333,4,2,80,70,0,1
215785,-90.9090909090909,4,2,80,70,0,1
218882,-83.3333333333333,4,2,80,70,0,1
219656,-83.3333333333333,4,2,80,70,0,0
220430,-66.6666666666667,4,2,80,70,0,1
221979,-83.3333333333333,4,2,80,70,0,0

[Colours]
Combo1 : 254,252,158
Combo2 : 222,139,198
Combo3 : 71,202,245
Combo4 : 249,104,104

[HitObjects]
160,71,6753,38,0,P|211:56|263:71,2,108.75,6|0|2,1:2|0:0|0:3,0:0:0:0:
89,134,7527,1,2,1:2:0:0:
85,138,7721,2,0,L|103:208,1,72.5,2|8,0:3|0:0,0:0:0:0:
172,272,8108,1,2,0:3:0:0:
176,268,8205,1,0,0:0:0:0:
179,264,8301,22,0,P|197:213|186:160,1,108.75,6|0,1:2|0:0,0:0:0:0:
172,135,8689,2,0,L|244:139,1,72.5,8|2,0:0|0:3,0:0:0:0:
313,203,9076,1,6,1:1:0:0:
386,143,9269,2,0,L|376:108,2,36.25,2|0|12,0:3|0:0|0:1,0:0:0:0:
446,216,9656,1,2,0:3:0:0:
374,277,9850,22,0,B|291:292|291:292|302:270,1,108.75,6|0,1:2|0:0,0:0:0:0:
316,244,10237,1,8,0:0:0:0:
244,182,10430,1,2,0:3:0:0:
174,246,10624,1,6,1:1:0:0:
187,339,10818,2,0,L|167:369,2,36.25,2|0|8,0:3|0:0|0:0,0:0:0:0:
246,265,11205,1,2,0:3:0:0:
178,200,11398,22,0,P|194:149|241:124,2,108.75,6|0|2,1:2|0:0|0:3,0:0:0:0:
207,289,12172,2,0,L|277:272,1,72.5,6|2,1:1|0:3,0:0:0:0:
333,196,12559,2,0,L|404:209,1,72.5,12|2,0:1|0:3,0:0:0:0:
432,201,12850,1,0,0:0:0:0:
436,196,12947,22,0,P|453:145|447:92,1,108.75,6|0,1:2|0:0,0:0:0:0:
418,92,13334,2,0,L|346:78,1,72.5,8|2,0:0|0:3,0:0:0:0:
254,60,13721,1,2,1:2:0:0:
258,64,13914,2,0,P|266:99|265:135,1,72.5,2|8,0:3|0:0,0:0:0:0:
217,217,14301,1,2,0:3:0:0:
215,223,14398,1,0,0:0:0:0:
213,229,14495,22,0,P|272:234|321:267,1,108.75,6|0,1:2|0:0,0:0:0:0:
328,284,14882,2,0,P|363:300|403:299,1,72.5,8|2,0:0|0:3,0:0:0:0:
458,228,15269,1,6,1:1:0:0:
375,181,15463,2,0,L|382:217,2,36.25,2|0|12,0:3|0:0|0:1,0:0:0:0:
294,229,15850,1,2,0:3:0:0:
290,233,15947,1,0,0:0:0:0:
286,237,16043,22,0,B|259:205|259:205|274:167|260:128,1,108.75,6|0,1:2|0:0,0:0:0:0:
247,116,16430,2,0,L|278:42,1,72.5,8|2,0:0|0:3,0:0:0:0:
359,5,16818,1,6,1:1:0:0:
367,98,17011,1,2,0:3:0:0:
275,49,17205,2,0,P|240:59|210:80,1,72.5,8|2,0:0|0:3,0:0:0:0:
332,166,17592,22,0,P|338:130|335:94,1,72.5,6|2,1:2|0:3,0:0:0:0:
203,156,17979,2,0,P|230:179|263:194,1,72.5,12|2,0:1|0:3,0:0:0:0:
355,234,18366,22,0,P|363:252|366:271,3,36.25,6|0|2|0,1:2|3:2|3:3|3:2,3:2:0:0:
364,303,18753,2,0,P|366:322|375:340,3,36.25,14|0|2|0,3:1|3:2|3:3|3:2,3:2:0:0:
408,358,19140,38,0,P|425:335|433:308,1,58,6|2,1:2|0:3,0:0:0:0:
392,218,19527,2,0,P|374:241|366:268,1,58,2|2,1:2|0:3,0:0:0:0:
270,290,19914,2,0,P|287:266|295:239,1,58,2|2,1:2|0:3,0:0:0:0:
254,150,20301,2,0,P|236:173|228:200,1,58,2|2,1:2|0:3,0:0:0:0:
201,295,20689,22,0,L|159:335,1,58,2|2,1:2|0:3,0:0:0:0:
118,257,21076,2,0,L|75:217,1,58,2|2,1:2|0:3,0:0:0:0:
36,295,21463,2,0,L|5:295,2,29,2|0|2,1:2|0:0|0:3,0:0:0:0:
101,335,21850,2,0,L|159:335,1,58,2|2,1:2|0:3,0:0:0:0:
262,262,22237,22,0,P|277:238|288:211,1,58,2|2,1:2|0:3,0:0:0:0:
367,174,22624,2,0,P|343:157|316:146,1,58,2|2,1:2|0:3,0:0:0:0:
279,68,23011,2,0,P|262:92|251:119,1,58,2|2,1:2|0:3,0:0:0:0:
173,155,23398,2,0,P|197:172|224:183,1,58,2|2,1:2|0:3,0:0:0:0:
310,166,23785,22,0,L|301:223,1,58,2|2,1:2|0:3,0:0:0:0:
228,271,24172,2,0,L|237:328,1,58,2|2,1:2|0:3,0:0:0:0:
322,310,24559,2,0,L|342:276,2,29,2|0|2,1:2|0:0|0:3,0:0:0:0:
385,366,24947,1,0,1:3:0:0:
422,290,25140,1,0,1:0:0:0:
428,288,25237,1,0,1:0:0:0:
434,286,25334,22,0,L|489:269,1,58,6|2,1:2|0:3,0:0:0:0:
426,209,25721,2,0,L|370:225,1,58,2|2,1:2|0:3,0:0:0:0:
394,141,26108,2,0,L|449:124,1,58,2|2,1:2|0:3,0:0:0:0:
384,66,26495,2,0,L|328:82,1,58,2|2,1:2|0:3,0:0:0:0:
245,57,26882,22,0,P|245:28|238:0,1,58,2|2,1:2|0:3,0:0:0:0:
153,27,27269,2,0,P|163:55|179:79,1,58,2|2,1:2|0:3,0:0:0:0:
235,146,27656,2,0,L|238:175,2,29,2|0|2,1:2|0:0|0:3,0:0:0:0:
269,67,28043,1,2,1:2:0:0:
348,102,28237,1,2,0:3:0:0:
313,181,28430,22,0,P|307:209|293:234,1,58,2|2,1:2|0:3,0:0:0:0:
207,248,28818,2,0,P|185:228|170:204,1,58,2|2,1:2|0:3,0:0:0:0:
202,121,29205,2,0,P|229:112|258:111,1,58,2|2,1:2|0:3,0:0:0:0:
297,188,29592,2,0,P|325:187|353:178,1,58,2|2,1:2|0:3,0:0:0:0:
410,108,29979,21,6,1:2:0:0:
438,189,30172,1,2,0:3:0:0:
406,104,30366,1,2,1:2:0:0:
467,43,30559,1,2,0:3:0:0:
381,24,30753,37,14,3:2:0:0:
324,90,30947,2,0,L|303:69,2,29,8|0|8,3:2|3:2|3:2,3:2:0:0:
355,172,31334,1,8,3:2:0:0:
353,178,31430,1,0,3:2:0:0:
351,184,31527,38,0,P|281:176|234:123,1,145,6|8,1:2|0:0,0:0:0:0:
187,40,32108,1,2,0:3:0:0:
141,122,32301,2,0,P|155:174|187:217,1,108.75,2|0,1:2|0:0,0:0:0:0:
210,237,32689,2,0,P|240:218|276:210,1,72.5,8|2,0:0|0:3,0:0:0:0:
363,174,33076,22,0,P|331:156|307:129,1,72.5,2|2,1:2|0:3,0:0:0:0:
232,73,33463,2,0,P|232:109|221:143,1,72.5,8|2,0:0|0:3,0:0:0:0:
150,205,33850,1,2,1:2:0:0:
132,113,34043,2,0,L|93:118,2,36.25,2|0|8,0:3|0:0|0:0,0:0:0:0:
221,143,34430,1,2,0:3:0:0:
268,224,34624,22,0,P|310:168|302:97,1,145,2|8,1:2|0:0,0:0:0:0:
220,49,35205,1,2,0:3:0:0:
221,143,35398,2,0,L|329:154,1,108.75,2|0,1:2|0:0,0:0:0:0:
357,146,35785,2,0,P|380:173|395:206,1,72.5,8|2,0:0|0:3,0:0:0:0:
351,289,36172,22,0,B|273:300|273:300|244:290,1,108.75,2|0,1:2|0:0,0:0:0:0:
228,266,36559,2,0,P|230:230|222:195,1,72.5,8|2,0:0|0:3,0:0:0:0:
135,156,36947,2,0,L|94:161,2,36.25,2|0|2,1:2|0:0|0:3,0:0:0:0:
175,69,37334,1,8,3:3:0:0:
262,109,37527,1,10,3:3:0:0:
266,105,37624,1,0,3:2:0:0:
270,101,37721,22,0,P|331:68|399:88,1,145,6|8,1:2|0:0,0:0:0:0:
342,163,38301,1,2,0:3:0:0:
419,217,38495,2,0,L|434:324,1,108.75,2|0,1:2|0:0,0:0:0:0:
420,350,38882,2,0,P|389:333|355:322,1,72.5,8|2,0:0|0:3,0:0:0:0:
269,364,39269,21,2,1:2:0:0:
205,293,39463,2,0,L|211:253,2,36.25,2|0|8,0:3|0:0|0:0,0:0:0:0:
128,348,39850,2,0,L|134:387,2,36.25,2|0|2,0:3|0:0|1:2,0:0:0:0:
131,253,40237,1,2,0:3:0:0:
51,202,40430,1,8,0:0:0:0:
102,122,40624,1,2,0:3:0:0:
182,173,40818,22,0,L|253:186,1,72.5,6|10,1:2|1:3,0:0:0:0:
325,125,41205,2,0,L|254:112,1,72.5,8|10,1:2|1:3,0:0:0:0:
175,60,41592,21,14,1:2:0:0:
195,151,41785,1,10,1:3:0:0:
157,237,41979,1,8,1:2:0:0:
98,163,42172,21,2,3:3:0:0:
96,157,42269,1,0,3:0:0:0:
94,151,42366,2,0,P|81:99|95:47,2,108.75,6|4|4,1:1|0:1|0:1,0:0:0:0:
159,219,43140,22,0,L|198:214,3,36.25,6|0|2|0,1:2|3:2|3:3|3:2,3:2:0:0:
231,220,43527,2,0,L|263:196,3,36.25,8|0|2|0,3:2|3:2|3:3|3:2,3:2:0:0:
272,158,43914,22,0,B|289:125|289:125|267:91|269:36|269:36|251:50|228:51,1,174,6|2,1:2|1:3,0:0:0:0:
157,23,44689,2,0,P|116:5|74:11,2,87,8|8|8,0:0|0:0|0:0,0:0:0:0:
170,97,45463,22,0,P|202:162|244:103,1,174,2|2,1:2|1:3,0:0:0:0:
314,162,46237,2,0,B|380:166|380:166|398:156,2,87,8|8|8,0:0|0:0|0:0,0:0:0:0:
244,103,47011,22,0,B|221:129|223:165|223:165|194:179|194:179|168:150|127:156,1,174,2|2,1:2|1:3,0:0:0:0:
131,251,47785,2,0,L|158:333,2,87,8|8|8,0:0|0:0|0:0,0:0:0:0:
193,178,48559,22,0,P|229:154|245:114,1,87,2|0,1:2|0:0,0:0:0:0:
245,88,48947,2,0,L|300:103,1,58,0|2,0:0|0:3,0:0:0:0:
357,192,49334,2,0,L|301:175,1,58,10|8,1:2|0:0,0:0:0:0:
233,230,49721,1,0,0:0:0:0:
316,255,49914,1,2,0:3:0:0:
249,326,50108,21,12,1:2:0:0:
168,351,50301,2,0,L|158:385,2,32.624999004364,10|0|12,3:3|3:2|1:3,3:2:0:0:
90,315,50689,2,0,L|80:280,2,32.624999004364,10|0|14,3:3|3:2|1:3,3:2:0:0:
160,266,51076,2,0,L|169:231,2,32.624999004364,10|0|12,3:3|3:2|1:3,3:2:0:0:
106,184,51463,22,0,L|71:193,2,32.624999004364,10|0|14,3:3|3:2|1:3,3:2:0:0:
175,135,51850,2,0,L|209:144,2,32.624999004364,10|0|12,3:3|3:2|1:3,3:2:0:0:
250,212,52237,1,10,3:3:0:0:
288,136,52430,1,14,1:3:0:0:
292,132,52527,1,0,3:2:0:0:
296,128,52624,2,0,P|321:148|337:176,1,65.2499980087281,10|12,3:3|1:3,3:2:0:0:
321,260,53011,1,10,3:3:0:0:
232,175,53205,22,0,L|152:186,2,72.5,12|10|12,1:2|3:3|1:3,3:2:0:0:
267,87,53785,1,10,3:3:0:0:
326,160,53979,2,0,L|405:148,2,72.5,12|10|12,1:1|3:3|1:3,3:2:0:0:
267,87,54559,1,10,3:3:0:0:
232,175,54753,21,12,1:2:0:0:
291,248,54947,1,10,3:3:0:0:
198,264,55140,1,12,1:3:0:0:
257,337,55334,1,10,3:3:0:0:
291,248,55527,22,8,P|310:251|330:251,3,36.25,12|8|10|8,1:1|3:2|3:3|3:2,3:2:0:0:
353,238,55914,2,8,P|372:238|392:242,3,36.25,12|8|10|8,1:1|3:2|3:3|3:2,3:2:0:0:
413,257,56301,21,6,3:2:0:0:
417,351,56495,1,0,3:2:0:0:
411,251,56689,2,0,L|410:171,1,72.5,0|0,3:2|3:2,3:2:0:0:
319,152,57076,22,0,L|282:154,3,36.25,0|0|0|0,3:2|3:2|3:2|3:2,3:2:0:0:
250,170,57463,2,0,L|213:167,3,36.25,0|0|0|0,3:2|3:2|3:2|3:2,3:2:0:0:
183,142,57850,6,0,P|187:80|239:44,1,130.499996017456,6|0,1:2|0:0,0:0:0:0:
273,57,58237,2,0,L|359:51,1,86.9999973449708,8|2,0:0|0:3,0:0:0:0:
455,46,58624,1,6,1:1:0:0:
390,117,58818,1,2,0:3:0:0:
463,177,59011,2,0,L|377:192,1,86.9999973449708,8|2,0:0|0:3,0:0:0:0:
284,218,59398,22,0,P|322:237|342:275,1,86.9999973449708,6|2,1:2|0:3,0:0:0:0:
251,367,59785,2,0,P|249:325|272:289,1,86.9999973449708,8|2,0:0|0:3,0:0:0:0:
397,322,60172,2,0,P|361:345|318:343,1,86.9999973449708,6|2,1:1|0:3,0:0:0:0:
193,276,60559,2,0,P|150:274|114:297,1,86.9999973449708,12|10,0:1|0:3,0:0:0:0:
109,310,60850,1,0,0:0:0:0:
104,322,60947,22,0,L|94:235,1,86.9999973449708,6|2,1:2|0:3,0:0:0:0:
159,164,61334,2,0,L|168:77,1,86.9999973449708,8|2,0:0|0:3,0:0:0:0:
261,157,61721,2,0,P|323:147|363:96,1,130.499996017456,6|0,1:1|0:0,0:0:0:0:
363,84,62108,2,0,L|386:167,1,86.9999973449708,8|2,0:0|0:3,0:0:0:0:
317,234,62495,21,6,1:2:0:0:
223,214,62689,2,0,L|177:228,2,43.4999986724854,2|0|8,0:3|0:0|0:3,0:0:0:0:
293,148,63076,1,2,0:3:0:0:
295,142,63172,1,0,0:0:0:0:
297,136,63269,2,0,L|284:49,1,86.9999973449708,6|2,1:1|0:3,0:0:0:0:
364,99,63656,2,0,L|375:12,1,86.9999973449708,12|10,0:1|0:3,0:0:0:0:
434,115,64043,22,0,B|445:161|445:161|432:202|444:232,2,119.625003650665,6|0|0,1:2|0:0|0:0,0:0:0:0:
352,149,64818,2,0,B|363:103|363:103|350:62|361:31,2,119.625003650665,6|0|0,1:1|0:0|0:0,0:0:0:0:
272,107,65592,22,0,P|280:167|269:225,1,119.625003650665,6|0,1:2|0:0,0:0:0:0:
253,252,65979,2,0,L|178:224,1,79.7500024337769,6|0,1:1|0:0,0:0:0:0:
126,135,66366,1,6,1:1:0:0:
124,141,66463,1,0,0:0:0:0:
122,147,66559,2,0,P|161:155|201:151,1,79.7500024337769,0|8,0:0|0:0,0:0:0:0:
286,111,66947,1,0,0:0:0:0:
288,117,67140,22,0,P|299:176|360:183,1,130.499996017456,6|0,1:2|0:0,0:0:0:0:
380,154,67527,2,0,L|367:67,1,86.9999973449708,8|2,0:0|0:3,0:0:0:0:
284,19,67914,2,0,B|180:31|180:31|196:50,1,130.499996017456,6|0,1:1|0:0,0:0:0:0:
217,79,68301,2,0,P|228:120|223:163,1,86.9999973449708,8|2,0:0|0:3,0:0:0:0:
152,230,68689,21,6,1:2:0:0:
217,301,68882,2,0,L|221:344,2,43.4999986724854,2|0|8,0:3|0:0|0:0,0:0:0:0:
278,227,69269,1,2,0:3:0:0:
348,291,69463,22,0,L|359:249,3,43.4999986724854,6|0|2|0,1:1|3:0|3:3|3:0,3:0:0:0:
351,215,69850,2,0,L|339:173,3,43.4999986724854,14|0|10|0,3:1|3:0|3:3|3:0,3:0:0:0:
351,137,70237,22,0,P|308:127|265:128,1,86.9999973449708,6|2,1:2|0:3,0:0:0:0:
184,201,70624,1,8,0:0:0:0:
186,207,70721,1,0,0:0:0:0:
188,213,70818,2,0,P|230:203|273:204,2,86.9999973449708,2|6|2,0:3|1:1|0:3,0:0:0:0:
265,280,71398,2,0,P|308:290|351:289,1,86.9999973449708,8|2,0:0|0:3,0:0:0:0:
424,209,71785,22,0,L|435:295,1,86.9999973449708,6|2,1:2|0:3,0:0:0:0:
340,375,72172,2,0,L|351:288,1,86.9999973449708,8|2,0:0|0:3,0:0:0:0:
265,319,72559,2,0,L|251:233,1,86.9999973449708,6|2,1:1|0:3,0:0:0:0:
183,147,72947,2,0,L|169:232,1,86.9999973449708,12|10,0:1|0:3,0:0:0:0:
163,244,73237,1,0,0:0:0:0:
157,255,73334,22,0,P|114:262|72:251,1,86.9999973449708,6|2,1:2|0:3,0:0:0:0:
99,144,73721,2,0,P|142:137|184:148,1,86.9999973449708,8|2,0:0|0:3,0:0:0:0:
260,204,74108,2,0,P|253:161|264:119,1,86.9999973449708,6|2,1:1|0:3,0:0:0:0:
317,40,74495,2,0,P|351:67|394:76,1,86.9999973449708,8|2,0:0|0:3,0:0:0:0:
463,11,74882,21,6,1:2:0:0:
483,104,75076,1,2,0:3:0:0:
413,169,75269,1,8,0:0:0:0:
409,165,75656,21,6,1:1:0:0:
393,76,75850,1,2,0:3:0:0:
316,17,76043,1,12,0:1:0:0:
220,2,76237,1,10,0:3:0:0:
141,98,76430,22,0,L|150:177,1,79.7500024337769,6|2,1:2|0:3,0:0:0:0:
162,272,76818,1,8,0:0:0:0:
220,196,77011,1,2,0:3:0:0:
224,192,77108,1,0,0:0:0:0:
228,188,77205,2,0,L|304:209,1,79.7500024337769,6|2,1:1|0:3,0:0:0:0:
341,297,77592,2,0,L|264:275,1,79.7500024337769,8|2,0:0|0:3,0:0:0:0:
164,234,77979,22,0,P|153:176|171:120,1,119.625003650665,6|0,1:2|0:0,0:0:0:0:
202,110,78366,2,0,L|281:103,1,79.7500024337769,8|2,0:0|0:3,0:0:0:0:
358,45,78753,1,6,1:1:0:0:
415,122,78947,2,0,L|462:120,2,39.8750012168885,2|0|8,0:3|0:0|0:0,0:0:0:0:
338,179,79334,1,10,0:3:0:0:
282,103,79527,22,0,L|252:184,1,86.9999973449708,6|2,1:2|0:3,0:0:0:0:
203,277,79914,1,8,0:0:0:0:
168,178,80108,1,2,0:3:0:0:
137,78,80301,1,6,1:1:0:0:
137,78,81076,22,0,P|92:104|82:156,1,108.750004148483,6|2,1:2|0:3,0:0:0:0:
122,245,81463,1,8,0:0:0:0:
199,186,81656,1,2,0:3:0:0:
203,182,81753,1,0,0:0:0:0:
207,178,81850,1,6,0:1:0:0:
267,256,82043,1,2,0:3:0:0:
346,197,82237,2,0,L|355:143,3,54.3750020742417,12|0|14|0,3:1|3:0|3:1|3:0,3:0:0:0:
343,107,82624,6,0,B|336:54|376:4|376:4|338:-6|314:5,1,174,6|0,0:0|0:0,0:0:0:0:
202,69,88818,54,0,B|175:105|175:105|181:190,1,130.499996017456,6|8,1:2|0:0,0:0:0:0:
310,315,89592,2,0,B|337:279|337:279|329:193,1,130.499996017456,6|8,1:2|0:0,0:0:0:0:
180,101,90366,2,0,L|50:119,1,130.499996017456,6|8,1:2|0:0,0:0:0:0:
138,273,91140,2,0,L|267:254,1,130.499996017456,6|8,1:2|0:0,0:0:0:0:
436,204,91914,22,0,L|371:213,1,65.2499980087281,6|2,1:2|0:3,0:0:0:0:
400,133,92301,2,0,L|328:141,1,65.2499980087281,12|2,0:3|0:3,0:0:0:0:
249,123,92689,2,0,P|244:91|233:61,1,65.2499980087281,4|2,1:3|0:3,0:0:0:0:
151,84,93076,2,0,P|155:116|167:146,1,65.2499980087281,12|2,0:3|0:3,0:0:0:0:
228,206,93463,22,0,L|292:199,1,65.2499980087281,6|2,1:2|0:3,0:0:0:0:
249,123,93850,2,0,L|313:116,1,65.2499980087281,12|2,0:3|0:3,0:0:0:0:
369,180,94237,22,0,L|373:215,3,32.624999004364,6|0|2|0,1:1|3:2|3:3|3:2,3:2:0:0:
367,245,94624,2,0,L|362:280,3,32.624999004364,12|0|10|0,3:1|3:2|3:3|3:2,3:2:0:0:
374,312,95011,22,0,L|294:323,1,72.5,4|4,1:2|1:2,0:0:0:0:
298,310,96559,22,0,B|270:261|285:195|285:195|257:210|230:200,1,174,4|0,1:1|0:0,0:0:0:0:
169,121,97334,21,6,1:2:0:0:
156,190,97527,1,0,0:0:0:0:
144,258,97721,1,0,0:0:0:0:
132,327,97914,1,0,0:0:0:0:
69,248,98108,22,0,L|87:140,1,108.75,4|4,1:2|1:2,0:0:0:0:
99,137,99656,22,0,P|134:139|169:128,1,72.5,6|0,1:2|0:0,0:0:0:0:
276,182,100043,2,0,P|240:179|205:190,1,72.5,6|0,0:1|0:0,0:0:0:0:
133,250,100430,21,6,1:2:0:0:
193,323,100624,1,0,0:0:0:0:
266,262,100818,2,0,P|283:260|301:260,3,36.25,0|0|0|0,3:0|3:0|3:0|3:0,0:0:0:0:
326,271,101205,22,0,L|350:210,1,65.2499980087281,4|2,1:2|0:3,0:0:0:0:
268,188,101592,2,0,L|243:127,1,65.2499980087281,12|2,0:3|0:3,0:0:0:0:
269,46,101979,2,0,P|291:69|320:85,1,65.2499980087281,4|2,1:3|0:3,0:0:0:0:
396,46,102366,2,0,L|405:110,1,65.2499980087281,12|2,0:3|0:3,0:0:0:0:
391,193,102753,22,0,P|367:172|338:159,1,65.2499980087281,4|2,1:3|0:3,0:0:0:0:
260,194,103140,2,0,P|229:182|203:162,1,65.2499980087281,12|2,0:3|0:3,0:0:0:0:
263,101,103527,1,4,1:3:0:0:
180,79,103721,1,2,0:3:0:0:
123,141,103914,1,12,0:3:0:0:
204,163,104108,1,2,0:3:0:0:
263,101,104301,22,0,P|295:98|326:107,1,65.2499980087281,4|2,1:3|0:3,0:0:0:0:
380,191,104689,2,0,L|315:182,1,65.2499980087281,12|2,0:3|0:3,0:0:0:0:
224,246,105076,2,0,L|288:254,1,65.2499980087281,4|2,1:3|0:3,0:0:0:0:
269,329,105463,2,0,P|237:345|201:349,1,65.2499980087281,12|2,0:3|0:3,0:0:0:0:
153,283,105850,21,6,1:2:0:0:
122,365,106043,1,2,0:3:0:0:
68,299,106237,1,12,0:3:0:0:
126,361,106430,1,2,0:3:0:0:
208,349,106624,37,14,3:2:0:0:
246,272,106818,2,0,L|239:236,2,32.624999004364,8|0|8,3:3|3:2|3:2,3:2:0:0:
311,326,107205,1,8,3:2:0:0:
315,330,107301,1,0,3:2:0:0:
319,334,107398,38,0,P|387:316|419:253,1,145,6|8,1:2|0:0,0:0:0:0:
382,166,107979,1,2,0:3:0:0:
328,243,108172,2,0,L|220:227,1,108.75,2|0,1:2|0:0,0:0:0:0:
208,201,108559,2,0,L|136:210,1,72.5,8|2,0:0|0:3,0:0:0:0:
46,242,108947,22,0,L|73:174,1,72.5,2|2,1:2|0:3,0:0:0:0:
91,81,109334,2,0,L|134:138,1,72.5,8|2,0:0|0:3,0:0:0:0:
172,226,109721,2,0,L|136:229,2,36.25,2|0|2,1:2|0:0|0:3,0:0:0:0:
221,306,110108,2,0,L|292:296,1,72.5,8|2,0:0|0:3,0:0:0:0:
379,258,110495,22,0,P|328:211|330:140,1,145,2|8,1:2|0:0,0:0:0:0:
422,119,111076,1,2,0:3:0:0:
341,70,111269,2,0,B|304:63|304:63|233:73,1,108.75,2|0,1:2|0:0,0:0:0:0:
212,93,111656,2,0,L|139:85,1,72.5,8|2,0:0|0:3,0:0:0:0:
88,164,112043,22,0,P|141:159|188:186,1,108.75,2|0,1:2|0:0,0:0:0:0:
208,208,112430,2,0,L|282:178,1,72.5,8|2,0:0|0:3,0:0:0:0:
371,179,112818,2,0,L|368:221,2,36.25,2|0|2,1:2|0:0|0:3,0:0:0:0:
436,110,113205,1,8,3:0:0:0:
460,201,113398,1,10,3:0:0:0:
462,207,113495,1,0,3:0:0:0:
464,213,113592,22,0,P|440:279|376:311,1,145,6|8,1:2|0:0,0:0:0:0:
316,239,114172,1,2,0:3:0:0:
230,279,114366,2,0,P|179:264|126:274,1,108.75,2|0,1:2|0:0,0:0:0:0:
102,292,114753,2,0,L|88:213,1,72.5,8|2,0:0|0:3,0:0:0:0:
109,128,115140,22,0,B|190:145|190:145|215:138,1,108.75,2|0,1:2|0:0,0:0:0:0:
238,121,115527,2,0,L|310:128,1,72.5,8|2,0:0|0:3,0:0:0:0:
391,81,115914,2,0,L|407:49,2,36.25,2|0|2,1:2|0:0|0:3,0:0:0:0:
392,177,116301,2,0,L|410:254,1,72.5,8|2,0:0|0:3,0:0:0:0:
355,328,116689,22,0,P|320:335|284:331,1,72.5,14|10,1:2|1:3,0:0:0:0:
320,243,117076,2,0,P|284:235|249:242,1,72.5,8|10,1:0|1:3,0:0:0:0:
175,184,117463,21,14,1:2:0:0:
159,276,117656,1,10,1:3:0:0:
69,305,117850,1,8,1:2:0:0:
85,212,118043,21,2,3:3:0:0:
87,206,118140,1,0,3:0:0:0:
89,200,118237,2,0,P|80:147|48:104,2,108.75,6|4|4,1:1|0:1|0:1,0:0:0:0:
56,289,119011,22,0,L|91:293,3,36.25,6|0|2|0,1:2|3:2|3:3|3:2,3:2:0:0:
123,313,119398,2,0,L|162:308,3,36.25,8|0|2|0,3:2|3:2|3:3|3:2,3:2:0:0:
188,336,119785,22,0,B|220:291|211:225|211:225|219:258|241:278,1,174,6|0,1:2|1:0,0:0:0:0:
296,322,120559,1,2,1:0:0:0:
394,205,120947,1,2,1:0:0:0:
254,147,121334,22,0,B|216:133|216:133|172:155|130:144|130:144|140:126|159:109,1,174,2|0,1:2|1:0,0:0:0:0:
217,62,122108,2,0,L|245:56,3,29,2|0|0|0,1:0|1:0|1:0|1:0,0:0:0:0:
279,72,122495,2,0,L|307:77,3,29,2|0|0|0,1:0|1:0|1:0|1:0,0:0:0:0:
340,60,122882,22,0,P|403:95|343:137,1,174,2|0,1:0|1:0,0:0:0:0:
271,116,123656,1,2,1:0:0:0:
236,262,124043,1,2,1:0:0:0:
115,170,124430,22,0,P|128:128|126:85,1,87,2|0,1:0|1:0,0:0:0:0:
114,61,124818,2,0,L|172:70,1,58,2|0,1:0|1:0,0:0:0:0:
244,52,125205,22,0,L|233:19,2,29,2|0|2,0:0|0:0|0:3,0:0:0:0:
223,125,125592,1,8,0:0:0:0:
267,185,125785,1,8,0:0:0:0:
271,189,125882,1,8,0:0:0:0:
275,193,125979,22,0,L|336:153,1,72.5,6|6,1:2|1:2,0:0:0:0:
288,272,127527,2,0,L|349:232,1,72.5,6|6,1:2|1:2,0:0:0:0:
301,351,129076,22,0,L|362:311,2,72.5,12|10|12,1:2|3:3|1:3,0:0:0:0:
217,308,129656,1,10,3:3:0:0:
267,228,129850,2,0,L|328:188,2,72.5,12|10|12,1:1|3:3|1:3,0:0:0:0:
194,167,130430,1,10,3:3:0:0:
270,112,130624,21,12,1:2:0:0:
183,73,130818,1,10,3:3:0:0:
274,108,131011,1,12,1:3:0:0:
323,27,131205,1,10,3:3:0:0:
366,110,131398,22,8,L|371:145,3,36.25,12|8|10|8,1:1|3:2|3:3|3:2,3:2:0:0:
361,173,131785,2,8,L|355:208,3,36.25,12|8|10|8,1:1|3:2|3:3|3:2,3:2:0:0:
372,241,132172,22,0,L|227:257,1,145,6|0,3:2|3:0,0:0:0:0:
162,326,132753,1,0,3:2:0:0:
137,234,132947,22,0,L|135:197,3,36.25,4|0|0|0,3:2|3:2|3:2|3:2,3:2:0:0:
119,165,133334,2,0,L|122:128,3,36.25,4|0|0|0,3:1|3:2|3:2|3:2,3:2:0:0:
143,96,133721,6,0,P|197:130|261:125,1,130.499996017456,6|0,1:2|0:0,0:0:0:0:
280,96,134108,2,0,L|364:116,1,86.9999973449708,8|2,0:0|0:3,0:0:0:0:
447,165,134495,1,6,1:1:0:0:
372,225,134689,1,2,0:3:0:0:
421,306,134882,2,0,L|337:326,1,86.9999973449708,8|2,0:0|0:3,0:0:0:0:
244,298,135269,22,0,P|231:256|231:213,1,86.9999973449708,6|2,1:2|0:3,0:0:0:0:
157,274,135656,2,0,P|169:315|169:358,1,86.9999973449708,8|2,0:0|0:3,0:0:0:0:
90,304,136043,2,0,P|77:262|77:219,1,86.9999973449708,6|2,1:1|0:3,0:0:0:0:
170,195,136430,2,0,L|256:183,1,86.9999973449708,12|10,0:1|0:3,0:0:0:0:
267,191,136721,1,0,0:0:0:0:
277,200,136818,22,0,P|320:208|361:195,1,86.9999973449708,6|2,1:2|0:3,0:0:0:0:
397,106,137205,2,0,P|354:98|313:111,1,86.9999973449708,8|2,0:0|0:3,0:0:0:0:
226,151,137592,2,0,P|239:92|186:60,1,130.499996017456,6|0,1:1|0:0,0:0:0:0:
162,85,137979,2,0,L|135:167,1,86.9999973449708,8|2,0:0|0:3,0:0:0:0:
126,263,138366,21,6,1:2:0:0:
206,315,138560,2,0,L|215:357,2,43.4999986724854,2|0|8,0:3|0:0|0:3,0:0:0:0:
274,248,138947,1,2,0:3:0:0:
278,244,139043,1,0,0:0:0:0:
282,240,139140,2,0,L|311:157,1,86.9999973449708,6|2,1:1|0:3,0:0:0:0:
374,229,139527,2,0,L|403:312,1,86.9999973449708,12|10,0:1|0:3,0:0:0:0:
298,340,139914,22,0,B|255:352|211:337|211:337|183:352,2,119.625003650665,6|0|0,1:2|0:0|0:0,0:0:0:0:
342,263,140689,2,0,B|384:275|428:260|428:260|456:275,2,119.625003650665,6|0|0,1:1|0:0|0:1,0:0:0:0:
272,207,141463,22,0,P|232:250|174:248,1,119.625003650665,6|0,1:2|0:0,0:0:0:0:
150,227,141850,2,0,L|161:148,1,79.7500024337769,6|0,1:1|0:0,0:0:0:0:
194,66,142237,1,6,1:1:0:0:
192,60,142334,1,0,0:0:0:0:
190,54,142430,2,0,P|151:61|119:84,1,79.7500024337769,0|8,0:0|0:0,0:0:0:0:
86,166,142818,1,0,0:0:0:0:
88,172,143011,22,0,P|131:218|123:280,1,130.499996017456,6|0,1:2|0:0,0:0:0:0:
130,315,143398,2,0,L|216:327,1,86.9999973449708,8|2,0:0|0:3,0:0:0:0:
305,292,143785,2,0,B|287:252|287:252|297:165,1,130.499996017456,6|0,1:1|0:0,0:0:0:0:
281,135,144172,2,0,L|186:152,1,86.9999973449708,8|2,0:0|0:3,0:0:0:0:
128,220,144560,21,6,1:2:0:0:
73,141,144753,2,0,L|30:133,2,43.4999986724854,2|0|8,0:3|0:0|0:0,0:0:0:0:
140,72,145140,1,2,0:3:0:0:
220,123,145334,22,0,L|231:165,3,43.4999986724854,6|0|2|0,1:1|3:0|3:3|3:0,3:0:0:0:
223,199,145721,2,0,L|211:241,3,43.4999986724854,14|0|10|0,3:1|3:0|3:3|3:0,3:0:0:0:
212,280,146108,22,0,P|255:290|298:289,1,86.9999973449708,6|2,1:2|0:3,0:0:0:0:
347,207,146495,1,8,0:0:0:0:
345,201,146592,1,0,0:0:0:0:
343,195,146689,2,0,P|330:152|307:116,2,86.9999973449708,2|6|2,0:3|1:1|0:3,0:0:0:0:
256,234,147269,2,0,P|246:276|246:319,1,86.9999973449708,8|2,0:0|0:3,0:0:0:0:
335,356,147656,22,0,L|421:345,1,86.9999973449708,6|2,1:2|0:3,0:0:0:0:
484,272,148043,2,0,L|397:261,1,86.9999973449708,8|2,0:0|0:3,0:0:0:0:
432,171,148430,2,0,L|346:185,1,86.9999973449708,6|2,1:1|0:3,0:0:0:0:
352,89,148818,2,0,L|273:127,1,86.9999973449708,12|10,0:1|0:3,0:0:0:0:
262,121,149108,1,0,0:0:0:0:
250,115,149205,22,0,L|163:106,1,86.9999973449708,6|2,1:2|0:3,0:0:0:0:
84,161,149592,2,0,P|124:177|154:208,1,86.9999973449708,8|2,0:0|0:3,0:0:0:0:
203,290,149979,2,0,P|245:284|282:262,1,86.9999973449708,6|2,1:1|0:3,0:0:0:0:
354,198,150366,2,0,P|391:220|433:225,1,86.9999973449708,8|2,0:0|0:3,0:0:0:0:
421,129,150753,21,6,1:2:0:0:
341,75,150947,1,2,0:3:0:0:
266,134,151140,1,8,0:0:0:0:
262,138,151527,21,6,1:1:0:0:
341,75,151721,1,2,0:3:0:0:
354,169,151914,1,12,0:1:0:0:
280,228,152108,1,10,0:3:0:0:
187,195,152301,22,0,L|178:116,1,79.7500024337769,6|2,1:2|0:3,0:0:0:0:
102,146,152689,1,8,0:0:0:0:
184,114,152882,1,2,0:3:0:0:
190,112,152979,1,0,0:0:0:0:
196,110,153076,2,0,L|272:131,1,79.7500024337769,6|2,1:1|0:3,0:0:0:0:
296,216,153463,2,0,L|219:194,1,79.7500024337769,8|2,0:0|0:3,0:0:0:0:
133,149,153850,22,0,P|122:207|148:260,1,119.625003650665,6|0,1:2|0:0,0:0:0:0:
166,287,154237,2,0,L|244:274,1,79.7500024337769,8|2,0:0|0:3,0:0:0:0:
305,199,154624,1,6,1:1:0:0:
362,277,154818,2,0,L|353:316,2,39.8750012168885,2|0|8,0:3|0:0|0:0,0:0:0:0:
435,214,155205,1,10,0:3:0:0:
451,307,155398,22,0,P|436:348|409:382,1,86.9999973449708,6|2,1:2|0:3,0:0:0:0:
278,345,155785,1,8,0:0:0:0:
267,241,155979,1,2,0:3:0:0:
346,173,156172,1,6,1:1:0:0:
346,173,156947,22,0,P|391:199|401:251,1,108.750004148483,6|2,1:2|0:3,0:0:0:0:
361,340,157334,1,8,0:0:0:0:
284,281,157527,1,2,0:3:0:0:
280,277,157624,1,0,0:0:0:0:
276,273,157721,1,6,0:1:0:0:
216,350,157914,1,2,0:3:0:0:
137,292,158108,2,0,L|128:238,3,54.3750020742417,12|0|14|0,3:1|3:0|3:1|3:0,3:0:0:0:
148,202,158495,6,0,B|148:177|158:162|158:162|145:126|145:126|164:94|193:84,1,145,6|8,1:2|0:0,0:0:0:0:
281,51,159076,1,2,0:3:0:0:
363,95,159269,1,2,1:2:0:0:
378,120,159366,2,0,B|390:153|390:153|387:189,2,72.5
355,102,159850,1,2,0:3:0:0:
282,161,160043,22,0,L|241:169,3,36.25,2|0|2|0,1:2|0:0|0:3|0:0,0:0:0:0:
221,153,160430,2,0,L|180:145,3,36.25,8|0|2|0,0:0|0:0|0:3|0:0,0:0:0:0:
158,156,160818,2,0,L|169:227,1,72.5,2|2,1:2|0:3,0:0:0:0:
240,290,161205,2,0,L|275:282,3,36.25,8|0|10|0,0:0|0:0|0:3|0:0,0:0:0:0:
300,298,161592,22,0,B|312:264|312:264|315:228,1,72.5,6|2,1:2|0:3,0:0:0:0:
262,150,161979,2,0,L|267:115,3,36.25,8|0|2|0,0:0|0:0|0:3|0:0,0:0:0:0:
286,92,162366,2,0,B|321:94|321:94|356:84,1,72.5,2|2,1:2|0:3,0:0:0:0:
419,155,162753,2,0,B|383:152|383:152|348:162,1,72.5,8|2,0:0|0:3,0:0:0:0:
277,224,163140,22,0,B|302:257|302:257|299:324,1,108.75,2|0,1:2|0:0,0:0:0:0:
280,346,163527,2,0,L|209:331,1,72.5,8|2,0:0|0:3,0:0:0:0:
128,281,163914,2,0,B|139:307|139:307|157:284|153:254|153:254|135:231|126:197|126:197|141:162|140:129,1,217.5,2|10,1:2|0:3,0:0:0:0:
102,52,164689,22,0,B|118:28|151:25|151:25|175:62|225:60,1,145,6|8,1:2|0:3,0:0:0:0:
307,12,165269,1,2,0:3:0:0:
368,84,165463,2,0,B|358:119|358:119|360:155,1,72.5,2|2,1:2|0:3,0:0:0:0:
380,176,165753,2,0,L|376:248,1,72.5,2|0,0:0|0:0,0:0:0:0:
360,273,166043,1,2,0:3:0:0:
269,300,166237,22,0,L|277:335,3,36.25,2|0|2|0,1:2|0:0|0:3|0:0,0:0:0:0:
262,360,166624,2,0,B|213:367|213:367|190:360,1,72.5,8|2,0:0|0:3,0:0:0:0:
122,294,167011,2,0,B|141:262|141:262|142:227,1,72.5,2|2,1:2|0:3,0:0:0:0:
148,198,167301,2,0,B|138:163|138:163|146:128,1,72.5,2|0,0:0|0:0,0:0:0:0:
139,99,167592,1,2,0:3:0:0:
221,140,167785,22,0,B|239:146|239:146|257:147,3,36.25,6|0|2|0,1:2|0:0|0:3|0:0,0:0:0:0:
286,141,168172,2,0,B|304:142|304:142|321:147,3,36.25,8|0|2|0,0:0|0:0|0:3|0:0,0:0:0:0:
350,142,168559,2,0,L|366:71,1,72.5,2|2,1:2|0:3,0:0:0:0:
431,139,168947,2,0,L|447:209,1,72.5,8|2,0:0|0:3,0:0:0:0:
386,281,169334,22,0,B|350:277|350:277|322:254,1,72.5,6|2,1:2|0:3,0:0:0:0:
223,292,169721,2,0,B|258:295|258:295|286:318,1,72.5,12|2,0:1|0:3,0:0:0:0:
202,362,170108,2,0,L|166:357,3,36.25,6|0|2|0,1:2|3:2|3:3|3:2,3:2:0:0:
146,336,170495,2,0,L|110:341,3,36.25,8|0|10|0,3:2|3:2|3:3|3:2,3:2:0:0:
70,325,170882,22,0,L|64:289,1,36.25,6|0,1:2|0:0,0:0:0:0:
82,196,171172,1,0,0:0:0:0:
108,209,171269,2,0,B|144:211|144:211|179:203,1,72.5,8|2,0:0|0:3,0:0:0:0:
259,152,171656,1,2,1:2:0:0:
244,127,171753,2,0,L|234:55,2,72.5
263,156,172237,1,2,0:3:0:0:
334,217,172430,22,0,B|369:212|369:212|422:162,1,108.75,2|0,1:2|0:0,0:0:0:0:
413,135,172818,2,0,L|350:97,1,72.5,8|2,0:0|0:3,0:0:0:0:
267,54,173205,2,0,B|234:85|227:127|227:127|213:106,1,108.75,2|0,1:2|0:0,0:0:0:0:
190,90,173592,2,0,L|121:114,1,72.5,8|10,0:0|0:3,0:0:0:0:
35,152,173979,22,0,L|21:118,2,36.25,6|0|2,1:2|0:0|0:3,0:0:0:0:
62,254,174366,2,0,L|51:326,1,72.5,8|2,0:0|0:3,0:0:0:0:
139,358,174753,1,2,1:2:0:0:
165,344,174850,2,0,B|197:328|197:328|233:327,1,72.5
260,342,175140,2,0,L|287:274,1,72.5,8|2,0:0|0:3,0:0:0:0:
279,180,175527,21,2,1:2:0:0:
261,203,175624,2,0,L|191:223,1,72.5
165,211,175914,2,0,L|175:139,1,72.5,8|2,0:0|0:3,0:0:0:0:
250,83,176301,2,0,P|296:101|312:55,1,108.75,2|0,1:2|0:0,0:0:0:0:
293,24,176689,2,0,L|259:9,3,36.25,8|0|10|0,3:2|3:0|3:3|3:0,3:0:0:0:
213,17,177076,22,0,L|168:74,1,72.5,6|2,1:2|0:3,0:0:0:0:
217,155,177463,2,0,L|252:162,2,36.25,8|0|2,0:0|0:0|0:3,0:0:0:0:
123,150,177850,2,0,B|90:162|90:162|66:189,1,72.5,2|2,1:2|0:3,0:0:0:0:
60,219,178140,2,0,L|86:286,1,72.5,2|0,0:0|0:0,0:0:0:0:
90,315,178430,1,2,0:3:0:0:
173,271,178624,21,2,1:2:0:0:
199,259,178721,2,0,L|270:278,1,72.5
300,301,179011,2,0,L|303:337,2,36.25,8|0|2,0:0|0:0|0:3,0:0:0:0:
293,206,179398,1,2,1:2:0:0:
311,183,179495,2,0,B|337:158|337:158|371:149,1,72.5
401,157,179785,2,0,L|424:225,1,72.5,8|10,0:0|0:3,0:0:0:0:
390,313,180172,22,0,B|312:337|312:337|315:310,1,108.75,6|0,1:2|0:0,0:0:0:0:
326,275,180559,2,0,L|350:248,2,36.25,8|0|2,0:0|0:0|0:3,0:0:0:0:
232,292,180947,2,0,L|213:221,1,72.5,2|2,1:2|0:3,0:0:0:0:
225,195,181237,2,0,B|212:161|212:161|185:138,1,72.5,2|0,0:0|0:0,0:0:0:0:
156,135,181527,1,2,0:3:0:0:
83,195,181721,22,0,B|107:221|107:221|142:230,1,72.5,6|2,1:2|0:3,0:0:0:0:
170,334,182108,2,0,B|147:307|147:307|111:298,1,72.5,12|2,0:1|0:3,0:0:0:0:
19,322,182495,2,0,L|24:286,3,36.25,6|0|2|0,1:2|3:2|3:3|3:2,3:2:0:0:
45,266,182882,2,0,L|40:230,3,36.25,12|0|10|0,3:2|3:2|3:3|3:2,3:2:0:0:
53,192,183269,22,0,B|55:129|122:103|122:103|167:166|145:212|145:212|181:233|203:270|203:270|206:242,1,348,6|0,1:2|1:0,0:0:0:0:
228,117,184818,22,0,B|226:52|279:22|279:22|309:36|329:55,1,174,2|0,1:0|1:0,0:0:0:0:
363,118,185592,2,0,L|391:112,3,29,2|0|0|0,1:0|1:0|1:0|1:0,0:0:0:0:
425,128,185979,2,0,L|453:133,3,29,2|0|0|0,1:0|1:0|1:0|1:0,0:0:0:0:
483,159,186366,22,0,B|492:206|456:241|456:241|433:221|433:221|383:204|324:230,1,232,2|0,1:0|1:0,0:0:0:0:
237,307,187527,1,0,1:0:0:0:
148,233,187914,22,0,L|132:147,1,87,2|0,1:0|1:0,0:0:0:0:
106,133,188301,2,0,L|64:174,1,58,0|0,1:0|1:0,0:0:0:0:
24,112,188689,1,2,1:0:0:0:
158,59,189076,21,0,1:0:0:0:
216,119,189269,1,0,1:0:0:0:
289,78,189463,21,14,1:2:0:0:
334,149,189656,2,0,L|324:183,2,32.624999004364,10|0|12,3:3|3:2|1:3,3:2:0:0:
253,192,190043,2,0,L|263:226,2,32.624999004364,10|0|12,3:3|3:2|1:3,3:2:0:0:
327,256,190430,2,0,L|317:290,2,32.624999004364,10|0|12,3:3|3:2|1:3,3:2:0:0:
255,326,190818,22,0,L|223:332,2,32.624999004364,10|0|14,3:3|3:2|1:3,3:2:0:0:
177,276,191205,2,0,L|146:263,2,32.624999004364,10|0|12,3:3|3:2|1:3,3:2:0:0:
80,312,191592,1,10,3:3:0:0:
48,236,191785,1,14,1:3:0:0:
50,230,191882,1,0,3:2:0:0:
52,224,191979,2,0,P|70:198|94:176,1,65.2499980087281,10|12,3:3|1:3,3:2:0:0:
171,210,192366,1,10,3:3:0:0:
231,149,192560,22,0,L|220:69,2,72.5,12|10|12,1:2|3:3|1:3,3:2:0:0:
296,216,193140,1,10,3:3:0:0:
255,301,193334,2,0,L|267:380,2,72.5,12|10|12,1:1|3:3|1:3,3:2:0:0:
296,216,193914,1,10,3:3:0:0:
202,225,194108,21,12,1:2:0:0:
193,131,194301,1,10,3:3:0:0:
287,122,194495,1,12,1:3:0:0:
296,216,194689,1,10,3:3:0:0:
371,160,194882,22,8,P|390:163|410:163,3,36.25,12|8|10|8,1:1|3:2|3:3|3:2,3:2:0:0:
435,156,195269,2,8,P|454:156|474:160,3,36.25,12|8|10|8,1:1|3:2|3:3|3:2,3:2:0:0:
490,181,195656,21,6,3:2:0:0:
480,86,195850,1,0,3:2:0:0:
492,187,196043,2,0,L|468:255,1,72.5,0|0,3:2|3:2,3:2:0:0:
376,232,196430,22,0,L|339:234,3,36.25,0|0|0|0,3:2|3:2|3:2|3:2,3:2:0:0:
307,250,196818,2,0,L|270:247,3,36.25,0|0|0|0,3:2|3:2|3:2|3:2,3:2:0:0:
237,261,197205,21,6,1:2:0:0:
121,162,203398,22,0,B|125:203|103:228|103:228|99:254,2,97.8749970130921,6|0|0,1:2|0:0|0:0,0:0:0:0:
195,202,204172,2,0,B|191:161|213:136|213:136|216:109,2,97.8749970130921,6|0|0,1:1|0:0|0:0,0:0:0:0:
274,187,204947,22,0,L|297:247,1,65.2499980087281,6|0,1:2|0:0,0:0:0:0:
349,164,205334,2,0,L|372:103,1,65.2499980087281,4|0,1:1|0:0,0:0:0:0:
435,160,205721,1,6,1:2:0:0:
437,166,205818,1,0,0:0:0:0:
439,172,205914,2,0,P|445:203|442:235,1,65.2499980087281,0|0,0:0|1:2,0:0:0:0:
388,302,206301,1,0,1:0:0:0:
382,304,206398,1,0,1:0:0:0:
376,306,206495,22,0,L|268:296,1,108.75,6|0,1:2|0:0,0:0:0:0:
245,314,206882,2,0,L|173:326,1,72.5
87,288,207269,2,0,P|109:238|112:184,1,108.75,6|0,1:1|0:0,0:0:0:0:
99,159,207656,2,0,L|129:93,1,72.5
198,28,208043,21,6,1:2:0:0:
278,78,208237,2,0,L|312:67,2,36.25,2|0|8,0:3|0:0|0:0,0:0:0:0:
210,144,208624,1,2,0:3:0:0:
262,222,208818,6,0,L|304:233,3,36.25,6|0|2|0,1:1|3:0|3:3|3:0,3:0:0:0:
333,223,209205,2,0,L|375:211,3,36.25,14|0|10|0,3:1|3:0|3:3|3:0,3:0:0:0:
383,183,209592,22,0,P|359:145|328:115,1,86.9999973449708,6|2,1:2|0:3,0:0:0:0:
249,169,209979,1,12,0:3:0:0:
243,171,210076,1,0,0:0:0:0:
237,173,210172,2,0,P|195:185|152:186,2,86.9999973449708,2|6|2,0:3|1:1|0:3,0:0:0:0:
237,77,210753,2,0,P|194:64|151:63,1,86.9999973449708,12|2,0:3|0:3,0:0:0:0:
69,112,211140,22,0,L|80:198,1,86.9999973449708,6|2,1:2|0:3,0:0:0:0:
141,272,211527,2,0,L|152:185,1,86.9999973449708,12|2,0:3|0:3,0:0:0:0:
210,109,211914,2,0,L|224:23,1,86.9999973449708,6|2,1:1|0:3,0:0:0:0:
282,100,212302,2,0,L|296:185,1,86.9999973449708,12|10,0:1|0:3,0:0:0:0:
298,199,212592,1,0,0:0:0:0:
300,212,212689,22,0,P|257:218|219:240,1,86.9999973449708,6|2,1:2|0:3,0:0:0:0:
140,182,213076,2,0,P|182:175|220:153,1,86.9999973449708,12|2,0:3|0:3,0:0:0:0:
277,75,213463,2,0,P|319:81|357:103,1,86.9999973449708,6|2,1:1|0:3,0:0:0:0:
437,155,213850,2,0,P|397:171|353:174,1,86.9999973449708,12|2,0:3|0:3,0:0:0:0:
257,162,214237,21,6,1:2:0:0:
196,237,214431,1,2,0:3:0:0:
249,319,214624,1,12,0:3:0:0:
253,315,215011,21,6,1:1:0:0:
279,222,215205,1,2,0:3:0:0:
211,152,215398,1,12,0:1:0:0:
121,189,215592,1,10,0:3:0:0:
202,241,215785,22,0,L|278:222,1,79.7500024337769,6|2,1:2|0:3,0:0:0:0:
342,295,216173,1,12,0:3:0:0:
369,203,216366,1,2,0:3:0:0:
371,197,216463,1,0,0:0:0:0:
373,191,216560,2,0,L|364:112,1,79.7500024337769,6|2,1:1|0:3,0:0:0:0:
282,60,216947,2,0,L|291:139,1,79.7500024337769,12|2,0:3|0:3,0:0:0:0:
318,239,217334,22,0,P|376:223|433:237,1,119.625003650665,6|0,1:2|0:0,0:0:0:0:
462,204,217721,2,0,P|478:168|483:128,1,79.7500024337769,12|2,0:3|0:3,0:0:0:0:
446,39,218108,1,6,1:1:0:0:
372,101,218301,2,0,L|372:140,2,39.8750012168885,2|0|12,0:3|0:0|0:3,0:0:0:0:
328,15,218689,1,10,0:3:0:0:
282,103,218882,22,0,L|252:184,1,86.9999973449708,6|2,1:2|0:3,0:0:0:0:
213,281,219269,1,8,0:0:0:0:
178,182,219463,1,2,0:3:0:0:
147,82,219656,1,6,1:1:0:0:
147,82,220431,22,0,P|102:108|92:160,1,108.750004148483,6|2,1:2|0:3,0:0:0:0:
132,249,220818,1,12,0:3:0:0:
209,190,221011,1,2,0:3:0:0:
213,186,221108,1,0,0:0:0:0:
217,182,221205,1,6,0:1:0:0:
277,259,221398,1,2,0:3:0:0:
356,201,221592,2,0,L|365:147,3,54.3750020742417,12|0|14|0,3:1|3:0|3:1|3:0,3:0:0:0:
391,124,221979,22,0,B|427:100|427:100|460:19,2,130.499996017456,6|0|2,1:2|0:0|0:3,0:0:0:0:
298,96,222753,2,0,L|293:52,2,43.4999986724854,2|0|2,1:2|0:0|0:3,0:0:0:0:
271,187,223140,2,0,B|239:217|239:217|196:223,1,86.9999973449708,8|2,0:0|0:3,0:0:0:0:
106,189,223527,22,0,L|93:59,1,130.499996017456,2|0,1:2|0:0,0:0:0:0:
107,27,223914,2,0,B|132:61|132:61|173:75,1,86.9999973449708,8|2,0:0|0:3,0:0:0:0:
266,103,224301,2,0,B|304:83|304:83|347:89,2,86.9999973449708,2|2|8,1:2|0:3|0:0,0:0:0:0:
197,170,224882,1,8,0:0:0:0:
195,176,224979,1,0,0:0:0:0:
193,182,225076,22,0,B|223:218|223:218|305:228,1,130.499996017456,6|0,1:2|0:0,0:0:0:0:
338,216,225463,1,8,0:0:0:0:
405,148,225656,2,0,L|416:321,1,173.999994689942,2|2,0:3|0:3,0:0:0:0:
500,274,226237,2,0,L|494:187,1,86.9999973449708,8|2,0:0|0:3,0:0:0:0:
455,99,226624,22,0,B|360:108|360:108|330:89,1,130.499996017456,2|0,1:2|0:0,0:0:0:0:
298,76,227011,2,0,L|214:100,1,86.9999973449708,8|2,0:0|0:3,0:0:0:0:
124,65,227398,2,0,B|130:98|117:130|117:130|133:167|133:167|118:195|122:232,1,173.999994689942,2|8,1:2|0:0,0:0:0:0:
159,321,227979,1,10,0:3:0:0:
163,325,228076,1,0,0:0:0:0:
167,329,228172,6,0,B|207:304|207:304|227:223,1,130.499996017456,6|0,1:2|0:0,0:0:0:0:
218,189,228559,1,8,0:0:0:0:
266,106,228753,2,0,L|352:99,1,86.9999973449708,2|2,0:3|1:2,0:0:0:0:
405,180,229140,2,0,L|318:186,1,86.9999973449708,2|8,0:3|0:0,0:0:0:0:
248,251,229527,1,2,0:3:0:0:
246,245,229624,1,0,0:0:0:0:
244,239,229721,22,0,B|229:208|229:208|252:164|229:115,1,130.499996017456,6|0,1:2|0:0,0:0:0:0:
198,99,230108,2,0,L|136:160,1,86.9999973449708,8|2,0:0|0:3,0:0:0:0:
86,242,230495,2,0,B|119:269|119:269|163:273,1,86.9999973449708,6|2,1:1|0:3,0:0:0:0:
225,201,230882,2,0,B|268:205|268:205|302:232,1,86.9999973449708,12|10,0:1|0:3,0:0:0:0:
310,243,231172,1,0,0:0:0:0:
317,254,231269,22,0,B|333:276|333:276|366:239|357:179,1,130.499996017456,6|0,1:2|0:0,0:0:0:0:
331,156,231656,2,0,B|337:113|337:113|370:83,1,86.9999973449708,8|2,0:0|0:3,0:0:0:0:
444,23,232043,1,6,1:1:0:0:
489,107,232237,1,2,0:3:0:0:
424,177,232430,1,8,0:0:0:0:
474,258,232624,1,2,0:3:0:0:
400,319,232818,22,0,B|358:325|358:325|316:314,1,86.9999973449708,6|2,1:2|0:3,0:0:0:0:
271,231,233205,2,0,B|313:220|313:220|355:227,1,86.9999973449708,12|2,0:1|0:3,0:0:0:0:
445,261,233592,2,0,L|454:218,3,43.4999986724854,6|0|10|0,1:2|3:0|3:3|3:0,3:0:0:0:
425,179,233979,2,0,L|417:136,3,43.4999986724854,12|0|10|0,3:2|3:0|3:3|3:0,3:0:0:0:
435,92,234366,21,2,0:0:0:0:
