osu file format v14

[General]
AudioFilename: kancollemp3.mp3
AudioLeadIn: 0
PreviewTime: 57753
Countdown: 0
SampleSet: Soft
StackLeniency: 0.7
Mode: 0
LetterboxInBreaks: 0
EpilepsyWarning: 1
WidescreenStoryboard: 1

[Editor]
Bookmarks: 101108,106527,119689,125108,183172,189366,203301,209108
DistanceSpacing: 0.8
BeatDivisor: 4
GridSize: 4
TimelineZoom: 1.5

[Metadata]
Title:Shounen yo, Tokkou no Sakigake to Nare
TitleUnicode:少年よ、特攻の魁となれ
Artist:senya
ArtistUnicode:senya
Creator:-Mo-
Version:Dailycare's Normal
Source:
Tags:Satellite Narcissu yf_bmp Dailycare [C_u_r_i] Yuuhei Catharsis 幽閉カタルシス Shoujo Fractal 少女フラクタル 武蔵、大和 Kantai Collection KanColle 艦隊これくしょん 艦これ 艦隊これくしょん -艦これ- Kamase-tora かませ虎 奥山ナマリ Mayumi Morinaga 森永真由美 Korekushon Combined Fleet M3-2016春 Dagger-Gazel
BeatmapID:1321169
BeatmapSetID:562169

[Difficulty]
HPDrainRate:4
CircleSize:3.7
OverallDifficulty:4
ApproachRate:5
SliderMultiplier:1.3
SliderTickRate:1

[Events]
//Background and Video events
0,0,"yamabg.jpg",0,0
//Break Periods
2,82824,87269
2,183469,188263
2,197405,202198
//Storyboard Layer 0 (Background)
//Storyboard Layer 1 (Fail)
//Storyboard Layer 2 (Pass)
//Storyboard Layer 3 (Foreground)
Sprite,Foreground,Centre,"sb\hl.png",320,248 F,1,195656,196043,0,1 S,6,195656,197205,1,6
Sprite,Foreground,Centre,"sb\hl.png",324,371 C,0,132172,,255,255,255 M,0,132172,132220,324,371,339.8971,368.0276 M,0,132220,132268,339.8971,368.0276,356.0142,368.0059 M,0,132268,132317,356.0142,368.0059,371.7762,371.3885 M,0,132317,132365,371.7762,371.3885,386.4738,378.0252 M,0,132365,132413,386.4738,378.0252,399.4448,387.6202 M,0,132413,132462,399.4448,387.6202,410.1033,399.745 M,0,132462,132510,410.1033,399.745,399.4448,387.6202 M,0,132510,132559,399.4448,387.6202,386.4738,378.0252 M,0,132559,132607,386.4738,378.0252,371.7762,371.3885 M,0,132607,132655,371.7762,371.3885,356.0142,368.0059 M,0,132655,132704,356.0142,368.0059,339.8971,368.0276 M,0,132704,132752,339.8971,368.0276,324,371 F,2,132752,132952,1,0 S,2,132752,132952,1,0.2
Sprite,Foreground,Centre,"sb\hl.png",275,390 C,0,132947,,255,255,255 F,2,132947,133147,1,0 S,2,132947,133147,1,0.2
Sprite,Foreground,Centre,"sb\hl.png",173,413 C,0,133334,,255,255,255 M,0,133334,133382,173,413,156.7743,412.4081 M,0,133382,133430,156.7743,412.4081,140.6492,410.5937 M,0,133430,133479,140.6492,410.5937,124.7448,407.3697 M,0,133479,133527,124.7448,407.3697,109.1836,402.7606 F,2,133527,133727,1,0 S,2,133527,133727,1,0.2
Sprite,Foreground,Centre,"sb\hl.png",376,272 C,0,56301,,255,255,255 F,2,56301,56501,1,0 S,2,56301,56501,1,0.2
//Storyboard Sound Samples

[TimingPoints]
560,387.096774193548,4,2,1,70,1,0
19140,-100,4,2,1,50,0,0
29979,-100,4,2,1,70,0,0
43914,-125,4,2,1,50,0,0
50108,-100,4,2,1,70,0,0
57850,-100,4,2,1,70,0,1
57947,-100,4,2,1,70,0,0
70237,-100,4,2,1,70,0,1
70334,-100,4,2,1,70,0,0
82624,-100,4,2,1,50,0,0
88818,-100,4,2,1,70,0,0
101205,-100,4,2,1,60,0,0
106818,-100,4,2,1,70,0,0
119785,-125,4,2,1,50,0,0
125205,-100,4,2,1,50,0,0
125979,-100,4,2,1,70,0,0
133721,-100,4,2,1,70,0,1
133818,-100,4,2,1,70,0,0
146108,-100,4,2,1,70,0,1
146205,-100,4,2,1,70,0,0
158495,-100,4,2,2,80,0,1
158592,-100,4,2,2,80,0,0
170882,-100,4,2,2,80,0,1
170979,-100,4,2,2,80,0,0
183269,-100,4,2,1,70,0,0
203398,-100,4,2,1,60,0,0
208043,-100,4,2,1,70,0,0
209592,-100,4,2,1,70,0,1
209689,-100,4,2,1,70,0,0
221979,-100,4,2,1,70,0,1
222076,-100,4,2,1,70,0,0
234366,-100,4,2,1,50,0,0

[Colours]
Combo1 : 254,252,158
Combo2 : 222,139,198
Combo3 : 71,202,245
Combo4 : 249,104,104

[HitObjects]
66,42,6753,38,0,P|77:107|90:200,1,130,4|0,1:2|0:0,0:0:0:0:
72,220,7334,2,0,P|115:187|208:196,1,130,2|2,0:0|0:0,0:0:0:0:
228,218,7914,2,0,L|309:225,1,65,0|2,0:0|0:0,0:0:0:0:
344,220,8301,22,0,P|335:279|329:344,2,97.5,2|2|2,1:2|0:0|0:0,0:0:0:0:
387,191,9076,2,0,P|380:135|373:45,1,130,0|0,1:0|1:0,0:0:0:0:
281,13,9850,22,0,P|206:34|133:52,1,130,4|0,1:2|0:0,0:0:0:0:
103,50,10430,1,2,0:2:0:0:
103,50,10624,2,0,L|95:121,1,65,2|2,1:2|0:0,0:0:0:0:
58,151,11011,2,0,L|66:222,1,65,0|2,0:0|0:0,0:0:0:0:
39,260,11398,22,0,P|101:239|203:311,1,195,2|2,1:2|0:0,0:0:0:0:
212,357,12172,2,0,P|256:347|357:330,1,130,2|0,1:2|1:0,0:0:0:0:
436,370,12947,22,0,P|445:333|393:246,1,130,4|0,1:2|0:0,0:0:0:0:
358,234,13527,2,0,P|334:182|373:122,1,130,2|2,0:0|0:0,0:0:0:0:
349,75,14108,2,0,L|426:65,1,65,0|2,0:0|0:0,0:0:0:0:
458,92,14495,22,0,P|483:54|473:1,2,97.5,2|2|2,1:2|0:0|0:0,0:0:0:0:
487,135,15269,2,0,P|482:178|475:278,1,130,2|2,0:0|1:2,0:0:0:0:
413,347,16043,22,0,P|380:317|281:331,1,130,4|0,1:2|0:0,0:0:0:0:
247,306,16624,1,0,0:0:0:0:
247,306,16818,2,0,L|240:225,1,65,2|0,1:2|0:0,0:0:0:0:
206,202,17205,2,0,L|213:121,1,65,2|2,1:2|0:0,0:0:0:0:
246,98,17592,22,0,L|93:89,2,130,4|4|0,1:2|1:2|1:0,0:0:0:0:
343,61,18753,1,0,1:0:0:0:
434,110,19140,6,0,P|450:169|475:252,1,130,4|8,1:2|1:2,0:0:0:0:
382,291,19914,2,0,P|365:231|341:149,1,130,0|8,1:0|1:2,0:0:0:0:
343,61,20689,2,0,P|392:13|478:21,2,130,0|8|0,1:0|1:2|1:0,0:0:0:0:
255,116,21850,1,8,1:2:0:0:
155,86,22237,22,0,P|99:98|5:116,1,130,0|8,1:0|1:2,0:0:0:0:
48,213,23011,2,0,P|104:201|198:183,1,130,0|8,1:0|1:2,0:0:0:0:
255,116,23785,2,0,P|258:64|236:20,2,97.5,0|2|2,1:0|0:0|0:0,0:0:0:0:
279,157,24559,2,0,P|273:207|267:301,1,130,0|8,1:2|1:2,0:0:0:0:
197,364,25334,22,0,P|165:354|47:326,1,130,4|8,1:2|1:2,0:0:0:0:
53,228,26108,2,0,P|85:238|203:266,1,130,0|8,1:0|1:2,0:0:0:0:
267,315,26882,2,0,P|281:276|243:180,2,130,0|8|0,1:2|1:2|1:0,0:0:0:0:
357,366,28043,1,8,1:2:0:0:
454,329,28430,22,0,P|468:278|493:196,1,130,0|8,1:0|1:2,0:0:0:0:
402,147,29205,2,0,P|388:198|363:280,1,130,0|8,1:2|1:2,0:0:0:0:
327,306,29785,1,8,0:0:0:0:
327,306,29979,22,0,L|195:324,1,130,4|8,1:2|1:2,0:0:0:0:
97,351,30753,2,0,P|102:311|108:265,1,65,0|0,1:0|1:0,0:0:0:0:
132,241,31140,2,0,P|127:208|123:176,1,65,0|0,1:0|1:0,0:0:0:0:
91,135,31527,22,0,P|136:98|227:116,1,130,4|8,1:2|1:2,0:0:0:0:
280,172,32301,2,0,P|323:155|389:134,2,97.5,0|2|2,1:2|0:0|0:0,0:0:0:0:
249,214,33076,2,0,P|241:258|299:338,2,130,0|8|0,1:0|1:2|1:0,0:0:0:0:
184,132,34237,1,8,1:2:0:0:
264,65,34624,22,0,P|223:30|132:48,1,130,0|8,1:0|1:2,0:0:0:0:
70,101,35398,2,0,P|62:43|55:-2,2,97.5,0|2|2,1:2|0:0|0:0,0:0:0:0:
99,144,36172,2,0,P|65:191|79:262,2,130,0|8|0,1:0|1:2|1:0,0:0:0:0:
198,121,37334,2,0,L|275:130,1,65,8|0,1:2|1:0,0:0:0:0:
311,115,37721,22,0,P|303:184|297:247,1,130,4|8,1:2|1:2,0:0:0:0:
349,334,38495,2,0,P|310:354|253:341,2,97.5,0|0|2,1:0|0:0|0:0,0:0:0:0:
385,296,39269,2,0,L|539:310,2,130,0|8|0,1:0|1:2|1:0,0:0:0:0:
297,244,40430,1,8,1:2:0:0:
198,277,40818,21,0,1:0:0:0:
99,242,41205,2,0,P|93:209|85:178,1,65,8|0,1:2|1:0,0:0:0:0:
63,131,41592,2,0,P|108:158|195:137,1,130,0|8,1:0|1:2,0:0:0:0:
221,114,42172,1,0,1:0:0:0:
267,138,42366,22,0,P|274:189|281:234,2,97.5,4|4|4,1:2|1:2|1:2,0:0:0:0:
305,103,43140,1,0,1:0:0:0:
405,76,43527,1,0,1:0:0:0:
484,142,43914,22,0,P|509:201|449:348,1,208,4|8,1:2|1:2,0:0:0:0:
373,373,45076,1,0,0:0:0:0:
284,325,45463,22,0,P|230:333|161:348,2,104,0|0|8,1:0|0:0|1:2,0:0:0:0:
370,275,46624,1,0,0:0:0:0:
284,223,47011,22,0,P|261:152|352:39,2,208,0|8|0,1:0|1:2|1:0,0:0:0:0:
217,300,48947,1,0,0:0:0:0:
141,233,49334,2,0,P|109:230|30:224,1,104,8|0,1:2|0:0,0:0:0:0:
8,124,50108,22,0,P|48:97|147:118,2,130,4|8|2,0:0|1:2|1:2,0:0:0:0:
80,198,51269,1,8,1:2:0:0:
152,272,51656,22,0,P|112:299|13:278,2,130,2|8|0,1:2|1:2|1:0,0:0:0:0:
80,198,52817,1,8,1:2:0:0:
146,118,53205,22,0,P|205:127|288:138,1,130,4|8,1:2|1:2,0:0:0:0:
375,109,53979,2,0,P|367:60|358:6,2,97.5,0|0|0,1:0|0:0|1:0,0:0:0:0:
417,139,54753,2,0,P|389:196|405:258,1,130,2|0,1:2|1:0,0:0:0:0:
370,356,55527,1,0,1:2:0:0:
274,313,55914,1,0,1:2:0:0:
312,216,56301,21,4,0:0:0:0:
312,216,57850,6,0,P|274:220|226:232,1,65,4|0,1:2|0:0,0:0:0:0:
203,254,58237,2,0,P|166:203|184:134,1,130,8|0,1:2|1:0,0:0:0:0:
227,49,59011,2,0,P|258:55|291:59,1,65,8|2,1:2|0:0,0:0:0:0:
335,86,59398,2,0,P|381:60|463:88,2,130,2|8|2,1:2|1:2|1:2,0:0:0:0:
308,186,60559,1,8,1:2:0:0:
378,262,60947,22,0,P|452:271|512:278,1,130,4|8,1:2|1:2,0:0:0:0:
455,367,61721,2,0,P|381:358|321:351,1,130,2|8,1:2|1:2,0:0:0:0:
251,278,62495,1,2,1:2:0:0:
161,330,62882,1,8,1:2:0:0:
154,226,63269,2,0,P|146:176|137:142,1,65,2|0,1:2|1:0,0:0:0:0:
124,113,63656,2,0,L|201:121,1,65,8|0,1:2|1:0,0:0:0:0:
236,140,64043,22,0,P|265:104|256:9,1,130,4|8,1:2|1:2,0:0:0:0:
311,200,64818,2,0,P|327:243|414:283,1,130,4|8,1:2|1:2,0:0:0:0:
220,235,65592,2,0,P|175:228|97:283,1,130,4|8,1:2|1:2,0:0:0:0:
13,220,66366,22,0,P|20:187|24:148,1,65,4|2,1:2|0:0,0:0:0:0:
64,123,66753,2,0,L|54:46,1,65,0|0,0:0|1:2,0:0:0:0:
84,15,67140,22,0,P|137:8|204:59,1,130,4|8,1:2|1:2,0:0:0:0:
210,99,67721,1,2,0:0:0:0:
210,99,67914,2,0,P|251:92|294:90,1,65,0|2,1:0|0:0,0:0:0:0:
324,77,68301,1,8,1:2:0:0:
427,44,68689,2,0,P|463:112|448:162,1,130,2|8,1:2|1:2,0:0:0:0:
462,209,69269,2,0,B|389:193|417:244|319:220,1,130,0|0,1:0|1:0,0:0:0:0:
287,205,69850,2,0,P|254:201|218:197,1,65,8|2,1:2|1:2,0:0:0:0:
186,230,70237,22,0,L|198:314,1,65,4|2,1:2|0:0,0:0:0:0:
218,340,70624,2,0,P|165:314|92:330,1,130,8|0,1:2|1:2,0:0:0:0:
41,239,71398,2,0,L|50:174,1,65,8|2,1:2|0:0,0:0:0:0:
94,147,71785,2,0,P|68:110|-33:110,2,130,2|8|2,1:2|1:2|1:2,0:0:0:0:
168,220,72947,1,8,1:2:0:0:
265,183,73334,22,0,P|328:172|417:152,1,130,4|8,1:2|1:2,0:0:0:0:
433,253,74108,2,0,P|370:264|281:284,1,130,0|10,1:2|1:2,0:0:0:0:
208,316,74882,1,2,1:2:0:0:
168,220,75269,1,8,1:2:0:0:
265,183,75656,1,2,1:2:0:0:
305,277,76043,2,0,L|382:288,1,65,8|0,1:2|1:0,0:0:0:0:
410,317,76430,22,0,P|453:266|436:187,1,130,4|8,1:2|1:2,0:0:0:0:
408,172,77011,2,0,L|396:84,1,65,0|4,0:0|1:2,0:0:0:0:
296,124,77592,2,0,L|284:36,1,65,8|2,1:2|0:0,0:0:0:0:
293,7,77979,2,0,P|232:18|134:34,1,130,4|8,1:2|1:2,0:0:0:0:
81,91,78753,2,0,L|94:175,1,65,2|0,1:2|1:0,0:0:0:0:
132,185,79140,2,0,L|119:269,1,65,8|2,1:2|0:0,0:0:0:0:
94,293,79527,22,0,P|148:336|217:322,1,130,4|8,1:2|1:2,0:0:0:0:
245,296,80108,2,0,P|283:300|334:306,1,65,0|4,1:0|1:2,0:0:0:0:
488,192,81076,1,4,1:2:0:0:
256,192,81172,12,4,82624,0:0:0:0:
488,192,88818,38,0,B|416:164|416:164|310:203|310:203|217:170,1,260,4|4,1:2|1:2,0:0:0:0:
65,72,90366,2,0,B|137:100|137:100|243:61|243:61|336:94,1,260,4|4,1:2|1:2,0:0:0:0:
256,284,91914,1,4,1:2:0:0:
256,192,92011,12,4,95011,1:2:0:0:
256,284,96559,22,0,L|256:132,2,130,4|0|0,1:2|0:0|0:0,0:0:0:0:
209,81,98108,22,0,P|256:68|303:81,1,97.5,4|4,1:2|1:2,0:0:0:0:
301,80,99656,21,4,1:2:0:0:
224,150,100043,1,4,1:2:0:0:
136,94,100430,2,0,P|80:84|5:67,1,130,4|8,1:2|1:2,0:0:0:0:
52,162,101205,21,4,1:2:0:0:
0,252,101592,2,0,P|-13:295|22:370,2,130,8|0|8,1:2|1:0|1:2,0:0:0:0:
102,233,102753,2,0,P|179:243|249:254,1,130,0|8,1:2|1:2,0:0:0:0:
301,326,103527,1,0,1:0:0:0:
400,295,103914,1,8,1:2:0:0:
332,215,104301,21,0,1:0:0:0:
403,139,104689,2,0,P|398:94|384:6,2,130,8|0|8,1:2|1:0|1:2,0:0:0:0:
485,202,105850,2,0,P|511:247|490:331,1,130,0|8,1:0|1:2,0:0:0:0:
401,361,106624,22,0,L|309:350,1,65,0|0,1:0|1:0,0:0:0:0:
287,372,107011,2,0,L|195:361,1,65,8|0,1:2|1:0,0:0:0:0:
172,379,107398,22,0,P|136:332|157:242,1,130,4|8,1:2|1:2,0:0:0:0:
225,202,108172,2,0,P|229:156|237:81,2,97.5,0|2|2,1:2|0:0|0:0,0:0:0:0:
246,249,108947,2,0,P|303:243|401:233,2,130,0|8|0,1:0|1:2|1:0,0:0:0:0:
142,264,110108,1,8,1:2:0:0:
41,237,110495,22,0,P|9:172|34:112,1,130,0|8,1:0|1:2,0:0:0:0:
98,45,111269,2,0,P|50:36|0:27,2,97.5,0|2|2,1:2|0:0|0:0,0:0:0:0:
144,67,112043,2,0,P|190:36|270:51,2,130,0|8|0,1:0|1:2|1:0,0:0:0:0:
173,167,113205,2,0,L|181:249,1,65,8|0,1:2|1:0,0:0:0:0:
166,282,113592,22,0,P|226:267|312:250,1,130,4|8,1:2|1:2,0:0:0:0:
390,287,114366,2,0,P|399:337|377:379,2,97.5,0|0|2,1:0|0:0|0:0,0:0:0:0:
400,236,115140,2,0,P|442:272|533:260,2,130,0|8|0,1:0|1:2|1:0,0:0:0:0:
332,157,116301,1,8,1:2:0:0:
434,139,116689,21,0,1:0:0:0:
369,57,117076,2,0,P|320:52|277:45,1,65,8|0,1:2|1:0,0:0:0:0:
259,23,117463,2,0,P|200:12|137:79,1,130,0|8,1:0|1:2,0:0:0:0:
135,102,118043,1,0,1:0:0:0:
144,153,118237,22,0,P|97:147|40:143,2,97.5,4|4|4,1:2|1:2|1:2,0:0:0:0:
181,189,119011,1,0,1:0:0:0:
121,274,119398,1,0,1:0:0:0:
18,259,119785,22,0,P|-13:206|26:62,1,208,4|8,1:2|1:2,0:0:0:0:
113,37,120947,1,0,1:0:0:0:
193,99,121334,2,0,P|297:105|412:113,1,208,0|0,1:0|0:0,0:0:0:0:
496,152,122495,1,0,2:2:0:0:
414,213,122882,22,0,P|447:299|363:385,2,208,0|8|0,1:0|1:2|1:0,0:0:0:0:
322,172,124818,1,0,1:0:0:0:
243,240,125205,2,0,P|209:245|162:256,1,65,0|8,1:0|1:2,0:0:0:0:
132,227,125592,2,0,P|100:233|68:238,1,65,0|8,1:0|1:2,0:0:0:0:
17,227,125979,22,0,L|24:318,1,65,4|4,1:2|0:0,0:0:0:0:
202,109,127527,22,0,L|195:18,1,65,4|4,1:2|0:0,0:0:0:0:
341,276,129076,22,0,L|348:367,1,65,4|2,1:2|1:2,0:0:0:0:
386,373,129463,2,0,P|442:381|505:320,1,130,8|0,1:2|1:0,0:0:0:0:
501,287,130043,1,2,1:2:0:0:
501,287,130237,2,0,L|494:195,1,65,8|0,1:2|1:0,0:0:0:0:
511,172,130624,22,0,P|450:165|361:153,1,130,2|8,1:2|1:2,0:0:0:0:
290,106,131398,1,0,1:2:0:0:
298,209,131785,2,0,P|294:254|289:289,1,65,0|0,1:2|1:2,0:0:0:0:
260,315,132172,22,0,P|308:315|353:355,2,97.5,4|0|0,1:2|1:0|1:0,0:0:0:0:
211,334,132947,1,0,1:0:0:0:
109,357,133334,2,0,P|67:353|18:335,1,65,0|0,1:0|1:0,0:0:0:0:
11,307,133721,6,0,L|4:223,1,65,4|0,1:2|0:0,0:0:0:0:
0,190,134108,2,0,P|51:153|120:171,1,130,8|0,1:2|1:0,0:0:0:0:
214,142,134882,2,0,L|208:206,1,65,8|2,1:2|0:0,0:0:0:0:
241,246,135269,2,0,L|252:385,2,130,2|8|2,1:2|1:2|1:2,0:0:0:0:
322,181,136430,1,8,1:2:0:0:
380,266,136818,22,0,P|454:275|514:282,1,130,4|8,1:2|1:2,0:0:0:0:
457,371,137592,2,0,P|383:362|323:355,1,130,2|8,1:2|1:2,0:0:0:0:
270,268,138366,1,2,1:2:0:0:
322,181,138753,1,8,1:2:0:0:
422,155,139140,2,0,P|426:122|433:91,1,65,2|2,1:2|0:0,0:0:0:0:
422,39,139527,2,0,L|357:32,1,65,8|0,1:2|1:0,0:0:0:0:
306,19,139914,22,0,P|301:82|257:128,1,130,4|8,1:2|1:2,0:0:0:0:
81,235,140689,2,0,P|138:207|200:222,1,130,4|8,1:2|1:2,0:0:0:0:
380,321,141463,2,0,P|328:286|309:224,1,130,4|8,1:2|1:2,0:0:0:0:
257,128,142237,22,0,L|193:137,1,65,4|2,1:2|0:0,0:0:0:0:
144,156,142624,2,0,L|134:79,1,65,0|0,0:0|1:2,0:0:0:0:
137,39,143011,22,0,P|73:28|17:83,1,130,4|8,1:2|1:2,0:0:0:0:
9,115,143592,1,2,0:0:0:0:
9,115,143785,2,0,P|15:161|19:206,1,65,0|2,1:0|0:0,0:0:0:0:
13,231,144172,1,8,1:2:0:0:
76,313,144560,2,0,P|113:261|111:197,1,130,2|8,1:2|1:2,0:0:0:0:
145,157,145140,2,0,B|218:141|190:192|288:168,1,130,0|0,1:0|1:0,0:0:0:0:
313,141,145721,2,0,L|325:225,1,65,8|2,1:2|1:2,0:0:0:0:
358,243,146108,22,0,L|346:327,1,65,4|2,1:2|0:0,0:0:0:0:
316,349,146495,2,0,P|369:323|442:339,1,130,8|0,1:2|1:2,0:0:0:0:
492,247,147269,2,0,L|483:182,1,65,8|2,1:2|0:0,0:0:0:0:
440,152,147656,2,0,P|431:98|482:36,2,130,2|8|2,1:2|1:2|1:2,0:0:0:0:
372,231,148818,1,8,1:2:0:0:
287,170,149205,22,0,P|224:159|135:139,1,130,4|8,1:2|1:2,0:0:0:0:
103,232,149979,2,0,P|166:243|255:263,1,130,0|8,1:2|1:2,0:0:0:0:
313,319,150753,1,2,1:2:0:0:
372,231,151140,1,8,1:2:0:0:
287,170,151527,1,2,1:2:0:0:
230,256,151914,2,0,L|153:267,1,65,10|0,1:2|1:0,0:0:0:0:
121,292,152301,22,0,P|78:241|95:162,1,130,4|8,1:2|1:2,0:0:0:0:
123,147,152882,2,0,L|135:59,1,65,0|4,0:0|1:2,0:0:0:0:
232,110,153463,2,0,L|244:22,1,65,8|2,1:2|0:0,0:0:0:0:
284,16,153850,2,0,P|345:27|443:43,1,130,4|8,1:2|1:2,0:0:0:0:
470,123,154624,2,0,P|440:128|384:133,1,65,2|0,1:2|1:0,0:0:0:0:
381,178,155011,2,0,L|368:262,1,65,8|2,1:2|0:0,0:0:0:0:
404,282,155398,22,0,P|350:325|281:311,1,130,4|8,1:2|1:2,0:0:0:0:
240,318,155979,2,0,P|202:322|151:328,1,65,0|4,1:0|1:2,0:0:0:0:
24,192,156947,22,0,L|12:55,1,130,4|8,1:2|1:2,0:0:0:0:
53,30,157527,1,2,1:2:0:0:
53,30,157721,2,0,L|140:39,1,65,0|0,1:0|1:0,0:0:0:0:
159,67,158108,2,0,L|223:60,1,65,0|0,1:0|1:2,0:0:0:0:
265,29,158495,6,2,P|309:70|294:161,1,130,4|8,1:2|1:2,0:0:0:0:
271,171,159076,1,2,0:1:0:0:
271,171,159269,2,0,L|149:154,2,97.5,0|2|2,1:0|0:1|0:1,0:0:0:0:
297,215,160043,22,0,P|368:207|438:197,1,130,0|8,1:0|1:2,0:0:0:0:
457,298,160818,2,0,P|386:306|316:316,1,130,0|8,1:0|1:2,0:0:0:0:
281,337,161398,1,0,1:0:0:0:
281,337,161592,22,0,P|240:276|264:202,1,130,4|8,0:0|1:2,0:0:0:0:
241,145,162269,2,2,L|352:159,1,97.5,2|2,0:1|0:1,0:0:0:0:
387,173,162753,2,2,L|376:88,1,65,8|2,1:2|0:1,0:0:0:0:
405,64,163140,22,2,P|374:32|274:45,1,130,2|8,1:1|1:2,0:0:0:0:
204,86,163914,2,2,P|213:152|225:237,1,130,2|8,1:0|1:2,0:0:0:0:
198,261,164495,1,0,1:0:0:0:
198,261,164689,22,2,P|157:227|65:244,1,130,4|8,1:2|1:2,0:0:0:0:
6,161,165463,1,2,1:1:0:0:
104,128,165850,2,0,P|115:83|119:41,1,65,8|2,1:2|2:1,0:0:0:0:
121,12,166237,22,0,P|173:51|250:35,1,130,2|8,1:0|1:2,0:0:0:0:
328,89,167011,2,0,P|335:35|343:-8,2,97.5,0|2|0,1:0|1:1|1:2,0:0:0:0:
334,140,167785,21,4,1:2:0:0:
292,235,168172,2,0,P|359:244|413:202,2,130,8|0|8,1:2|1:0|1:2,0:0:0:0:
190,212,169334,21,4,1:2:0:0:
91,244,169721,1,4,1:2:0:0:
138,336,170108,1,2,1:0:0:0:
238,309,170495,2,0,L|319:317,1,65,2|0,1:0|1:0,0:0:0:0:
347,342,170882,22,0,P|382:308|371:211,1,130,4|8,1:2|1:2,0:0:0:0:
399,180,171463,1,2,0:1:0:0:
399,180,171656,2,0,P|332:163|254:141,1,130,2|8,1:1|1:2,0:0:0:0:
177,106,172430,22,0,P|172:54|163:-5,2,97.5,2|2|2,1:1|0:1|2:1,0:0:0:0:
143,146,173205,2,2,P|127:182|161:269,1,130,2|8,1:0|1:2,0:0:0:0:
197,292,173785,1,2,1:1:0:0:
197,292,173979,22,0,L|267:279,1,65,4|2,1:2|0:1,0:0:0:0:
305,253,174366,2,0,P|296:313|287:393,2,130,8|0|8,1:2|1:2|1:2,0:0:0:0:
305,149,175527,22,2,P|353:156|393:202,2,97.5,2|2|2,1:0|0:1|0:1,0:0:0:0:
255,165,176301,1,0,1:0:0:0:
175,231,176689,2,0,L|94:221,1,65,0|2,1:0|1:1,0:0:0:0:
62,243,177076,22,2,P|54:184|42:112,1,130,4|8,1:2|1:2,0:0:0:0:
1,18,177850,2,0,P|59:30|130:44,1,130,0|8,1:0|1:2,0:0:0:0:
179,35,178430,1,0,0:0:0:0:
179,35,178624,22,0,P|206:73|182:166,1,130,2|8,1:0|1:2,0:0:0:0:
223,251,179398,1,2,1:0:0:0:
298,179,179785,2,2,P|369:192|426:210,1,130,8|4,1:2|1:2,0:0:0:0:
502,141,180559,21,8,1:2:0:0:
425,69,180947,2,2,P|465:39|530:43,2,97.5,2|2|2,1:1|0:1|0:1,0:0:0:0:
393,110,181721,22,0,P|338:101|254:85,1,130,4|4,1:2|1:2,0:0:0:0:
212,176,182495,2,0,P|267:185|351:201,1,130,0|0,1:0|1:0,0:0:0:0:
381,293,183269,21,4,0:0:0:0:
381,293,189463,21,4,1:2:0:0:
440,207,189850,1,8,1:2:0:0:
376,124,190237,1,2,1:2:0:0:
278,160,190624,1,8,1:2:0:0:
279,264,191011,21,2,1:2:0:0:
175,293,191398,1,8,1:2:0:0:
116,207,191785,1,0,1:0:0:0:
180,124,192172,1,8,1:2:0:0:
126,34,192559,22,0,P|66:27|-8:18,1,130,4|8,1:2|1:2,0:0:0:0:
45,110,193334,2,0,P|96:117|159:118,2,97.5,0|0|0,1:0|0:0|1:0,0:0:0:0:
2,140,194108,22,0,P|28:187|9:271,1,130,2|8,1:2|1:2,0:0:0:0:
73,346,194882,2,0,P|118:341|228:332,1,130,0|0,1:2|1:2,0:0:0:0:
302,303,195656,21,4,3:2:0:0:
256,192,195850,12,4,197205,1:2:0:0:
302,303,203398,21,4,1:2:0:0:
210,81,204172,1,4,1:2:0:0:
145,238,204947,21,4,1:2:0:0:
256,192,205334,1,4,1:2:0:0:
367,146,205721,1,4,1:2:0:0:
367,146,206495,22,0,P|397:100|380:12,1,130,4|0,1:2|0:0,0:0:0:0:
341,9,207076,1,0,1:0:0:0:
341,9,207269,2,0,P|266:22|185:41,1,130,4|0,1:2|0:0,0:0:0:0:
109,39,208043,2,0,P|97:101|131:154,1,130,4|0,1:2|1:0,0:0:0:0:
181,169,208624,2,0,P|170:231|157:321,1,130,8|0,1:2|1:0,0:0:0:0:
172,344,209205,2,0,P|213:335|259:331,1,65,8|2,1:2|1:2,0:2:0:0:
272,294,209592,6,0,P|313:303|359:307,1,65,4|2,1:2|0:0,0:0:0:0:
380,332,209979,2,0,P|416:281|400:204,1,130,8|0,1:2|1:2,0:0:0:0:
422,113,210753,2,0,P|390:120|358:124,1,65,8|2,1:2|0:0,0:0:0:0:
311,102,211140,2,0,P|285:65|184:65,2,130,2|8|2,1:2|1:2|1:2,0:0:0:0:
288,203,212302,1,8,1:2:0:0:
195,156,212689,22,0,P|132:145|43:125,1,130,4|8,1:2|1:2,0:0:0:0:
22,224,213463,2,0,P|85:235|174:255,1,130,0|8,1:2|1:2,0:0:0:0:
240,299,214237,1,2,1:2:0:0:
288,203,214624,1,8,1:2:0:0:
195,156,215011,1,2,1:2:0:0:
238,61,215398,2,0,L|315:72,1,65,10|0,1:2|1:0,0:0:0:0:
350,51,215785,22,0,P|393:102|376:181,1,130,4|8,1:2|1:2,0:0:0:0:
348,196,216366,2,0,L|336:284,1,65,0|4,0:0|1:2,0:0:0:0:
236,244,216947,2,0,L|224:332,1,65,8|2,1:2|0:0,0:0:0:0:
233,361,217334,2,0,P|172:350|74:334,1,130,4|8,1:2|1:2,0:0:0:0:
23,274,218108,2,0,P|49:230|69:199,1,65,2|0,1:2|1:0,0:0:0:0:
98,202,218495,2,0,P|108:166|114:115,1,65,8|2,1:2|0:0,0:0:0:0:
100,88,218882,22,0,P|154:45|223:59,1,130,4|8,1:2|1:2,0:0:0:0:
251,85,219463,2,0,P|289:81|340:75,1,65,0|4,1:0|1:2,0:0:0:0:
488,192,220430,22,0,L|500:329,1,130,4|8,1:2|1:2,0:0:0:0:
459,354,221010,1,2,1:2:0:0:
459,354,221204,2,0,L|372:345,1,65,0|0,1:0|1:0,0:0:0:0:
353,317,221591,2,0,L|289:324,1,65,0|0,1:0|1:2,0:0:0:0:
242,349,221979,22,0,P|246:299|211:244,1,97.5,4|2,1:2|0:0,0:0:0:0:
160,215,222559,2,0,B|268:257|246:186|371:228,1,195,2|8,1:2|1:2,0:0:0:0:
450,184,223527,21,0,1:0:0:0:
378,112,223914,1,8,1:2:0:0:
277,139,224301,1,0,1:0:0:0:
196,73,224689,2,0,L|111:88,1,65,8|0,1:2|0:0,0:0:0:0:
82,69,225076,22,0,P|65:104|88:173,1,97.5,4|2,1:2|0:0,0:0:0:0:
144,196,225656,2,0,L|129:336,1,130,2|2,1:2|1:2,0:0:0:0:
115,375,226237,2,0,L|193:364,1,65,8|2,1:2|1:2,0:0:0:0:
222,336,226624,22,0,P|276:322|348:381,2,130,0|8|0,1:0|1:2|1:0,0:0:0:0:
153,257,227785,2,0,P|146:219|158:174,1,65,8|0,1:2|1:0,0:0:0:0:
176,148,228172,38,0,L|72:160,1,97.5,4|2,1:2|0:0,0:0:0:0:
23,214,228753,2,0,P|3:179|91:81,1,195,2|10,1:2|1:2,0:0:0:0:
188,48,229721,21,0,1:0:0:0:
262,120,230108,1,8,1:2:0:0:
362,145,230495,1,0,1:0:0:0:
457,104,230882,1,8,1:2:0:0:
445,207,231269,22,0,P|448:247|459:351,1,130,4|8,1:2|1:2,0:0:0:0:
362,379,232043,1,0,1:0:0:0:
280,314,232430,2,0,P|283:280|288:227,1,65,8|0,1:2|0:0,0:0:0:0:
307,201,232818,22,0,L|160:212,2,130,4|12|0,1:2|1:2|1:0,0:0:0:0:
383,130,233979,1,8,1:2:0:0:
317,49,234366,1,4,0:2:0:0:
