osu file format v14

[General]
AudioFilename: kancollemp3.mp3
AudioLeadIn: 0
PreviewTime: 57753
Countdown: 0
SampleSet: Soft
StackLeniency: 0.7
Mode: 0
LetterboxInBreaks: 0
EpilepsyWarning: 1
WidescreenStoryboard: 1

[Editor]
Bookmarks: 6753,82624,88818,183269,189463,234366
DistanceSpacing: 1
BeatDivisor: 2
GridSize: 32
TimelineZoom: 1.5

[Metadata]
Title:Shounen yo, Tokkou no Sakigake to Nare
TitleUnicode:少年よ、特攻の魁となれ
Artist:senya
ArtistUnicode:senya
Creator:-Mo-
Version:Curi's Easy
Source:
Tags:Satellite Narcissu yf_bmp Dailycare [C_u_r_i] Yuuhei Catharsis 幽閉カタルシス Shoujo Fractal 少女フラクタル 武蔵、大和 Kantai Collection KanColle 艦隊これくしょん 艦これ 艦隊これくしょん -艦これ- Kamase-tora かませ虎 奥山ナマリ Mayumi Morinaga 森永真由美 Korekushon Combined Fleet M3-2016春 Dagger-Gazel
BeatmapID:1188551
BeatmapSetID:562169

[Difficulty]
HPDrainRate:2
CircleSize:3
OverallDifficulty:2
ApproachRate:3
SliderMultiplier:0.899999999999999
SliderTickRate:1

[Events]
//Background and Video events
0,0,"yamabg.jpg",0,0
//Break Periods
2,82824,87378
2,183469,188023
2,197405,201958
//Storyboard Layer 0 (Background)
//Storyboard Layer 1 (Fail)
//Storyboard Layer 2 (Pass)
//Storyboard Layer 3 (Foreground)
Sprite,Foreground,Centre,"sb\hl.png",320,248 F,1,195656,196043,0,1 S,6,195656,197205,1,6
Sprite,Foreground,Centre,"sb\hl.png",295,266 C,0,132172,,255,255,255 F,2,132172,132372,1,0 S,2,132172,132372,1,0.2
Sprite,Foreground,Centre,"sb\hl.png",355,83 C,0,56301,,255,255,255 F,2,56301,56501,1,0 S,2,56301,56501,1,0.2
//Storyboard Sound Samples

[TimingPoints]
560,387.096774193548,4,2,80,40,1,0
6753,-100,4,2,80,70,0,0
19140,-100,4,2,80,70,0,0
30753,-100,4,2,80,70,0,0
31527,-100,4,2,80,70,0,0
50108,-100,4,2,80,70,0,0
56301,-100,4,3,80,70,0,0
57850,-100,4,2,80,80,0,1
82624,-100,4,2,80,70,0,0
88818,-100,4,2,80,70,0,0
96559,-100,4,2,80,70,0,0
97140,-100,4,2,80,70,0,0
97334,-100,4,2,80,70,0,0
97914,-100,4,2,80,70,0,0
119979,-100,4,1,80,70,0,0
124818,-100,4,2,80,70,0,0
126753,-100,4,1,80,70,0,0
128108,-100,4,1,80,70,0,0
128301,-100,4,1,80,70,0,0
129076,-100,4,2,80,70,0,0
132172,-100,4,2,80,70,0,0
133721,-100,4,2,80,80,0,1
158495,-100,4,2,80,70,0,0
183366,-100,4,1,80,70,0,0
189463,-100,4,2,80,70,0,0
195656,-100,4,3,80,70,0,0
203398,-100,4,2,80,70,0,0
208043,-100,4,2,80,70,0,0
209592,-100,4,2,80,80,0,1
221979,-100,4,2,80,70,0,0

[Colours]
Combo1 : 254,252,158
Combo2 : 222,139,198
Combo3 : 71,202,245
Combo4 : 249,104,104

[HitObjects]
383,279,6753,38,0,B|336:279|298:303|298:303|260:276|212:278,1,180,6|2,1:2|1:2,0:0:0:0:
133,322,7914,1,8,0:0:0:0:
60,268,8301,2,0,L|52:178,1,89.9999999999999,6|8,1:2|0:0,0:0:0:0:
132,136,9076,2,0,L|139:46,1,89.9999999999999,6|12,1:1|0:1,0:0:0:0:
229,39,9850,22,0,B|226:96|226:96|248:163|248:163|245:215,1,180,6|6,1:2|1:1,0:0:0:0:
292,291,11011,1,8,0:0:0:0:
340,215,11398,2,0,B|337:162|337:162|359:95|359:95|356:38,1,180,6|6,1:2|1:1,0:0:0:0:
175,38,12947,22,0,B|86:38|86:38|26:107,1,180,6|2,1:2|1:2,0:0:0:0:
26,197,14108,1,8,0:0:0:0:
26,286,14495,2,0,B|85:355|85:355|174:355,1,180,6|6,1:2|1:1,0:0:0:0:
246,302,15656,1,12,0:1:0:0:
163,266,16043,22,0,P|155:221|161:177,1,89.9999999999999,6|8,1:2|0:0,0:0:0:0:
224,113,16818,2,0,P|272:102|312:113,1,89.9999999999999,6|8,1:1|0:0,0:0:0:0:
268,191,17592,2,0,B|223:287|310:346|310:346|357:316|397:334,1,270,6|14,1:2|3:1,0:0:0:0:
478,372,19140,6,0,B|496:331|472:288|472:288|472:195,1,180,6|2,1:2|1:2,0:0:0:0:
428,117,20301,1,2,1:2:0:0:
384,196,20689,2,0,L|384:286,2,89.9999999999999,2|2|2,1:2|1:2|1:2,0:0:0:0:
266,59,22237,22,0,P|179:49|117:110,1,180,2|2,1:2|1:2,0:0:0:0:
114,200,23398,1,2,1:2:0:0:
198,229,23785,2,0,B|286:212|286:212|376:217,2,180,2|2|6,1:2|1:2|1:2,0:0:0:0:
129,287,25721,21,2,1:2:0:0:
189,354,26108,2,0,L|279:366,1,89.9999999999999,2|2,1:2|1:2,0:0:0:0:
368,365,26882,2,0,L|458:353,2,89.9999999999999,2|2|2,1:2|1:2|1:2,0:0:0:0:
189,354,28430,22,0,P|152:273|192:193,1,180,2|2,1:2|1:2,0:0:0:0:
233,116,29592,1,2,1:2:0:0:
143,118,29979,2,0,L|-14:114,2,135,6|2|8,1:2|0:3|3:2,0:0:0:0:
190,194,31527,22,0,P|198:244|192:292,1,89.9999999999999,6|8,1:2|0:0,0:0:0:0:
146,359,32301,2,0,P|192:371|253:348,1,89.9999999999999,2|8,1:2|0:0,0:0:0:0:
285,288,33076,2,0,P|331:276|392:299,2,89.9999999999999,2|8|2,1:2|0:0|1:2,0:0:0:0:
111,250,34624,22,0,L|101:68,1,180,2|2,1:2|1:2,0:0:0:0:
169,12,35785,1,8,0:0:0:0:
235,72,36172,2,0,L|232:183,1,89.9999999999999,2|8,1:2|0:0,0:0:0:0:
195,244,36947,2,0,P|242:252|286:235,1,89.9999999999999,2|8,1:2|3:3,0:0:0:0:
321,158,37721,22,0,P|366:220|321:318,1,180,6|2,1:2|1:2,0:0:0:0:
248,341,38882,1,8,0:0:0:0:
159,327,39269,2,0,L|74:332,2,67.4999999999999,2|0|2,1:2|0:0|0:3,0:0:0:0:
65,122,40818,22,0,L|179:118,1,89.9999999999999,6|8,1:2|1:2,0:0:0:0:
228,67,41592,2,0,L|342:71,1,89.9999999999999,14|8,1:2|1:2,0:0:0:0:
396,113,42366,2,0,P|435:193|399:290,1,180,6|6,1:1|1:2,0:0:0:0:
320,280,43527,1,8,3:2:0:0:
240,321,43914,22,0,P|162:320|62:284,2,180,6|8|2,1:2|3:0|1:2,0:0:0:0:
320,280,45850,1,0,3:0:0:0:
242,235,46237,2,0,P|195:238|131:223,1,89.9999999999999,8|0,3:0|3:0,0:0:0:0:
112,150,47011,22,0,P|180:132|311:153,2,180,2|8|2,1:2|3:0|1:2,0:0:0:0:
67,228,48947,1,0,3:0:0:0:
156,226,49334,2,0,P|208:215|249:223,1,89.9999999999999,10|0,1:2|3:0,0:0:0:0:
305,286,50108,22,0,P|391:293|452:213,2,180,4|6|14,1:2|1:3|1:3,0:0:0:0:
243,221,52043,1,12,1:3:0:0:
164,176,52430,2,0,P|155:240|169:274,1,89.9999999999999,14|12,1:3|1:3,0:0:0:0:
238,312,53205,22,0,B|314:276|314:276|421:275,1,180,12|12,1:2|1:1,0:0:0:0:
496,300,54366,1,12,1:3:0:0:
473,213,54753,2,0,P|465:157|470:111,1,89.9999999999999,12|12,1:2|1:3,0:0:0:0:
471,34,55527,2,0,P|415:26|369:31,1,89.9999999999999,12|12,1:1|1:1,0:0:0:0:
291,27,56301,21,6,3:2:0:0:
291,27,57850,6,0,B|230:33|230:33|171:66|171:66|104:73,1,180,6|6,1:2|1:1,0:0:0:0:
30,60,59011,1,8,0:0:0:0:
65,142,59398,2,0,P|75:199|69:244,1,89.9999999999999,6|8,1:2|0:0,0:0:0:0:
31,310,60172,2,0,P|87:317|126:301,1,89.9999999999999,6|12,1:1|0:1,0:0:0:0:
164,228,60947,22,0,P|241:214|314:296,1,180,6|6,1:2|1:1,0:0:0:0:
339,364,62108,1,8,0:0:0:0:
399,297,62495,2,0,P|396:246|396:203,1,89.9999999999999,6|8,1:2|0:3,0:0:0:0:
467,152,63269,2,0,P|470:101|470:58,1,89.9999999999999,6|12,1:1|0:1,0:0:0:0:
380,57,64043,22,0,P|292:89|190:51,1,180,6|6,1:2|1:1,0:0:0:0:
129,29,65205,1,8,0:0:0:0:
140,118,65592,2,0,L|144:235,1,89.9999999999999,6|12,1:2|1:1,0:0:0:0:
146,297,66366,2,0,P|188:329|229:327,1,89.9999999999999,6|8,1:1|0:0,0:0:0:0:
309,353,67140,22,0,L|312:263,1,89.9999999999999,6|8,1:2|0:0,0:0:0:0:
275,181,67914,2,0,P|331:176|377:201,1,89.9999999999999,6|8,1:1|0:0,0:0:0:0:
408,268,68689,2,0,P|392:179|408:91,1,180,6|6,1:2|1:1,0:0:0:0:
465,22,69850,1,14,3:1:0:0:
509,99,70237,22,0,P|525:183|502:295,1,180,6|6,1:2|1:1,0:0:0:0:
455,347,71398,1,8,0:0:0:0:
408,268,71785,2,0,L|315:266,1,89.9999999999999,6|8,1:2|0:0,0:0:0:0:
248,325,72559,2,0,L|158:326,1,89.9999999999999,6|12,1:1|0:1,0:0:0:0:
73,296,73334,22,0,P|64:231|75:196,1,89.9999999999999,6|8,1:2|0:0,0:0:0:0:
146,162,74108,2,0,P|155:97|144:62,1,89.9999999999999,6|8,1:1|0:0,0:0:0:0:
68,35,74882,2,0,P|160:43|263:39,1,180,6|6,1:2|1:1,0:0:0:0:
336,29,76043,1,12,3:1:0:0:
406,84,76430,22,0,P|413:148|410:231,2,135,6|6|8,1:2|2:1|0:0,0:0:0:0:
321,116,77979,2,0,P|325:166|320:217,1,89.9999999999999,6|8,1:2|0:0,0:0:0:0:
253,263,78753,2,0,P|203:267|152:262,1,89.9999999999999,6|8,1:1|0:0,0:0:0:0:
90,211,79527,21,6,1:2:0:0:
118,125,79914,1,8,0:0:0:0:
54,60,80301,2,0,P|30:98|28:142,1,89.9999999999999,6|0,1:1|0:0,0:0:0:0:
90,211,81076,1,6,1:2:0:0:
256,192,81269,12,6,82624,0:0:0:0:
77,299,88818,6,0,P|192:327|197:209,1,270,6|8,1:2|0:0,0:0:0:0:
136,141,90366,2,0,B|183:100|264:137|264:137|350:176|391:139,1,270,6|0,1:2|0:0,0:0:0:0:
446,68,91914,22,0,P|480:132|418:227,1,180,6|0,1:2|1:3,0:0:0:0:
345,243,93076,1,0,0:0:0:0:
261,210,93463,2,0,L|167:216,1,89.9999999999999,6|8,1:2|0:3,0:0:0:0:
86,186,94237,2,0,P|84:246|111:289,1,89.9999999999999,6|12,1:1|3:1,0:0:0:0:
178,308,95011,22,0,L|240:303,1,45,4|4,1:2|1:2,0:0:0:0:
222,304,96559,2,0,L|214:184,2,89.9999999999999,4|0|6,1:1|0:0|1:2,0:0:0:0:
392,361,98108,22,0,L|387:278,1,67.4999999999999,4|4,1:2|1:2,0:0:0:0:
387,293,99656,2,0,L|283:298,1,89.9999999999999,6|6,1:2|0:1,0:0:0:0:
292,207,100430,2,0,L|396:202,1,89.9999999999999,6|8,1:2|3:0,0:0:0:0:
456,253,101205,22,0,P|467:179|387:115,1,180,4|4,1:2|1:3,0:0:0:0:
303,119,102366,1,12,0:3:0:0:
255,42,102753,2,0,P|297:28|342:35,2,89.9999999999999,4|12|4,1:3|0:3|1:3,0:0:0:0:
118,159,104301,22,0,B|106:249|106:249|132:351,1,180,4|4,1:3|1:3,0:0:0:0:
213,363,105463,1,12,0:3:0:0:
292,321,105850,2,0,P|371:314|459:299,2,135,6|2|8,1:2|0:3|3:2,0:0:0:0:
304,231,107398,22,0,P|365:224|424:211,1,89.9999999999999,6|8,1:2|0:0,0:0:0:0:
443,144,108172,2,0,P|436:83|423:24,1,89.9999999999999,2|8,1:2|0:0,0:0:0:0:
356,3,108947,2,0,P|295:10|236:23,2,89.9999999999999,2|8|2,1:2|0:0|1:2,0:0:0:0:
430,54,110108,1,8,0:0:0:0:
348,92,110495,22,0,P|262:110|161:144,1,180,2|2,1:2|1:2,0:0:0:0:
106,197,111656,1,8,0:0:0:0:
89,108,112043,2,0,L|86:11,1,89.9999999999999,2|8,1:2|0:0,0:0:0:0:
171,48,112818,2,0,L|174:145,1,89.9999999999999,2|8,1:2|3:1,0:0:0:0:
204,222,113592,22,0,P|286:256|381:205,1,180,6|2,1:2|1:2,0:0:0:0:
436,166,114753,1,8,0:0:0:0:
404,81,115140,2,0,L|411:-1,2,67.4999999999999,2|0|2,1:2|0:0|0:3,0:0:0:0:
285,145,116301,1,8,0:0:0:0:
264,232,116689,22,0,B|208:240|208:240|152:273|152:273|80:285,1,180,14|14,1:2|1:2,0:0:0:0:
25,224,117850,1,8,1:2:0:0:
63,142,118237,2,0,P|53:66|52:-4,2,135,6|4|8,1:1|0:1|3:2,0:0:0:0:
115,214,119785,22,0,P|170:204|229:226,1,89.9999999999999,6|0,1:2|0:0,0:0:0:0:
270,270,120559,2,0,P|314:277|357:267,1,89.9999999999999,2|2,1:0|1:0,0:0:0:0:
410,194,121334,2,0,L|415:95,2,89.9999999999999,2|2|2,1:2|0:0|1:0,0:0:0:0:
280,318,122882,22,0,L|176:326,1,89.9999999999999,2|0,1:0|0:0,0:0:0:0:
110,284,123656,2,0,P|98:230|110:190,1,89.9999999999999,2|2,1:0|1:0,0:0:0:0:
183,150,124430,2,0,L|326:138,2,135,2|0|8,1:0|1:0|1:0,0:0:0:0:
101,110,125979,22,0,L|54:113,1,45,6|6,1:2|1:2,0:0:0:0:
71,247,126753,2,0,L|192:239,1,89.9999999999999,0|0,3:0|0:0,0:0:0:0:
235,190,127527,2,0,L|288:186,1,45,6|6,1:2|1:2,0:0:0:0:
413,203,128301,2,0,P|425:257|409:313,1,89.9999999999999,0|0,3:0|0:0,0:0:0:0:
345,342,129076,22,0,B|304:362|257:347|257:347|213:332|156:355,1,180,12|12,1:2|1:1,0:0:0:0:
83,378,130237,1,12,1:3:0:0:
20,313,130624,2,0,P|8:257|26:203,1,89.9999999999999,12|12,1:2|1:3,0:0:0:0:
75,159,131398,2,0,P|131:147|185:165,1,89.9999999999999,12|12,1:1|1:1,0:0:0:0:
231,210,132172,21,6,3:2:0:0:
231,210,133721,6,0,B|318:230|318:230|424:198,1,180,6|6,1:2|1:1,0:0:0:0:
426,116,134882,1,8,0:0:0:0:
356,58,135269,2,0,P|311:51|243:72,1,89.9999999999999,6|8,1:2|0:0,0:0:0:0:
209,127,136043,2,0,P|165:135|120:128,1,89.9999999999999,6|12,1:1|0:1,0:0:0:0:
43,81,136818,22,0,P|34:145|46:179,1,89.9999999999999,6|8,1:2|0:0,0:0:0:0:
115,219,137592,2,0,P|123:262|112:306,1,89.9999999999999,6|8,1:1|0:0,0:0:0:0:
37,355,138366,2,0,B|85:333|126:346|126:346|175:361|223:336,1,180,6|6,1:2|1:1,0:0:0:0:
288,292,139527,1,12,0:1:0:0:
257,207,139914,22,0,L|246:107,1,89.9999999999999,6|8,1:2|0:0,0:0:0:0:
328,77,140689,2,0,L|339:177,1,89.9999999999999,6|8,1:1|0:0,0:0:0:0:
335,256,141463,2,0,P|299:291|226:295,1,89.9999999999999,6|12,1:2|1:1,0:0:0:0:
171,294,142237,2,0,L|72:306,1,89.9999999999999,6|8,1:1|0:0,0:0:0:0:
1,345,143011,22,0,P|-3:255|-1:165,1,180,6|6,1:2|1:1,0:0:0:0:
0,75,144172,1,8,0:0:0:0:
78,31,144559,2,0,P|128:19|190:44,1,89.9999999999999,6|8,1:2|0:0,0:0:0:0:
238,79,145334,2,0,P|281:87|324:75,1,89.9999999999999,6|14,1:1|3:1,0:0:0:0:
397,22,146108,22,0,P|413:85|327:164,1,180,6|6,1:2|1:1,0:0:0:0:
250,169,147269,1,8,0:0:0:0:
168,130,147656,2,0,P|162:183|176:222,1,89.9999999999999,6|8,1:2|0:0,0:0:0:0:
251,261,148430,2,0,L|360:261,1,89.9999999999999,6|12,1:1|0:1,0:0:0:0:
356,349,149205,22,0,L|247:349,1,89.9999999999999,6|8,1:2|0:0,0:0:0:0:
181,318,149979,2,0,L|72:318,1,89.9999999999999,6|8,1:1|0:0,0:0:0:0:
12,361,150753,2,0,B|-4:317|13:274|13:274|30:229|11:181,1,180,6|6,1:2|1:1,0:0:0:0:
0,96,151914,1,12,3:1:0:0:
83,129,152301,22,0,P|142:128|173:114,1,89.9999999999999,6|8,1:2|0:0,0:0:0:0:
240,60,153076,2,0,P|299:61|330:75,1,89.9999999999999,6|8,1:1|0:0,0:0:0:0:
359,156,153850,2,0,L|369:253,1,89.9999999999999,6|8,1:2|0:0,0:0:0:0:
278,243,154624,2,0,L|268:146,1,89.9999999999999,6|8,1:1|0:0,0:0:0:0:
243,67,155398,21,6,1:2:0:0:
169,115,155785,1,8,0:0:0:0:
84,83,156172,2,0,P|79:135|97:174,1,89.9999999999999,6|0,1:1|0:0,0:0:0:0:
175,205,156947,2,0,B|214:189|252:205|252:205|259:186|259:186|297:210|376:181,1,180,6|6,1:2|1:1,0:0:0:0:
415,148,158108,1,12,3:1:0:0:
413,237,158495,6,0,L|422:329,1,89.9999999999999,6|8,1:2|0:0,0:0:0:0:
344,372,159269,2,0,L|335:280,1,89.9999999999999,2|8,1:2|0:0,0:0:0:0:
337,192,160043,2,0,P|284:170|170:230,1,180,2|2,1:2|1:2,0:0:0:0:
141,299,161205,1,8,0:0:0:0:
63,344,161592,22,0,P|52:302|64:252,1,89.9999999999999,6|8,1:2|0:0,0:0:0:0:
102,177,162366,2,0,P|111:133|100:90,1,89.9999999999999,2|8,1:2|0:0,0:0:0:0:
30,33,163140,2,0,B|113:66|113:66|205:52,1,180,2|2,1:2|1:2,0:0:0:0:
290,34,164301,1,8,0:0:0:0:
378,17,164689,22,0,P|374:71|349:104,1,89.9999999999999,6|8,1:2|0:0,0:0:0:0:
269,129,165463,2,0,L|281:230,1,89.9999999999999,2|8,1:2|0:0,0:0:0:0:
324,296,166237,2,0,P|404:338|490:266,1,180,2|2,1:2|1:2,0:0:0:0:
401,247,167398,1,8,0:0:0:0:
360,166,167785,22,0,P|354:115|367:67,1,89.9999999999999,6|8,1:2|0:0,0:0:0:0:
452,81,168559,2,0,P|458:132|445:180,1,89.9999999999999,2|8,1:2|0:0,0:0:0:0:
401,247,169334,2,0,B|341:251|341:251|287:276|287:276|195:284,1,180,6|6,1:2|1:1,0:0:0:0:
137,282,170495,1,8,3:2:0:0:
180,203,170882,22,0,P|187:154|168:101,1,89.9999999999999,6|8,1:2|0:0,0:0:0:0:
110,54,171656,2,0,P|61:47|8:66,1,89.9999999999999,2|8,1:2|0:0,0:0:0:0:
0,144,172430,2,0,B|15:188|15:188|9:271|9:271|24:326,1,180,2|2,1:2|1:2,0:0:0:0:
86,382,173592,1,8,0:0:0:0:
108,294,173979,22,0,P|150:283|200:292,1,89.9999999999999,6|8,1:2|0:0,0:0:0:0:
255,356,174753,2,0,P|299:363|342:352,1,89.9999999999999,2|8,1:2|0:0,0:0:0:0:
415,299,175527,2,0,L|411:198,1,89.9999999999999,2|8,1:2|0:0,0:0:0:0:
328,175,176301,2,0,L|323:76,1,89.9999999999999,2|8,1:2|3:2,0:0:0:0:
241,47,177076,22,0,L|250:231,1,180,6|2,1:2|1:2,0:0:0:0:
295,304,178237,1,8,0:0:0:0:
205,309,178624,2,0,L|111:321,1,89.9999999999999,2|8,1:2|0:0,0:0:0:0:
39,368,179398,2,0,P|26:328|35:273,1,89.9999999999999,2|8,1:2|0:0,0:0:0:0:
105,229,180172,22,0,B|168:221|168:221|217:197|217:197|287:188,1,180,6|2,1:2|1:2,0:0:0:0:
365,212,181334,1,8,0:0:0:0:
444,254,181721,2,0,P|453:200|436:159,1,89.9999999999999,6|12,1:2|0:1,0:0:0:0:
380,101,182495,2,0,P|326:92|285:109,1,89.9999999999999,6|12,1:2|3:2,0:0:0:0:
241,176,183269,21,6,1:2:0:0:
75,242,189463,22,0,P|157:274|237:184,1,180,6|6,1:2|1:3,0:0:0:0:
274,148,190624,1,12,1:3:0:0:
349,101,191011,2,0,P|360:144|353:189,1,89.9999999999999,6|12,1:3|1:3,0:0:0:0:
306,266,191785,2,0,P|298:310|309:353,1,89.9999999999999,14|12,1:3|1:3,0:0:0:0:
397,369,192559,22,0,L|489:358,2,89.9999999999999,12|12|12,1:2|1:3|1:1,0:0:0:0:
309,353,193721,1,12,1:3:0:0:
238,297,194108,2,0,P|189:293|138:320,1,89.9999999999999,4|12,1:2|1:3,0:0:0:0:
76,357,194882,2,0,P|64:294|73:268,1,89.9999999999999,12|12,1:0|1:0,0:0:0:0:
146,220,195656,21,6,3:2:0:0:
256,192,195850,12,4,197205,1:2:0:0:
342,127,203398,22,0,L|331:232,1,89.9999999999999,6|0,1:2|0:0,0:0:0:0:
281,290,204172,2,0,P|213:302|171:279,1,89.9999999999999,6|0,1:1|0:0,0:0:0:0:
130,232,204947,1,6,1:2:0:0:
173,153,205334,1,6,1:1:0:0:
125,76,205721,2,0,P|193:64|235:87,1,89.9999999999999,6|0,1:2|1:0,0:0:0:0:
263,143,206495,22,0,L|375:130,1,89.9999999999999,6|0,1:2|0:0,0:0:0:0:
430,87,207269,2,0,P|440:152|427:184,1,89.9999999999999,6|0,1:1|0:0,0:0:0:0:
361,228,208043,2,0,B|307:233|307:233|243:269|243:269|171:276,1,180,6|6,1:2|1:1,0:0:0:0:
101,266,209205,1,14,3:1:0:0:
156,195,209592,38,0,P|174:129|91:45,1,180,6|6,1:2|1:1,0:0:0:0:
18,52,210753,1,12,0:3:0:0:
0,140,211140,2,0,P|46:149|97:134,1,89.9999999999999,6|12,1:2|0:3,0:0:0:0:
169,103,211914,2,0,P|212:93|256:102,1,89.9999999999999,6|12,1:1|0:1,0:0:0:0:
320,165,212689,22,0,L|331:274,2,89.9999999999999,6|12|6,1:2|0:3|1:1,0:0:0:0:
340,77,213850,1,12,0:3:0:0:
407,136,214237,2,0,B|418:238|418:238|424:300|384:324,1,180,6|6,1:2|1:1,0:0:0:0:
316,345,215398,1,12,3:1:0:0:
247,286,215785,22,0,L|131:298,1,89.9999999999999,6|12,1:2|0:3,0:0:0:0:
79,340,216559,2,0,P|69:282|80:245,1,89.9999999999999,6|12,1:1|0:3,0:0:0:0:
154,207,217334,2,0,P|162:163|151:119,1,89.9999999999999,6|12,1:2|0:3,0:0:0:0:
98,46,218108,2,0,L|214:34,1,89.9999999999999,6|12,1:1|0:3,0:0:0:0:
243,107,218882,22,0,L|332:116,1,89.9999999999999,6|12,1:2|0:3,0:0:0:0:
417,87,219656,1,6,1:1:0:0:
481,149,220043,1,0,0:0:0:0:
417,212,220430,2,0,B|403:245|435:308|435:308|343:261|273:311,1,270,6|12,1:2|3:1,0:0:0:0:
194,355,221979,22,0,P|185:298|199:263,1,89.9999999999999,6|8,1:2|0:0,0:0:0:0:
271,220,222753,2,0,P|282:177|272:133,1,89.9999999999999,2|8,1:2|0:0,0:0:0:0:
195,87,223527,2,0,L|91:96,2,89.9999999999999,2|8|2,1:2|0:0|1:2,0:0:0:0:
274,44,224689,1,8,3:0:0:0:
362,26,225076,22,0,L|357:134,1,89.9999999999999,6|8,1:2|0:0,0:0:0:0:
306,189,225850,2,0,P|351:205|414:185,1,89.9999999999999,2|8,1:2|0:0,0:0:0:0:
469,152,226624,2,0,P|480:220|372:285,1,180,2|2,1:2|1:2,0:0:0:0:
312,285,227785,1,8,3:0:0:0:
340,199,228172,6,0,L|349:88,1,89.9999999999999,6|8,1:2|0:0,0:0:0:0:
266,68,228947,2,0,L|257:179,1,89.9999999999999,2|8,1:2|0:0,0:0:0:0:
225,241,229721,2,0,P|164:260|66:186,1,180,6|6,1:2|1:1,0:0:0:0:
63,111,230882,1,12,0:1:0:0:
134,56,231269,22,0,L|232:46,1,89.9999999999999,6|8,1:2|0:0,0:0:0:0:
310,70,232043,2,0,P|320:131|300:173,1,89.9999999999999,6|8,1:1|0:0,0:0:0:0:
242,215,232818,2,0,P|237:279|251:308,1,89.9999999999999,6|12,1:2|0:1,0:0:0:0:
329,336,233592,2,0,L|426:317,2,89.9999999999999,6|6|2,1:2|3:2|0:0,0:0:0:0:
