osu file format v14

[General]
AudioFilename: kancollemp3.mp3
AudioLeadIn: 0
PreviewTime: 57753
Countdown: 0
SampleSet: Soft
StackLeniency: 0.3
Mode: 0
LetterboxInBreaks: 0
EpilepsyWarning: 1
WidescreenStoryboard: 1

[Editor]
Bookmarks: 6753,234366
DistanceSpacing: 1
BeatDivisor: 4
GridSize: 4
TimelineZoom: 1.5

[Metadata]
Title:Shounen yo, Tokkou no Sakigake to Nare
TitleUnicode:少年よ、特攻の魁となれ
Artist:senya
ArtistUnicode:senya
Creator:-Mo-
Version:Advanced
Source:
Tags:Satellite Narcissu yf_bmp Dailycare [C_u_r_i] Yuuhei Catharsis 幽閉カタルシス Shoujo Fractal 少女フラクタル 武蔵、大和 Kantai Collection KanColle 艦隊これくしょん 艦これ 艦隊これくしょん -艦これ- Kamase-tora かませ虎 奥山ナマリ Mayumi Morinaga 森永真由美 Korekushon Combined Fleet M3-2016春 Dagger-Gazel
BeatmapID:1331651
BeatmapSetID:562169

[Difficulty]
HPDrainRate:4.5
CircleSize:4
OverallDifficulty:5
ApproachRate:6.8
SliderMultiplier:1.45
SliderTickRate:1

[Events]
//Background and Video events
0,0,"yamabg.jpg",0,0
//Break Periods
2,83785,87889
2,183469,188503
2,197405,202438
//Storyboard Layer 0 (Background)
//Storyboard Layer 1 (Fail)
//Storyboard Layer 2 (Pass)
//Storyboard Layer 3 (Foreground)
Sprite,Foreground,Centre,"sb\hl.png",320,248 F,1,195656,196043,0,1 S,6,195656,197205,1,6
Sprite,Foreground,Centre,"sb\hl.png",352,161 C,0,132172,,255,255,255 M,0,132172,132220,352,161,349.3665,178.9327 M,0,132220,132268,349.3665,178.9327,346.7331,196.8653 M,0,132268,132317,346.7331,196.8653,344.0996,214.798 M,0,132317,132365,344.0996,214.798,341.4661,232.7307 M,0,132365,132413,341.4661,232.7307,338.8327,250.6633 M,0,132413,132462,338.8327,250.6633,336.1992,268.596 M,0,132462,132510,336.1992,268.596,333.5657,286.5287 M,0,132510,132559,333.5657,286.5287,331,304 F,2,132559,132759,1,0 S,2,132559,132759,1,0.2
Sprite,Foreground,Centre,"sb\hl.png",253,426 C,0,132947,,255,255,255 M,0,132947,132995,253,426,250.2627,408.0829 M,0,132995,133043,250.2627,408.0829,247.5253,390.1658 M,0,133043,133092,247.5253,390.1658,244.788,372.2487 M,0,133092,133140,244.788,372.2487,242.0507,354.3316 F,2,133140,133340,1,0 S,2,133140,133340,1,0.2
Sprite,Foreground,Centre,"sb\hl.png",262,284 C,0,133334,,255,255,255 F,2,133334,133534,1,0 S,2,133334,133534,1,0.2
Sprite,Foreground,Centre,"sb\hl.png",213,230 C,0,133527,,255,255,255 F,2,133527,133727,1,0 S,2,133527,133727,1,0.2
Sprite,Foreground,Centre,"sb\hl.png",465,269 C,0,56301,,255,255,255 F,2,56301,56501,1,0 S,2,56301,56501,1,0.2
//Storyboard Sound Samples

[TimingPoints]
560,387.096774193548,4,2,80,70,1,0
19140,-100,4,2,80,50,0,0
31527,-100,4,2,80,70,0,0
43914,-100,4,2,80,70,0,0
50108,-100,4,2,80,70,0,0
53205,-100,4,2,80,70,0,0
56301,-100,4,2,80,50,0,0
57850,-100,4,2,80,70,0,1
64043,-100,4,2,80,70,0,1
67140,-100,4,2,80,70,0,1
69269,-100,4,2,80,70,0,0
70237,-100,4,2,80,70,0,1
76430,-100,4,2,80,70,0,1
79527,-100,4,2,80,70,0,1
80301,-100,4,2,80,70,0,0
81076,-100,4,2,80,70,0,1
82624,-100,4,2,80,70,0,0
83205,-100,4,2,80,20,0,0
88818,-100,4,2,80,70,0,0
95011,-100,4,2,80,70,0,0
96559,-100,4,2,80,70,0,0
97140,-100,4,2,80,30,0,0
97334,-100,4,2,80,70,0,0
98108,-100,4,2,80,70,0,0
101205,-100,4,2,80,70,0,0
107398,-100,4,2,80,70,0,0
119785,-100,4,2,80,70,0,0
125979,-100,4,2,80,70,0,0
129076,-100,4,2,80,70,0,0
132172,-100,4,2,80,50,0,0
133721,-100,4,2,80,70,0,1
139914,-100,4,2,80,70,0,1
143011,-100,4,2,80,70,0,1
145140,-100,4,2,80,70,0,0
146108,-100,4,2,80,70,0,1
152301,-100,4,2,80,70,0,1
155398,-100,4,2,80,70,0,1
156172,-100,4,2,80,70,0,0
156947,-100,4,2,80,70,0,1
158495,-100,4,2,80,70,0,0
164301,-100,4,3,80,70,0,0
164398,-100,4,2,80,70,0,0
170882,-100,4,2,80,70,0,1
170979,-100,4,2,80,70,0,0
183269,-100,4,2,80,70,0,0
183366,-100,4,2,80,50,0,0
189463,-100,4,2,80,70,0,0
192559,-100,4,2,80,70,0,0
195656,-100,4,2,80,50,0,0
203398,-100,4,2,80,70,0,0
206495,-100,4,2,80,70,0,0
209592,-100,4,2,80,70,0,1
215785,-100,4,2,80,70,0,1
218882,-100,4,2,80,70,0,1
219656,-100,4,2,80,70,0,0
220430,-100,4,2,80,70,0,1
221979,-100,4,2,80,70,0,0

[Colours]
Combo1 : 254,252,158
Combo2 : 222,139,198
Combo3 : 71,202,245
Combo4 : 249,104,104

[HitObjects]
331,40,6753,38,0,P|282:18|229:29,2,108.75,6|0|2,1:2|0:0|0:3,0:0:0:0:
383,90,7527,1,2,1:2:0:0:
387,94,7721,2,0,L|394:166,1,72.5,2|8,0:3|0:0,0:0:0:0:
358,229,8108,1,2,0:3:0:0:
402,286,8301,22,0,P|450:309|503:299,2,108.75,6|0|2,1:2|0:0|0:3,0:0:0:0:
358,229,9076,2,0,L|288:250,1,72.5,6|2,1:1|0:3,0:0:0:0:
240,304,9463,2,0,L|170:283,1,72.5,12|2,0:1|0:3,0:0:0:0:
100,263,9850,22,0,B|106:334|106:334|88:367,2,108.75,6|0|2,1:2|0:0|0:3,0:0:0:0:
57,204,10624,1,6,1:1:0:0:
102,147,10818,2,0,L|168:118,1,72.5,2|8,0:3|0:0,0:0:0:0:
237,140,11205,1,2,0:3:0:0:
278,80,11398,22,0,P|328:61|380:71,2,108.75,6|0|2,1:2|0:0|0:3,0:0:0:0:
237,140,12172,2,0,L|247:211,1,72.5,6|2,1:1|0:3,0:0:0:0:
313,240,12559,2,0,L|302:310,1,72.5,12|2,0:1|0:3,0:0:0:0:
240,350,12947,22,0,P|188:339|147:304,2,108.75,6|0|2,1:2|0:0|0:3,0:0:0:0:
302,311,13721,1,2,1:2:0:0:
306,307,13914,2,0,L|376:322,1,72.5,2|8,0:3|0:0,0:0:0:0:
438,360,14301,1,2,0:3:0:0:
442,286,14495,22,0,L|495:192,2,108.75,6|0|2,1:2|0:0|0:3,0:0:0:0:
377,322,15269,2,0,L|307:307,1,72.5,6|2,1:1|0:3,0:0:0:0:
271,242,15656,2,0,L|201:257,1,72.5,12|2,0:1|0:3,0:0:0:0:
148,308,16043,22,0,B|77:293|77:293|54:264,2,108.75,6|0|2,1:2|0:0|0:3,0:0:0:0:
200,257,16818,2,0,P|226:233|259:219,1,72.5,6|2,1:1|0:3,0:0:0:0:
332,215,17205,2,0,P|365:225|394:247,1,72.5,8|2,0:0|0:3,0:0:0:0:
432,309,17592,21,6,1:2:0:0:
304,378,17979,1,12,0:1:0:0:
170,322,18366,21,6,1:2:0:0:
223,272,18559,1,0,3:0:0:0:
251,205,18753,1,12,3:1:0:0:
247,132,18946,1,0,3:0:0:0:
212,67,19140,38,0,P|143:46|76:69,1,145,6|2,1:2|1:2,0:0:0:0:
31,126,19721,1,2,0:3:0:0:
64,190,19914,2,0,L|41:258,1,72.5,2|2,1:2|0:3,0:0:0:0:
112,276,20301,2,0,L|134:207,1,72.5,2|2,1:2|0:3,0:0:0:0:
203,228,20689,2,0,L|158:365,2,145,2|2|2,1:2|1:2|1:2,0:0:0:0:
226,159,21656,1,2,0:3:0:0:
249,90,21850,1,2,1:2:0:0:
301,225,22237,22,0,P|363:259|434:249,1,145,2|2,1:2|1:2,0:0:0:0:
479,192,22818,1,2,0:3:0:0:
460,122,23011,2,0,L|435:53,1,72.5,2|2,1:2|0:3,0:0:0:0:
363,64,23398,2,0,L|388:133,1,72.5,2|2,1:2|0:3,0:0:0:0:
315,141,23785,2,0,B|291:75|291:75|263:49,2,108.75,2|0|2,1:2|0:0|0:3,0:0:0:0:
339,209,24559,2,0,L|314:278,1,72.5,2|2,1:2|0:3,0:0:0:0:
260,326,24947,1,0,1:2:0:0:
197,290,25140,1,0,1:2:0:0:
131,322,25334,22,0,P|65:296|31:234,1,145,6|2,1:2|1:2,0:0:0:0:
67,171,25914,1,2,0:3:0:0:
138,185,26108,2,0,L|208:170,1,72.5,2|2,1:2|0:3,0:0:0:0:
225,241,26495,2,0,L|154:255,1,72.5,2|2,1:2|0:3,0:0:0:0:
174,326,26882,2,0,L|315:296,2,145,2|2|2,1:2|1:2|1:2,0:0:0:0:
103,308,27850,1,2,0:3:0:0:
154,255,28043,2,0,L|137:184,1,72.5,2|2,1:2|0:3,0:0:0:0:
73,149,28430,22,0,P|118:93|185:67,1,145,2|2,1:2|1:2,0:0:0:0:
245,107,29011,1,2,0:3:0:0:
294,53,29205,2,0,L|365:42,1,72.5,2|2,1:2|0:3,0:0:0:0:
387,111,29592,2,0,L|315:121,1,72.5,2|2,1:2|0:3,0:0:0:0:
267,176,29979,21,6,1:2:0:0:
306,237,30172,1,2,0:3:0:0:
290,307,30366,1,2,1:2:0:0:
228,343,30559,1,2,0:3:0:0:
158,323,30753,2,0,L|136:253,1,72.5,6|0,3:2|3:0,0:0:0:0:
67,277,31140,2,0,L|64:204,1,72.5,8|8,3:0|3:0,0:0:0:0:
20,147,31527,22,0,P|90:163|151:128,1,145,6|8,1:2|0:0,0:0:0:0:
199,73,32108,1,2,3:0:0:0:
257,30,32301,2,0,P|293:29|326:43,1,72.5,2|2,1:2|3:0,0:0:0:0:
367,103,32689,2,0,P|400:117|436:116,1,72.5,8|2,0:0|3:0,0:0:0:0:
504,90,33076,22,0,L|517:234,2,145,2|8|2,1:2|0:0|1:2,0:0:0:0:
446,45,34043,1,2,3:0:0:0:
389,91,34237,2,0,P|355:100|319:93,1,72.5,8|2,0:0|3:0,0:0:0:0:
253,64,34624,22,0,P|300:116|305:187,1,145,2|8,1:2|0:0,0:0:0:0:
262,246,35205,1,2,3:0:0:0:
193,224,35398,2,0,L|175:153,1,72.5,2|2,1:2|3:0,0:0:0:0:
110,184,35785,2,0,L|127:254,1,72.5,8|2,0:0|3:0,0:0:0:0:
186,296,36172,22,0,B|260:289|260:289|285:265,2,108.75,2|0|2,1:2|0:0|3:0,0:0:0:0:
127,254,36947,2,0,L|110:184,1,72.5,2|2,1:2|3:0,0:0:0:0:
144,119,37334,1,8,3:3:0:0:
80,84,37527,1,10,3:3:0:0:
45,148,37721,22,0,B|35:186|35:186|61:289,1,145,6|8,1:2|0:0,0:0:0:0:
112,339,38301,1,2,3:0:0:0:
170,294,38495,2,0,P|205:292|239:304,1,72.5,2|2,1:2|3:0,0:0:0:0:
289,358,38882,2,0,P|322:370|358:367,1,72.5,8|2,0:0|3:0,0:0:0:0:
422,331,39269,22,0,L|398:187,1,145,2|8,1:2|0:0,0:0:0:0:
368,121,39850,1,2,3:0:0:0:
326,181,40043,2,0,P|292:191|256:191,1,72.5,2|2,1:2|3:0,0:0:0:0:
194,152,40430,1,8,0:0:0:0:
129,184,40624,1,2,3:0:0:0:
64,150,40818,22,0,L|72:78,1,72.5,6|10,1:2|1:3,0:0:0:0:
141,100,41205,2,0,L|149:28,1,72.5,8|10,1:3|1:3,3:0:0:0:
220,12,41592,1,14,1:2:0:0:
276,57,41785,1,10,1:3:0:0:
291,127,41979,1,8,1:3:0:0:
271,196,42172,1,10,1:3:0:0:
208,233,42366,22,0,B|140:217|140:217|118:184,2,108.75,6|4|4,1:1|0:1|0:1,0:0:0:0:
271,196,43140,1,6,1:2:0:0:
343,195,43334,1,2,3:3:0:0:
409,224,43527,1,8,3:2:0:0:
454,280,43721,1,2,3:3:0:0:
469,350,43914,22,0,B|431:374|431:374|353:323|265:355,1,217.5,6|2,1:2|1:3,0:0:0:0:
205,314,44689,2,0,P|153:330|102:315,2,108.75,8|8|8,0:0|0:0|0:0,0:0:0:0:
245,253,45463,22,0,P|306:187|334:273,1,217.5,2|2,1:2|1:3,0:0:0:0:
374,333,46237,2,0,L|482:321,2,108.75,8|8|8,0:0|0:0|0:0,0:0:0:0:
301,339,47011,22,0,B|314:255|314:255|297:214|297:214|311:127,1,217.5,2|2,1:2|1:3,0:0:0:0:
254,79,47785,2,0,P|205:104|151:105,2,108.75,8|8|8,0:0|0:0|0:0,0:0:0:0:
309,32,48559,22,0,B|384:71|450:30|450:30|493:84,1,217.5,2|2,1:2|1:3,0:0:0:0:
447,141,49334,2,0,L|431:248,1,108.75,8|8,0:0|0:0,0:0:0:0:
476,347,49914,1,8,0:0:0:0:
409,375,50108,22,0,P|338:385|280:345,1,145,12|12,1:2|3:3,0:0:0:0:
253,277,50689,1,10,3:3:0:0:
290,215,50882,1,14,1:3:0:0:
251,153,51076,1,10,3:3:0:0:
288,91,51269,2,0,P|323:97|358:89,1,72.5,12|10,3:3|3:3,0:0:0:0:
412,138,51656,22,0,L|424:282,1,145,14|12,1:3|3:3,0:0:0:0:
399,350,52237,1,10,3:3:0:0:
352,294,52430,1,12,1:3:0:0:
282,273,52624,1,10,3:3:0:0:
209,279,52818,2,0,P|177:294|155:322,1,72.5,12|10,3:3|3:3,0:0:0:0:
115,384,53205,22,0,L|102:239,1,145,12|12,1:2|1:3,0:0:0:0:
31,253,53785,1,10,3:3:0:0:
27,257,53979,2,0,L|33:184,1,72.5,12|10,1:1|3:3,0:0:0:0:
103,169,54366,2,0,L|97:96,1,72.5,12|8,1:3|3:3,0:0:0:0:
58,34,54753,21,12,1:2:0:0:
111,92,54947,1,10,3:3:0:0:
181,105,55140,1,12,3:3:0:0:
247,75,55334,1,10,3:3:0:0:
288,15,55527,21,12,1:1:0:0:
257,86,55721,1,10,3:3:0:0:
275,153,55914,1,12,1:1:0:0:
330,201,56108,1,10,3:3:0:0:
401,213,56301,21,6,1:2:0:0:
374,226,57850,6,0,P|348:200|319:178,1,72.5,6|2,1:2|0:3,0:0:0:0:
251,152,58237,1,8,0:0:0:0:
263,221,58430,1,2,0:3:0:0:
277,294,58624,1,6,1:1:0:0:
208,270,58818,2,0,P|182:295|160:324,2,72.5,2|8|2,0:3|0:0|0:3,0:0:0:0:
281,298,59398,22,0,P|311:317|346:319,1,72.5,6|2,1:2|0:3,0:0:0:0:
335,241,59785,2,0,P|336:205|320:173,1,72.5,8|2,0:0|0:3,0:0:0:0:
260,224,60172,2,0,P|228:240|208:270,2,72.5,6|2|14,1:1|0:3|2:1,0:0:0:0:
339,245,60753,1,10,0:3:0:0:
418,267,60947,22,0,L|407:195,1,72.5,6|2,1:2|0:3,0:0:0:0:
479,199,61334,2,0,L|489:127,1,72.5,8|2,0:0|0:3,0:0:0:0:
434,79,61721,1,6,1:1:0:0:
367,107,61914,1,2,0:3:0:0:
310,62,62108,2,0,P|277:50|241:50,1,72.5,8|2,0:0|0:3,0:0:0:0:
178,89,62495,22,0,P|141:88|108:76,1,72.5,6|2,1:2|0:3,0:0:0:0:
57,128,62882,2,0,P|69:161|69:197,1,72.5,8|2,0:0|0:3,0:0:0:0:
56,269,63269,1,6,1:1:0:0:
124,246,63463,1,2,0:3:0:0:
195,235,63656,1,12,0:1:0:0:
267,240,63850,1,10,0:3:0:0:
335,263,64043,22,0,B|335:290|335:290|365:327|354:366,2,108.75,6|0|2,1:2|0:0|0:3,0:0:0:0:
409,236,64818,2,0,B|408:208|408:208|379:172|389:132,2,108.75,6|0|2,1:1|0:0|0:3,0:0:0:0:
479,271,65592,21,6,1:2:0:0:
332,233,65979,1,6,1:1:0:0:
221,327,66366,2,0,L|225:362,2,36.25,6|0|0,1:1|0:0|0:0,0:0:0:0:
204,183,66947,1,0,1:0:0:0:
160,124,67140,22,0,B|120:119|95:149|95:149|60:140,2,108.75,6|0|2,1:2|0:0|0:3,0:0:0:0:
222,87,67914,2,0,B|262:82|287:112|287:112|322:103,2,108.75,6|0|2,1:1|0:0|0:3,0:0:0:0:
232,158,68688,22,0,L|218:229,1,72.5,6|2,1:2|0:3,0:0:0:0:
286,257,69076,2,0,L|309:325,1,72.5,8|2,0:0|0:3,0:0:0:0:
371,288,69463,1,6,1:1:0:0:
388,217,69656,1,2,3:3:0:0:
374,145,69850,1,12,3:1:0:0:
341,80,70043,1,10,3:3:0:0:
273,52,70237,22,0,L|204:74,1,72.5,6|2,1:2|0:3,0:0:0:0:
152,125,70624,2,0,L|83:102,2,72.5,8|2|6,0:0|0:3|1:1,0:0:0:0:
222,144,71205,2,0,L|244:212,1,72.5,2|8,0:3|0:0,0:0:0:0:
222,283,71592,1,2,0:3:0:0:
257,346,71785,22,0,P|327:336|370:280,2,145,6|8|6,1:2|0:0|1:1,0:0:0:0:
191,314,72753,1,2,0:3:0:0:
133,358,72947,2,0,P|98:369|63:363,1,72.5,12|10,0:1|0:3,0:0:0:0:
7,317,73334,22,0,L|16:245,1,72.5,6|2,1:2|0:3,0:0:0:0:
89,249,73721,2,0,L|79:177,1,72.5,8|2,0:0|0:3,0:0:0:0:
32,105,74108,2,0,P|68:105|102:95,1,72.5,6|2,1:1|0:3,0:0:0:0:
161,52,74495,2,0,P|195:41|231:42,1,72.5,8|2,0:0|0:3,0:0:0:0:
294,78,74882,22,0,L|285:149,1,72.5,6|2,1:2|0:3,0:0:0:0:
316,216,75269,1,8,0:0:0:0:
320,220,75656,21,6,1:1:0:0:
288,153,75850,1,2,0:3:0:0:
223,122,76043,1,12,0:1:0:0:
150,119,76237,1,10,0:3:0:0:
89,158,76430,22,0,L|93:230,2,72.5,6|2|8,1:2|0:3|0:0,0:0:0:0:
87,85,77011,1,2,0:3:0:0:
138,34,77205,2,0,P|170:48|206:51,1,72.5,6|2,1:1|0:3,0:0:0:0:
279,42,77592,2,0,P|281:77|295:111,1,72.5,8|2,0:0|0:3,0:0:0:0:
335,172,77979,22,0,P|283:155|231:166,2,108.75,6|0|2,1:2|0:0|0:3,0:0:0:0:
369,236,78753,2,0,L|441:229,2,72.5,6|2|8,1:1|0:3|0:0,0:0:0:0:
306,272,79334,1,2,0:3:0:0:
242,237,79527,22,0,L|231:165,1,72.5,6|2,1:2|0:3,0:0:0:0:
165,218,79914,2,0,L|155:290,1,72.5,8|2,0:0|0:3,0:0:0:0:
87,238,80301,1,6,1:1:0:0:
87,238,81076,22,0,L|76:166,1,72.5,6|2,1:2|0:3,0:0:0:0:
101,98,81463,1,8,0:0:0:0:
165,132,81656,1,2,0:3:0:0:
230,93,81850,2,0,L|241:165,1,72.5,6|2,1:1|0:3,0:0:0:0:
222,234,82237,1,12,3:1:0:0:
266,290,82430,1,14,3:1:0:0:
236,356,82624,38,0,P|341:332|450:333,1,217.5,6|0,1:2|0:0,0:0:0:0:
120,103,88818,54,0,L|105:247,1,145,6|8,1:2|0:0,0:0:0:0:
218,115,89592,2,0,L|203:259,1,145,6|8,1:2|0:0,0:0:0:0:
392,281,90366,22,0,L|407:137,1,145,6|8,1:2|0:0,0:0:0:0:
294,269,91140,2,0,L|309:125,1,145,6|8,1:2|0:0,0:0:0:0:
192,37,91914,22,0,P|156:39|121:47,1,72.5,6|2,1:2|0:3,0:0:0:0:
117,120,92301,2,0,P|93:147|74:178,1,72.5,12|2,0:3|0:3,0:0:0:0:
121,232,92689,2,0,P|123:268|131:303,1,72.5,4|2,1:3|0:3,0:0:0:0:
204,307,93076,2,0,P|231:330|262:349,1,72.5,12|2,0:3|0:3,0:0:0:0:
330,322,93463,22,0,L|318:250,1,72.5,6|2,1:2|0:3,0:0:0:0:
391,252,93850,2,0,L|402:180,1,72.5,12|2,0:3|0:3,0:0:0:0:
374,112,94237,1,4,3:1:0:0:
312,149,94430,1,2,3:3:0:0:
239,149,94624,1,12,3:1:0:0:
172,119,94818,1,10,3:3:0:0:
121,58,95011,22,0,L|94:129,1,72.5,4|4,1:2|1:2,0:0:0:0:
85,146,96559,22,0,B|134:127|134:127|177:141|177:141|230:114|294:134,1,217.5,6|0,1:1|0:0,0:0:0:0:
323,200,97334,22,0,L|306:270,1,72.5,6|0,1:2|0:0,0:0:0:0:
232,264,97721,2,0,L|248:334,1,72.5
302,383,98108,22,0,P|341:344|390:323,1,108.75,6|6,1:2|1:2,0:0:0:0:
413,327,99656,22,0,P|399:293|397:257,1,72.5,6|0,1:2|0:0,0:0:0:0:
460,219,100043,2,2,P|473:185|475:149,1,72.5,6|2,1:1|0:0,0:0:0:0:
407,121,100430,2,0,P|394:87|391:51,1,72.5,6|0,1:2|0:0,0:0:0:0:
453,13,100818,1,0,3:0:0:0:
487,78,101011,1,0,3:0:0:0:
475,149,101205,22,0,L|333:179,1,145,6|12,1:2|0:3,0:0:0:0:
278,226,101785,1,2,0:3:0:0:
320,284,101979,2,0,L|178:254,1,145,4|12,1:3|0:3,0:0:0:0:
126,203,102559,1,2,0:3:0:0:
63,239,102753,22,0,L|69:383,2,145,4|12|4,1:3|0:3|1:3,0:0:0:0:
92,172,103721,1,2,0:3:0:0:
46,116,103914,2,0,L|48:43,1,72.5,12|2,0:3|0:3,0:0:0:0:
110,3,104301,22,0,P|181:13|247:44,1,145,4|12,1:3|0:3,0:0:0:0:
229,114,104882,1,2,0:3:0:0:
210,185,105076,2,0,P|281:175|347:144,1,145,4|12,1:3|0:3,0:0:0:0:
399,93,105656,1,2,0:3:0:0:
451,143,105850,22,0,L|467:213,1,72.5,6|2,1:2|0:3,0:0:0:0:
398,236,106237,2,0,L|382:306,1,72.5,12|2,0:3|0:3,0:0:0:0:
409,374,106624,1,6,3:2:0:0:
336,364,106818,1,2,3:3:0:0:
273,328,107011,1,8,3:0:0:0:
238,264,107205,1,10,3:3:0:0:
244,192,107398,22,0,P|314:183|360:130,1,145,6|8,1:2|0:0,0:0:0:0:
345,58,107979,1,2,0:3:0:0:
287,15,108172,2,0,P|252:22|222:42,1,72.5,2|2,1:2|0:3,0:0:0:0:
165,88,108559,2,0,P|129:80|99:60,1,72.5,8|2,0:0|0:3,0:0:0:0:
39,19,108947,22,0,L|48:163,2,145,2|8|2,1:2|0:0|1:2,0:0:0:0:
109,2,109914,1,2,0:3:0:0:
170,41,110108,2,0,P|182:74|184:110,1,72.5,8|2,0:0|0:3,0:0:0:0:
146,173,110495,22,0,P|193:224|280:215,1,145,2|8,1:2|0:0,0:0:0:0:
318,175,111076,1,2,0:3:0:0:
383,206,111269,2,0,P|398:238|400:274,1,72.5,2|2,1:2|0:3,0:0:0:0:
332,302,111656,2,0,P|319:335|295:362,1,72.5,8|2,0:0|0:3,0:0:0:0:
235,320,112043,22,0,B|172:298|172:298|133:313,2,108.75,2|0|2,1:2|0:0|0:3,0:0:0:0:
295,362,112818,2,0,L|381:372,1,72.5,2|2,1:2|0:3,0:0:0:0:
438,380,113205,1,8,3:0:0:0:
447,309,113398,1,10,3:3:0:0:
375,299,113592,22,0,B|265:285|265:285|245:257,1,145,6|8,1:2|0:0,0:0:0:0:
242,184,114172,1,2,0:3:0:0:
308,216,114366,2,0,L|394:226,1,72.5,2|2,1:2|0:3,0:0:0:0:
374,151,114753,2,0,L|301:142,1,72.5,8|2,0:0|0:3,0:0:0:0:
230,131,115140,22,0,P|193:191|123:201,1,145,2|8,1:2|0:0,0:0:0:0:
60,165,115721,1,2,0:3:0:0:
62,238,115914,2,0,P|69:273|87:304,1,72.5,2|2,1:2|0:3,0:0:0:0:
145,349,116301,2,0,P|170:323|202:308,1,72.5,8|2,0:0|0:3,0:0:0:0:
260,354,116689,22,0,L|332:346,1,72.5,6|10,1:2|1:3,0:0:0:0:
342,274,117076,2,0,L|270:282,1,72.5,8|10,1:3|1:3,3:0:0:0:
203,308,117463,1,14,1:2:0:0:
173,242,117656,1,10,1:3:0:0:
182,170,117850,1,8,1:3:0:0:
233,118,118043,1,10,1:3:0:0:
303,102,118237,22,0,B|371:86|371:86|393:53,2,108.75,6|4|4,1:1|0:1|0:1,0:0:0:0:
252,49,119011,1,6,1:2:0:0:
182,27,119205,1,2,3:3:0:0:
110,39,119398,1,8,3:2:0:0:
54,85,119592,1,10,3:3:0:0:
31,153,119785,22,0,P|131:191|238:181,1,217.5,6|0,1:2|1:0,0:0:0:0:
292,132,120559,2,0,L|273:275,1,145,2|2,1:0|1:0,0:0:0:0:
377,377,121334,22,0,P|294:312|195:346,1,217.5,2|0,1:2|1:0,0:0:0:0:
134,383,122108,2,0,L|108:315,1,72.5,2|0,1:2|1:0,0:0:0:0:
38,336,122495,2,0,L|30:263,1,72.5,2|0,1:2|1:0,0:0:0:0:
0,197,122882,22,0,P|102:222|187:159,1,217.5,2|0,1:2|1:0,0:0:0:0:
201,88,123656,2,0,L|233:229,1,145,2|2,1:2|1:2,0:0:0:0:
237,374,124430,21,2,1:2:0:0:
360,298,124818,1,2,1:2:0:0:
355,153,125205,21,2,1:2:0:0:
300,200,125398,1,2,0:3:0:0:
233,229,125592,1,8,3:0:0:0:
162,231,125785,1,10,3:3:0:0:
94,204,125979,22,0,L|113:134,1,72.5,6|6,1:2|1:2,0:0:0:0:
210,52,127527,2,0,L|191:122,1,72.5,6|6,1:2|1:2,0:0:0:0:
94,204,129076,22,0,L|113:134,2,72.5,12|10|12,1:2|3:3|1:3,0:0:0:0:
124,269,129656,1,10,3:3:0:0:
166,210,129850,2,0,L|185:138,2,72.5,12|10|12,1:1|3:3|1:3,0:0:0:0:
195,276,130430,1,10,3:3:0:0:
238,217,130624,21,12,1:2:0:0:
298,177,130818,1,10,3:3:0:0:
368,161,131011,1,12,3:3:0:0:
438,180,131205,1,10,3:3:0:0:
488,232,131398,21,12,1:1:0:0:
417,248,131592,1,10,3:3:0:0:
346,232,131785,1,12,1:1:0:0:
298,177,131979,1,10,3:3:0:0:
288,105,132172,22,0,L|267:248,1,145,6|0,1:2|3:0,0:0:0:0:
189,370,132947,2,0,L|178:298,1,72.5,4|0,3:2|3:0,0:0:0:0:
198,228,133334,1,4,3:1:0:0:
149,174,133527,1,0,3:0:0:0:
197,119,133721,6,0,P|232:128|266:142,1,72.5,6|2,1:2|0:3,0:0:0:0:
322,189,134108,1,8,0:0:0:0:
256,213,134301,1,2,0:3:0:0:
186,237,134495,1,6,1:1:0:0:
241,285,134689,2,0,P|226:318|207:348,2,72.5,2|8|2,0:3|0:0|0:3,0:0:0:0:
256,213,135269,22,0,P|284:192|319:188,1,72.5,6|2,1:2|0:3,0:0:0:0:
313,266,135656,2,0,P|314:302|298:334,1,72.5,8|2,0:0|0:3,0:0:0:0:
241,285,136043,2,0,P|208:270|187:240,2,72.5,6|2|14,1:1|0:3|2:1,0:0:0:0:
316,263,136624,1,10,0:3:0:0:
389,293,136818,22,0,L|395:220,1,72.5,6|2,1:2|0:3,0:0:0:0:
467,222,137205,2,0,L|460:149,1,72.5,8|2,0:0|0:3,0:0:0:0:
425,85,137592,1,6,1:1:0:0:
369,131,137785,1,2,0:3:0:0:
302,83,137979,2,0,L|295:155,1,72.5,8|2,0:0|0:3,0:0:0:0:
302,229,138366,22,0,P|266:222|230:224,1,72.5,6|2,1:2|0:3,0:0:0:0:
170,266,138753,2,0,P|194:292|212:324,1,72.5,8|2,0:0|0:3,0:0:0:0:
160,376,139140,1,6,1:1:0:0:
88,364,139334,1,2,0:3:0:0:
29,321,139527,1,12,0:1:0:0:
9,251,139721,1,10,0:3:0:0:
37,184,139914,22,0,B|58:177|58:177|106:202|153:179,2,108.75,6|0|2,1:2|0:0|0:3,0:0:0:0:
0,104,140689,2,0,B|21:111|21:111|69:86|116:109,2,108.75,6|0|2,1:1|0:0|0:3,0:0:0:0:
20,33,141463,21,6,1:2:0:0:
68,183,141850,1,6,1:1:0:0:
145,44,142237,2,0,L|149:7,2,36.25,6|0|0,1:1|0:0|0:0,0:0:0:0:
189,188,142818,1,0,1:0:0:0:
256,163,143011,22,0,B|255:129|275:104|275:104|256:62,2,108.75,6|0|2,1:2|0:0|0:3,0:0:0:0:
316,203,143785,2,0,B|315:237|335:262|335:262|316:303,2,108.75,6|0|2,1:1|0:0|0:3,0:0:0:0:
361,145,144559,22,0,P|396:151|428:168,1,72.5,6|2,1:2|0:3,0:0:0:0:
429,241,144947,2,0,P|457:263|476:294,1,72.5,8|2,0:0|0:3,0:0:0:0:
441,358,145334,1,6,1:1:0:0:
369,345,145527,1,2,3:3:0:0:
311,300,145721,1,12,3:1:0:0:
283,233,145914,1,10,3:3:0:0:
300,162,146108,22,0,L|369:184,1,72.5,6|2,1:2|0:3,0:0:0:0:
441,186,146495,2,0,L|494:138,2,72.5,8|2|4,0:0|0:3|1:1,0:0:0:0:
404,248,147076,2,0,L|420:318,2,72.5,2|8|2,0:3|0:0|0:3,0:0:0:0:
369,184,147656,22,0,P|357:112|365:40,2,145,6|8|6,1:2|0:0|1:1,0:0:0:0:
404,248,148624,1,2,0:3:0:0:
390,319,148818,2,0,P|381:354|362:384,1,72.5,12|10,0:1|0:3,0:0:0:0:
294,357,149205,22,0,L|280:285,1,72.5,6|2,1:2|0:3,0:0:0:0:
208,288,149592,2,0,L|221:216,1,72.5,8|2,0:0|0:3,0:0:0:0:
276,170,149979,2,0,P|256:139|226:119,1,72.5,6|2,1:1|0:3,0:0:0:0:
154,127,150366,2,0,P|147:162|128:192,1,72.5,8|2,0:0|0:3,0:0:0:0:
59,167,150753,22,0,L|50:238,1,72.5,6|2,1:2|0:3,0:0:0:0:
80,304,151140,1,8,0:0:0:0:
84,308,151527,21,6,1:1:0:0:
122,246,151721,1,2,0:3:0:0:
180,203,151914,1,12,0:1:0:0:
250,184,152108,1,10,0:3:0:0:
320,201,152301,22,0,L|330:272,2,72.5,6|2|8,1:2|0:3|0:0,0:0:0:0:
301,130,152882,1,2,0:3:0:0:
339,68,153076,2,0,P|323:36|294:15,1,72.5,6|2,1:1|0:3,0:0:0:0:
232,52,153463,2,0,P|196:57|162:46,1,72.5,8|2,0:0|0:3,0:0:0:0:
99,8,153850,22,0,P|55:39|35:89,2,108.75,6|0|2,1:2|0:0|0:3,0:0:0:0:
162,46,154624,2,0,P|197:40|231:51,2,72.5,6|2|8,1:1|0:3|0:0,0:0:0:0:
124,109,155205,1,10,0:3:0:0:
160,173,155398,22,0,L|171:245,1,72.5,6|2,1:2|0:3,0:0:0:0:
238,193,155785,2,0,L|248:121,1,72.5,8|2,0:0|0:3,0:0:0:0:
316,173,156172,1,6,1:1:0:0:
316,173,156947,22,0,L|327:245,1,72.5,6|2,1:2|0:3,0:0:0:0:
302,313,157334,1,8,0:0:0:0:
238,279,157527,1,2,0:3:0:0:
173,318,157721,2,0,L|162:246,1,72.5,6|2,1:1|0:3,0:0:0:0:
181,177,158108,1,12,3:1:0:0:
137,121,158301,1,14,3:1:0:0:
164,53,158495,38,0,B|210:35|210:35|304:49,1,145,6|8,1:2|0:0,0:0:0:0:
365,88,159076,1,2,0:3:0:0:
428,52,159269,2,0,L|461:184,2,108.75,2|0|2,1:2|0:0|0:3,0:0:0:0:
367,12,160043,22,0,L|295:21,1,72.5,2|2,1:2|0:3,0:0:0:0:
241,70,160430,2,0,L|258:140,1,72.5,8|2,0:0|0:3,0:0:0:0:
230,208,160818,2,0,L|158:199,2,72.5,2|2|8,1:2|0:3|0:0,0:0:0:0:
292,244,161398,1,10,0:3:0:0:
359,209,161592,22,0,B|371:305|371:305|351:349,1,145,6|8,1:2|0:0,0:0:0:0:
286,380,162172,1,2,0:3:0:0:
229,334,162366,2,0,B|195:318|195:318|160:324,1,72.5,2|2,1:2|0:3,0:0:0:0:
97,361,162753,2,0,B|62:367|62:367|28:351,1,72.5,8|2,0:0|0:3,0:0:0:0:
5,282,163140,22,0,B|24:203|24:203|13:177,2,108.75,2|0|2,1:2|0:0|0:3,0:0:0:0:
28,351,163914,2,0,B|102:358|102:358|155:312|155:312|227:303,1,217.5,2|2,1:2|0:3,0:0:0:0:
292,269,164689,22,0,L|151:233,1,145,6|8,1:2|0:0,0:0:0:0:
108,175,165269,1,2,0:3:0:0:
180,167,165463,2,0,L|285:193,2,108.75,2|0|2,1:2|0:0|0:3,0:0:0:0:
108,175,166237,22,0,B|118:210|118:210|146:232,1,72.5,2|2,1:2|0:3,0:0:0:0:
216,254,166624,2,0,B|243:275|243:275|254:311,1,72.5,8|2,0:0|0:3,0:0:0:0:
204,363,167011,2,0,L|98:336,2,108.75,2|0|2,1:2|0:0|0:3,0:0:0:0:
274,380,167785,22,0,L|337:344,1,72.5,6|2,1:2|0:3,0:0:0:0:
405,366,168172,2,0,L|424:295,1,72.5,8|2,0:0|0:3,0:0:0:0:
420,223,168559,1,2,1:2:0:0:
359,263,168753,1,2,0:3:0:0:
286,263,168947,1,8,0:0:0:0:
226,222,169140,1,2,0:3:0:0:
203,153,169334,21,6,1:2:0:0:
221,295,169721,1,6,1:1:0:0:
203,153,170108,21,6,3:2:0:0:
226,222,170302,1,2,3:3:0:0:
286,263,170495,1,8,3:0:0:0:
359,263,170689,1,10,3:3:0:0:
420,222,170882,22,0,L|403:79,1,145,6|8,1:2|0:0,0:0:0:0:
363,18,171463,1,2,0:3:0:0:
332,83,171656,2,0,B|303:106|303:106|232:103,2,108.75,2|0|2,1:2|0:0|0:3,0:0:0:0:
363,18,172430,22,0,B|391:-5|391:-5|462:-2,2,108.75,2|0|2,1:2|0:0|0:3,0:0:0:0:
332,83,173205,2,0,L|349:226,1,145,2|8,1:2|0:0,0:0:0:0:
389,287,173785,1,10,0:3:0:0:
351,349,173979,22,0,B|316:359|316:359|280:350,1,72.5,6|2,1:2|0:3,0:0:0:0:
229,299,174366,2,0,B|239:264|239:264|230:228,1,72.5,8|2,0:0|0:3,0:0:0:0:
192,167,174753,2,0,B|221:144|221:144|292:147,2,108.75,2|0|2,1:2|0:0|0:3,0:0:0:0:
161,232,175527,22,0,B|133:255|133:255|62:252,2,108.75,2|0|2,1:2|0:0|0:3,0:0:0:0:
192,167,176301,2,0,L|248:121,1,72.5,2|2,1:2|0:3,0:0:0:0:
319,108,176689,1,8,3:0:0:0:
272,52,176882,1,10,3:3:0:0:
202,32,177076,22,0,B|165:32|165:32|132:46,1,72.5,6|2,1:2|0:3,0:0:0:0:
86,103,177463,2,0,B|99:136|99:136|101:172,1,72.5,8|2,0:0|0:3,0:0:0:0:
71,239,177850,2,0,B|31:243|31:243|-26:205,2,108.75,2|0|2,1:2|0:0|0:3,0:0:0:0:
143,231,178624,22,0,B|179:231|179:231|212:245,1,72.5,2|2,1:2|0:3,0:0:0:0:
278,275,179011,2,0,B|264:308|264:308|262:344,1,72.5,8|2,0:0|0:3,0:0:0:0:
324,382,179398,2,0,B|357:358|357:358|424:363,2,108.75,2|0|2,1:2|0:0|0:3,0:0:0:0:
262,344,180172,22,0,B|264:308|264:308|278:275,1,72.5,6|2,1:2|0:3,0:0:0:0:
326,219,180559,2,0,B|324:183|324:183|310:150,1,72.5,8|2,0:0|0:3,0:0:0:0:
266,90,180947,2,0,B|192:97|192:97|162:79,2,108.75,2|0|2,1:2|0:0|0:3,0:0:0:0:
338,82,181721,21,6,1:2:0:0:
248,195,182108,1,12,0:1:0:0:
162,79,182495,21,6,3:2:0:0:
215,130,182689,1,2,3:3:0:0:
248,195,182882,1,12,3:2:0:0:
260,266,183076,1,10,3:3:0:0:
246,337,183269,21,6,1:2:0:0:
106,312,189463,22,0,P|94:242|140:189,1,145,12|12,1:2|0:3,0:0:0:0:
207,163,190043,1,10,0:3:0:0:
258,214,190237,1,12,1:3:0:0:
330,222,190430,1,10,0:3:0:0:
399,193,190624,2,0,P|412:160|413:124,1,72.5,12|10,0:3|0:3,0:0:0:0:
382,57,191011,22,0,P|321:93|249:92,1,145,12|12,1:3|0:3,0:0:0:0:
188,54,191592,1,10,0:3:0:0:
128,93,191785,1,12,0:3:0:0:
99,159,191979,1,10,0:3:0:0:
106,231,192172,2,0,P|119:264|145:289,1,72.5,12|10,0:3|0:3,0:0:0:0:
208,251,192559,22,0,L|353:264,1,145,12|12,1:2|1:3,0:0:0:0:
417,296,193139,1,10,3:3:0:0:
421,300,193333,2,0,L|427:227,1,72.5,12|10,1:1|3:3,0:0:0:0:
363,194,193720,2,0,L|357:121,1,72.5,12|8,1:3|3:3,0:0:0:0:
396,59,194108,21,12,1:2:0:0:
343,117,194302,1,10,3:3:0:0:
273,130,194495,1,12,3:3:0:0:
207,100,194689,1,10,3:3:0:0:
166,40,194882,21,12,1:1:0:0:
196,111,195076,1,10,3:3:0:0:
180,180,195269,1,12,1:1:0:0:
126,228,195463,1,10,3:3:0:0:
54,241,195656,21,6,1:2:0:0:
256,192,195850,12,6,197205,1:2:0:0:
376,308,203398,22,0,L|232:325,1,145,6|0,1:2|0:0,0:0:0:0:
160,233,204172,2,0,L|304:216,1,145,6|0,1:1|0:0,0:0:0:0:
370,120,204947,21,6,1:2:0:0:
226,137,205334,1,6,1:1:0:0:
82,154,205721,1,6,1:1:0:0:
184,358,206495,22,0,L|167:213,1,145,6|0,1:2|0:0,0:0:0:0:
259,142,207269,2,0,L|275:286,1,145,6|0,1:1|0:0,0:0:0:0:
382,329,208043,22,0,L|373:256,1,72.5,6|2,1:2|0:3,0:0:0:0:
440,228,208430,2,0,L|448:155,1,72.5,8|2,0:0|0:3,0:0:0:0:
428,85,208818,5,6,1:1:0:0:
378,138,209011,1,2,3:3:0:0:
307,153,209205,1,12,3:1:0:0:
238,128,209398,1,10,3:3:0:0:
201,65,209592,22,0,L|135:97,1,72.5,6|2,1:2|0:3,0:0:0:0:
63,90,209979,2,0,L|12:38,2,72.5,12|2|6,0:3|0:3|1:1,0:0:0:0:
94,155,210559,2,0,L|89:227,1,72.5,2|12,0:3|0:3,0:0:0:0:
60,294,210947,1,2,0:3:0:0:
94,357,211140,22,0,P|165:358|219:313,2,145,6|12|6,1:2|0:3|1:1,0:0:0:0:
60,294,212108,1,2,0:3:0:0:
89,227,212301,2,0,P|120:210|156:207,1,72.5,12|10,0:1|0:3,0:0:0:0:
221,242,212689,22,0,P|256:239|288:222,1,72.5,6|2,1:2|0:3,0:0:0:0:
328,161,213076,2,0,P|311:129|308:93,1,72.5,12|2,0:3|0:3,0:0:0:0:
348,33,213463,2,0,L|419:23,1,72.5,6|2,1:1|0:3,0:0:0:0:
442,92,213850,2,0,L|400:151,1,72.5,12|2,0:3|0:3,0:0:0:0:
374,219,214237,22,0,L|415:278,1,72.5,6|2,1:2|0:3,0:0:0:0:
401,350,214624,1,12,0:3:0:0:
397,354,215011,21,6,1:1:0:0:
345,303,215204,1,2,0:3:0:0:
278,272,215398,1,12,0:1:0:0:
205,268,215591,1,10,0:3:0:0:
136,293,215785,22,0,L|128:365,2,72.5,6|2|12,1:2|0:3|0:3,0:0:0:0:
96,231,216366,1,2,0:3:0:0:
135,170,216559,2,0,L|202:142,1,72.5,6|2,1:1|0:3,0:0:0:0:
240,204,216947,2,0,L|172:231,1,72.5,12|2,0:3|0:3,0:0:0:0:
99,234,217334,22,0,P|66:194|69:141,2,108.75,6|0|2,1:2|0:0|0:3,0:0:0:0:
158,277,218108,2,0,L|147:350,2,72.5,6|2|12,1:1|0:3|0:3,0:0:0:0:
208,224,218689,1,2,0:3:0:0:
257,171,218882,22,0,L|268:99,1,72.5,6|2,1:2|0:3,0:0:0:0:
335,151,219269,2,0,L|345:223,1,72.5,8|2,0:0|0:3,0:0:0:0:
413,171,219656,1,6,1:1:0:0:
413,171,220430,22,0,L|424:99,1,72.5,6|2,1:2|0:3,0:0:0:0:
399,31,220817,1,8,0:0:0:0:
335,65,221010,1,2,0:3:0:0:
270,26,221204,2,0,L|259:98,1,72.5,6|2,1:1|0:3,0:0:0:0:
278,167,221591,1,12,3:1:0:0:
234,223,221784,1,14,3:1:0:0:
247,294,221979,22,0,B|198:269|198:269|144:268,2,108.75,6|0|2,1:2|0:0|0:3,0:0:0:0:
304,338,222753,2,0,L|374:322,1,72.5,2|2,1:2|0:3,0:0:0:0:
384,249,223140,2,0,L|313:264,1,72.5,8|2,0:0|0:3,0:0:0:0:
247,294,223527,22,0,L|226:150,1,145,2|8,1:2|0:0,0:0:0:0:
248,81,224108,1,2,0:3:0:0:
252,77,224301,2,0,L|323:91,1,72.5,2|2,1:2|0:3,0:0:0:0:
375,142,224689,1,8,0:0:0:0:
436,104,224882,1,10,0:3:0:0:
480,162,225076,22,0,L|464:306,1,145,6|8,1:2|0:0,0:0:0:0:
438,374,225656,2,0,B|426:304|426:304|378:249,1,145,2|2,0:3|0:3,0:0:0:0:
312,280,226237,2,0,L|368:344,1,72.5,8|2,0:0|0:3,0:0:0:0:
298,373,226624,22,0,B|226:370|226:370|200:344,2,108.75,2|0|2,1:2|0:0|0:3,0:0:0:0:
359,334,227398,2,0,L|375:190,1,145,2|8,1:2|0:0,0:0:0:0:
355,119,227979,1,10,0:3:0:0:
305,171,228172,6,0,B|263:190|263:190|165:176,1,145,6|8,1:2|0:0,0:0:0:0:
176,104,228753,2,0,L|247:114,1,72.5,2|2,0:3|1:2,0:0:0:0:
260,42,229140,2,0,L|189:32,1,72.5,2|8,0:3|0:0,0:0:0:0:
120,57,229527,1,2,0:3:0:0:
52,29,229721,22,0,B|28:98|28:98|33:133,2,108.75,6|0|2,1:2|0:0|0:3,0:0:0:0:
120,5,230495,2,0,L|191:15,1,72.5,6|2,1:1|0:3,0:0:0:0:
246,62,230882,2,0,L|317:52,1,72.5,12|10,0:1|0:3,0:0:0:0:
361,114,231269,22,0,L|374:6,2,108.75,6|0|2,1:2|0:0|0:3,0:0:0:0:
410,166,232043,2,0,L|418:238,1,72.5,6|2,1:1|0:3,0:0:0:0:
350,264,232430,2,0,L|342:336,1,72.5,8|2,0:0|0:3,0:0:0:0:
400,379,232818,21,6,1:2:0:0:
274,305,233205,1,6,1:1:0:0:
148,376,233592,21,6,1:2:0:0:
189,316,233785,1,2,3:0:0:0:
202,245,233979,1,12,3:2:0:0:
183,174,234172,1,2,3:0:0:0:
134,119,234366,21,2,0:0:0:0:
