osu file format v14

[General]
AudioFilename: audio.mp3
AudioLeadIn: 0
PreviewTime: 57850
Countdown: 1
SampleSet: Soft
StackLeniency: 0.7
Mode: 0
LetterboxInBreaks: 0
WidescreenStoryboard: 0

[Editor]
Bookmarks: 72172
DistanceSpacing: 1
BeatDivisor: 4
GridSize: 4
TimelineZoom: 3.799999

[Metadata]
Title:Shounen yo, Tokkou no Sakigake to Nare
TitleUnicode:少年よ、特攻の魁となれ
Artist:senya
ArtistUnicode:senya
Creator:gundammango
Version:Extra
Source:
Tags:
BeatmapID:1820044
BeatmapSetID:871044

[Difficulty]
HPDrainRate:4
CircleSize:4
OverallDifficulty:6
ApproachRate:9
SliderMultiplier:1.2
SliderTickRate:1

[Events]
//Background and Video events
0,0,"cropped-1440-900-677411.png",0,0
//Break Periods
//Storyboard Layer 0 (Background)
//Storyboard Layer 1 (Fail)
//Storyboard Layer 2 (Pass)
//Storyboard Layer 3 (Foreground)
//Storyboard Sound Samples

[TimingPoints]
560,387.096774193548,4,2,1,100,1,0
560,-133.333333333333,4,2,1,40,0,0
6753,-100,4,2,1,50,0,0
57850,-100,4,2,1,60,0,1
82624,-100,4,2,1,60,0,0

[HitObjects]
112,96,560,6,0,L|124:184,1,67.5000025749207
232,176,947,1,0,0:0:0:0:
224,200,1043,2,0,L|217:238,1,22.5000008583069
200,293,1237,1,0,0:0:0:0:
364,236,1527,1,0,0:0:0:0:
376,216,1721,1,0,0:0:0:0:
388,196,1914,1,0,0:0:0:0:
404,168,2108,6,0,L|348:168,1,45.0000017166138
244,236,2495,2,0,L|304:236,1,45.0000017166138
264,136,2882,2,0,L|264:80,1,45.0000017166138
192,56,3172,1,0,0:0:0:0:
192,56,3269,2,0,L|192:116,1,45.0000017166138
116,180,3656,6,0,L|116:128,1,45.0000017166138
116,180,4043,2,0,L|116:104,1,67.5000025749207
44,72,4430,2,0,L|44:132,1,45.0000017166138
40,212,4818,1,0,0:0:0:0:
40,236,5011,1,0,0:0:0:0:
40,260,5205,6,0,L|40:320,1,45.0000017166138
136,272,5592,1,0,0:0:0:0:
136,248,5689,2,0,L|136:208,1,22.5000008583069
212,196,5882,1,0,0:0:0:0:
216,216,5979,2,0,B|228:288|228:288|272:276|316:288,1,157.500006008148
400,232,6753,6,0,P|416:280|416:304,1,60
412,320,7043,1,0,0:0:0:0:
408,348,7140,1,0,0:0:0:0:
311,286,7334,2,0,L|311:226,1,60
224,272,7721,2,0,P|188:284|148:272,1,60
88,188,8108,1,0,0:0:0:0:
88,220,8205,1,0,0:0:0:0:
88,248,8301,6,0,L|88:312,1,60
166,281,8592,1,0,0:0:0:0:
168,252,8689,2,0,L|168:196,1,30
260,240,8882,2,0,L|290:240,1,30
360,180,9076,2,0,L|380:252,1,60
384,268,9366,1,0,0:0:0:0:
456,216,9463,2,0,P|484:207|507:188,1,60
440,108,9850,6,0,L|440:160,1,30
360,180,10043,1,0,0:0:0:0:
360,180,10140,2,0,L|360:136,1,30
360,64,10430,1,0,0:0:0:0:
260,120,10624,2,0,L|204:120,1,30
200,120,10818,1,0,0:0:0:0:
172,120,10914,1,0,0:0:0:0:
140,120,11011,1,0,0:0:0:0:
180,240,11205,2,0,L|180:200,1,30
260,120,11398,6,0,L|260:184,1,60
260,212,11689,1,0,0:0:0:0:
260,240,11785,1,0,0:0:0:0:
368,160,11979,1,0,0:0:0:0:
460,256,12172,2,0,L|460:226,1,30
368,224,12366,1,0,0:0:0:0:
368,192,12463,1,0,0:0:0:0:
368,160,12559,2,0,L|368:104,1,30
296,76,12753,1,0,0:0:0:0:
296,108,12850,1,0,0:0:0:0:
296,140,12947,6,0,L|296:204,1,60
216,164,13237,2,0,L|216:120,2,30
140,172,13527,2,0,L|140:240,1,60
216,164,13914,1,0,0:0:0:0:
240,264,14108,1,0,0:0:0:0:
336,176,14301,1,0,0:0:0:0:
364,164,14398,1,0,0:0:0:0:
392,176,14495,6,0,P|412:216|416:248,1,60
352,280,14785,1,0,0:0:0:0:
352,280,14882,2,0,L|328:232,1,30
240,264,15076,2,0,L|240:304,1,30
240,324,15269,2,0,L|240:248,1,60
104,292,15656,2,0,P|140:284|176:292,1,60
196,204,15947,1,0,0:0:0:0:
196,176,16043,6,0,L|196:104,1,60
288,144,16334,1,0,0:0:0:0:
288,144,16430,2,0,L|288:200,1,30
356,200,16624,2,0,L|356:236,1,30
436,216,16818,2,0,L|436:172,1,30
464,104,17011,1,0,0:0:0:0:
436,92,17108,1,0,0:0:0:0:
408,104,17205,1,0,0:0:0:0:
328,32,17398,1,0,0:0:0:0:
248,124,17592,6,0,L|248:192,1,60
248,216,17882,1,0,0:0:0:0:
152,176,17979,2,0,L|152:228,1,30
80,252,18172,1,0,0:0:0:0:
80,220,18269,1,0,0:0:0:0:
24,144,18366,1,0,0:0:0:0:
52,124,18463,1,0,0:0:0:0:
88,116,18559,2,0,L|80:92,3,15
156,104,18753,2,0,L|156:84,3,15
228,120,18947,2,0,L|236:96,3,15
304,80,19140,6,0,P|308:136|284:176,1,90
272,192,19527,1,0,0:0:0:0:
224,120,19721,2,0,L|172:120,1,30
116,64,19914,2,0,P|104:120|112:140,1,60
112,156,20205,1,0,0:0:0:0:
128,188,20301,1,0,0:0:0:0:
224,120,20495,1,0,0:0:0:0:
220,256,20689,6,0,P|272:244|304:248,1,60
352,328,21076,2,0,P|323:337|293:339,1,60
300,184,21463,2,0,P|292:224|296:248,1,60
424,292,21850,2,0,P|426:262|418:233,1,60
296,268,22237,6,0,P|260:264|224:272,1,60
224,148,22624,1,0,0:0:0:0:
152,256,22818,1,0,0:0:0:0:
64,160,23011,2,0,L|64:232,1,60
64,256,23301,1,0,0:0:0:0:
64,292,23398,1,0,0:0:0:0:
228,256,23592,2,0,L|284:256,1,30
344,192,23785,6,0,P|344:232|328:276,1,60
428,284,24076,1,0,0:0:0:0:
428,284,24172,2,0,L|428:236,1,30
428,164,24366,1,0,0:0:0:0:
280,245,24559,2,0,P|320:253|360:245,1,60
312,128,24947,1,0,0:0:0:0:
180,180,25140,1,0,0:0:0:0:
180,180,25237,1,0,0:0:0:0:
180,180,25334,6,0,L|180:248,1,60
88,136,25721,1,0,0:0:0:0:
24,240,25914,1,0,0:0:0:0:
8,124,26108,2,0,P|28:80|60:64,1,60
88,136,26398,1,0,0:0:0:0:
88,136,26495,2,0,L|88:192,1,30
176,168,26689,1,0,0:0:0:0:
192,164,26882,6,0,P|228:156|260:168,1,60
284,247,27269,2,0,P|255:256|226:250,1,60
336,168,27656,2,0,P|372:160|404:172,1,60
364,296,28043,1,0,0:0:0:0:
252,196,28237,1,0,0:0:0:0:
248,224,28430,6,0,L|240:288,1,60
144,200,28818,1,0,0:0:0:0:
72,272,29011,1,0,0:0:0:0:
56,248,29205,2,0,P|44:228|36:168,1,60
136,200,29495,1,0,0:0:0:0:
136,200,29592,2,0,L|184:224,1,30
232,160,29785,2,0,L|205:146,1,30
228,252,29979,5,0,0:0:0:0:
356,164,30172,1,0,0:0:0:0:
336,332,30366,1,0,0:0:0:0:
424,216,30559,2,0,L|364:252,1,60
336,260,30850,1,0,0:0:0:0:
291,254,30946,1,0,0:0:0:0:
253,231,31043,1,0,0:0:0:0:
236,188,31140,1,0,0:0:0:0:
268,220,31237,1,0,0:0:0:0:
256,276,31333,1,0,0:0:0:0:
208,312,31430,1,0,0:0:0:0:
156,316,31527,6,0,P|116:300|88:268,1,60
168,224,31914,1,0,0:0:0:0:
164,196,32108,1,0,0:0:0:0:
44,256,32301,2,0,L|44:172,1,60
44,164,32592,1,0,0:0:0:0:
44,132,32689,1,0,0:0:0:0:
164,196,32882,1,0,0:0:0:0:
292,100,33076,2,0,P|284:148|296:184,1,60
388,232,33463,2,0,P|396:203|394:173,1,60
296,188,33850,6,0,P|244:184|220:192,1,60
184,288,34237,2,0,P|213:293|243:290,1,60
360,220,34624,2,0,L|360:284,2,60
460,264,35205,1,0,0:0:0:0:
396,120,35398,2,0,P|360:128|320:112,1,60
300,108,35689,1,0,0:0:0:0:
268,88,35785,1,0,0:0:0:0:
236,180,35979,2,0,L|236:232,1,30
192,232,36172,6,0,L|192:308,1,60
192,332,36463,1,0,0:0:0:0:
192,372,36559,1,0,0:0:0:0:
112,264,36753,1,0,0:0:0:0:
272,328,36947,2,0,P|304:320|348:336,1,60
392,232,37334,2,0,L|392:152,1,60
392,132,37624,1,0,0:0:0:0:
316,88,37721,6,0,L|316:148,1,60
316,256,38108,1,0,0:0:0:0:
224,136,38301,1,0,0:0:0:0:
176,272,38495,2,0,P|144:280|100:260,1,60
152,204,38785,1,0,0:0:0:0:
152,204,38882,2,0,L|144:152,1,30
136,88,39076,1,0,0:0:0:0:
236,140,39269,6,0,P|272:136|308:140,1,60
332,144,39559,1,0,0:0:0:0:
372,152,39656,1,0,0:0:0:0:
456,80,39850,2,0,L|456:128,1,30
456,148,40043,1,0,0:0:0:0:
356,52,40237,1,0,0:0:0:0:
236,140,40430,2,0,L|236:216,1,60
236,240,40721,1,0,0:0:0:0:
308,280,40818,6,0,L|308:216,1,60
308,120,41205,1,0,0:0:0:0:
168,200,41398,1,0,0:0:0:0:
140,228,41495,1,0,0:0:0:0:
112,256,41592,2,0,L|112:316,1,60
112,356,41882,1,0,0:0:0:0:
196,312,41979,1,0,0:0:0:0:
236,312,42076,1,0,0:0:0:0:
272,324,42172,1,0,0:0:0:0:
296,352,42269,1,0,0:0:0:0:
372,316,42366,6,0,L|372:248,1,60
300,196,42656,2,0,L|300:264,1,60
232,232,42947,2,0,L|192:232,1,30
164,232,43140,1,0,0:0:0:0:
144,232,43237,1,0,0:0:0:0:
116,228,43334,1,0,0:0:0:0:
88,216,43430,1,0,0:0:0:0:
60,188,43527,1,0,0:0:0:0:
44,148,43624,1,0,0:0:0:0:
44,96,43721,1,0,0:0:0:0:
56,40,43818,1,0,0:0:0:0:
132,100,43914,6,0,P|188:92|240:100,1,90
296,48,44301,1,0,0:0:0:0:
296,48,44495,2,0,L|304:104,1,30
240,172,44689,2,0,P|280:192|320:192,1,60
392,136,45076,2,0,P|404:176|400:212,1,60
312,288,45463,6,0,P|308:252|312:224,1,60
310,347,45850,2,0,P|314:311|310:283,1,60
308,256,46140,1,0,0:0:0:0:
300,228,46237,1,0,0:0:0:0:
216,276,46430,2,0,L|216:320,1,30
140,300,46624,2,0,L|88:300,1,30
132,224,46818,1,0,0:0:0:0:
132,196,46914,1,0,0:0:0:0:
132,164,47011,6,0,L|132:100,1,60
252,164,47398,1,0,0:0:0:0:
252,164,47592,2,0,L|252:208,1,30
252,284,47785,1,0,0:0:0:0:
328,232,47979,1,0,0:0:0:0:
356,228,48076,1,0,0:0:0:0:
384,236,48172,2,0,L|448:260,1,60
440,152,48559,6,0,L|440:84,1,60
316,156,48947,1,0,0:0:0:0:
244,40,49140,1,0,0:0:0:0:
236,84,49237,1,0,0:0:0:0:
192,112,49334,1,0,0:0:0:0:
140,92,49430,1,0,0:0:0:0:
164,148,49527,1,0,0:0:0:0:
152,216,49624,1,0,0:0:0:0:
92,260,49721,2,0,L|88:304,1,30
184,332,49914,2,0,L|181:302,1,30
264,240,50108,6,0,P|300:224|344:228,1,60
388,340,50495,2,0,P|424:336|464:316,1,60
400,176,50882,2,0,P|412:220|412:260,1,60
268,272,51269,2,0,P|256:316|256:356,1,60
415,164,51656,2,0,P|430:219|428:248,1,60
252,284,52043,2,0,P|237:338|236:368,1,60
440,152,52430,2,0,P|454:206|452:235,1,60
228,291,52817,2,0,P|213:345|212:375,1,60
200,176,53205,6,0,L|200:116,1,60
288,200,53592,2,0,L|288:260,1,60
412,200,53979,1,0,0:0:0:0:
284,80,54172,1,0,0:0:0:0:
356,256,54366,1,0,0:0:0:0:
344,48,54559,1,0,0:0:0:0:
180,192,54753,5,0,0:0:0:0:
208,184,54850,1,0,0:0:0:0:
236,188,54947,1,0,0:0:0:0:
260,208,55043,1,0,0:0:0:0:
276,248,55140,1,0,0:0:0:0:
268,296,55237,1,0,0:0:0:0:
228,324,55334,1,0,0:0:0:0:
176,324,55430,1,0,0:0:0:0:
132,292,55527,5,0,0:0:0:0:
104,240,55624,1,0,0:0:0:0:
120,180,55721,1,0,0:0:0:0:
168,132,55818,1,0,0:0:0:0:
232,116,55914,1,0,0:0:0:0:
304,132,56011,1,0,0:0:0:0:
360,188,56108,1,0,0:0:0:0:
396,264,56205,1,0,0:0:0:0:
428,348,56301,5,0,0:0:0:0:
428,330,56397,1,0,0:0:0:0:
428,312,56494,1,0,0:0:0:0:
428,294,56591,1,0,0:0:0:0:
428,276,56688,1,0,0:0:0:0:
428,258,56784,1,0,0:0:0:0:
428,240,56881,1,0,0:0:0:0:
428,220,56979,1,0,0:0:0:0:
428,188,57076,5,0,0:0:0:0:
420,148,57172,1,0,0:0:0:0:
388,104,57269,1,0,0:0:0:0:
336,64,57366,1,0,0:0:0:0:
260,44,57463,1,0,0:0:0:0:
172,56,57559,1,0,0:0:0:0:
80,100,57656,1,0,0:0:0:0:
8,188,57753,1,0,0:0:0:0:
124,192,57850,6,0,P|168:204|208:236,1,90
244,336,58237,2,0,L|304:284,1,60
356,236,58527,1,0,0:0:0:0:
356,236,58624,2,0,L|356:276,1,30
440,308,58818,2,0,L|440:268,1,30
444,156,59011,2,0,L|408:156,1,30
348,84,59205,2,0,L|384:84,1,30
292,180,59398,6,0,P|292:216|280:252,1,60
285,120,59785,2,0,P|285:156|297:192,1,60
184,228,60172,6,0,P|177:198|177:168,1,60
178,288,60559,2,0,P|184:258|184:228,1,60
320,256,60947,2,0,P|352:252|388:256,1,60
316,160,61334,2,0,P|286:157|256:161,1,60
220,172,61624,1,0,0:0:0:0:
132,120,61721,2,0,L|132:188,1,60
132,220,62011,1,0,0:0:0:0:
56,196,62108,2,0,L|56:268,1,60
216,176,62495,6,0,L|260:196,1,30
280,204,62689,1,0,0:0:0:0:
324,212,62785,1,0,0:0:0:0:
372,192,62882,1,0,0:0:0:0:
384,136,62979,1,0,0:0:0:0:
356,80,63076,1,0,0:0:0:0:
288,72,63172,1,0,0:0:0:0:
236,124,63269,1,0,0:0:0:0:
220,204,63366,1,0,0:0:0:0:
276,272,63463,1,0,0:0:0:0:
364,296,63559,1,0,0:0:0:0:
272,296,63656,5,0,0:0:0:0:
180,296,63753,1,0,0:0:0:0:
88,296,63850,1,0,0:0:0:0:
88,296,63947,1,0,0:0:0:0:
88,296,64043,6,0,L|88:216,1,60
156,184,64334,1,0,0:0:0:0:
192,196,64430,2,0,L|240:216,1,30
180,296,64624,1,0,0:0:0:0:
300,228,64818,2,0,L|300:276,1,30
392,296,65011,1,0,0:0:0:0:
420,288,65108,1,0,0:0:0:0:
448,280,65205,2,0,L|448:240,1,30
408,152,65398,1,0,0:0:0:0:
380,160,65495,1,0,0:0:0:0:
352,164,65592,6,0,L|308:164,1,30
240,120,65785,1,0,0:0:0:0:
240,152,65882,1,0,0:0:0:0:
240,184,65979,2,0,L|240:224,1,30
160,260,66172,2,0,L|160:230,1,30
64,232,66366,1,0,0:0:0:0:
80,188,66463,1,0,0:0:0:0:
96,148,66559,1,0,0:0:0:0:
160,260,66753,1,0,0:0:0:0:
260,128,66947,1,0,0:0:0:0:
280,148,67043,1,0,0:0:0:0:
300,172,67140,6,0,L|300:236,1,60
380,264,67430,1,0,0:0:0:0:
380,232,67527,1,0,0:0:0:0:
248,312,67721,1,0,0:0:0:0:
248,312,67818,1,0,0:0:0:0:
248,312,67914,2,0,L|180:296,1,60
228,220,68205,1,0,0:0:0:0:
228,220,68301,2,0,L|232:164,1,30
140,208,68495,1,0,0:0:0:0:
140,208,68592,1,0,0:0:0:0:
115,287,68689,6,0,L|56:284,1,60
60,256,68979,1,0,0:0:0:0:
60,256,69076,2,0,L|72:200,1,30
88,140,69269,1,0,0:0:0:0:
120,112,69366,1,0,0:0:0:0:
168,88,69463,1,0,0:0:0:0:
232,76,69559,1,0,0:0:0:0:
312,80,69656,1,0,0:0:0:0:
392,120,69753,1,0,0:0:0:0:
452,188,69850,1,0,0:0:0:0:
480,272,69947,1,0,0:0:0:0:
488,360,70043,1,0,0:0:0:0:
488,360,70140,1,0,0:0:0:0:
404,324,70237,5,0,0:0:0:0:
316,296,70334,1,0,0:0:0:0:
236,336,70430,2,0,L|236:288,1,30
168,248,70624,1,0,0:0:0:0:
160,284,70721,1,0,0:0:0:0:
68,284,70818,2,0,L|68:328,1,30
68,352,71011,2,0,L|68:280,1,60
160,284,71301,1,0,0:0:0:0:
160,284,71398,2,0,L|160:240,1,30
260,300,71592,1,0,0:0:0:0:
260,300,71689,1,0,0:0:0:0:
260,300,71785,6,0,L|328:300,1,60
400,184,72172,2,0,L|332:184,1,60
240,336,72559,2,0,L|308:336,1,60
332,336,72850,1,0,0:0:0:0:
400,244,72947,2,0,L|328:244,1,60
308,244,73237,1,0,0:0:0:0:
232,288,73334,6,0,L|232:224,1,60
232,196,73624,1,0,0:0:0:0:
152,136,73721,2,0,L|152:200,1,60
152,228,74011,1,0,0:0:0:0:
152,312,74108,2,0,L|88:312,1,60
60,312,74398,1,0,0:0:0:0:
32,232,74495,2,0,L|96:232,1,60
124,232,74785,1,0,0:0:0:0:
196,184,74882,5,0,0:0:0:0:
208,212,74979,1,0,0:0:0:0:
220,240,75076,1,0,0:0:0:0:
312,192,75269,2,0,L|312:152,1,30
312,132,75463,1,0,0:0:0:0:
312,104,75559,1,0,0:0:0:0:
312,72,75656,1,0,0:0:0:0:
424,192,75850,1,0,0:0:0:0:
224,76,76043,1,0,0:0:0:0:
164,224,76237,2,0,L|166:253,1,30
88,296,76430,6,0,L|85:266,1,30
88,296,76624,2,0,L|72:256,1,30
88,296,76818,2,0,L|64:268,1,30
148,232,77011,1,0,0:0:0:0:
164,256,77108,1,0,0:0:0:0:
180,280,77205,1,0,0:0:0:0:
256,168,77398,1,0,0:0:0:0:
256,168,77495,1,0,0:0:0:0:
256,168,77592,2,0,L|256:216,1,30
256,168,77785,2,0,L|272:208,1,30
256,168,77979,6,0,L|308:232,1,60
348,140,78269,1,0,0:0:0:0:
348,140,78366,2,0,L|384:120,1,30
348,140,78559,2,0,L|368:108,1,30
348,140,78753,2,0,L|356:104,1,30
272,92,78947,1,0,0:0:0:0:
272,92,79043,1,0,0:0:0:0:
272,92,79140,2,0,L|228:92,1,30
248,168,79334,2,0,L|248:212,1,30
168,184,79527,6,0,L|116:184,1,30
88,264,79721,2,0,L|132:264,1,30
240,272,79914,1,0,0:0:0:0:
266,285,80010,1,0,0:0:0:0:
296,291,80107,1,0,0:0:0:0:
326,290,80204,1,0,0:0:0:0:
354,282,80301,1,0,0:0:0:0:
236,288,81076,6,0,L|236:324,1,30
332,280,81269,2,0,L|332:320,1,30
432,264,81463,2,0,L|432:308,1,30
340,208,81656,1,0,0:0:0:0:
301,200,81752,1,0,0:0:0:0:
269,177,81849,1,0,0:0:0:0:
250,142,81946,1,0,0:0:0:0:
248,96,82043,1,0,0:0:0:0:
281,117,82139,1,0,0:0:0:0:
300,151,82236,1,0,0:0:0:0:
302,191,82333,1,0,0:0:0:0:
285,227,82430,1,0,0:0:0:0:
253,250,82526,1,0,0:0:0:0:
214,257,82623,1,0,0:0:0:0:
