osu file format v14

[General]
AudioFilename: kancollemp3.mp3
AudioLeadIn: 0
PreviewTime: 57753
Countdown: 0
SampleSet: Soft
StackLeniency: 0.7
Mode: 0
LetterboxInBreaks: 0
EpilepsyWarning: 1
WidescreenStoryboard: 1

[Editor]
Bookmarks: 6753,183269,234366
DistanceSpacing: 1
BeatDivisor: 4
GridSize: 32
TimelineZoom: 1.5

[Metadata]
Title:Shounen yo, Tokkou no Sakigake to Nare
TitleUnicode:少年よ、特攻の魁となれ
Artist:senya
ArtistUnicode:senya
Creator:-Mo-
Version:Catharsis
Source:
Tags:Satellite Narcissu yf_bmp Dailycare [C_u_r_i] Yuuhei Catharsis 幽閉カタルシス Shoujo Fractal 少女フラクタル 武蔵、大和 Kantai Collection KanColle 艦隊これくしょん 艦これ 艦隊これくしょん -艦これ- Kamase-tora かませ虎 奥山ナマリ Mayumi Morinaga 森永真由美 Korekushon Combined Fleet M3-2016春 Dagger-Gazel
BeatmapID:1188549
BeatmapSetID:562169

[Difficulty]
HPDrainRate:6
CircleSize:4
OverallDifficulty:8
ApproachRate:9
SliderMultiplier:1.8
SliderTickRate:1

[Events]
//Background and Video events
0,0,"yamabg.jpg",0,0
//Break Periods
2,82824,88218
2,197405,202798
//Storyboard Layer 0 (Background)
//Storyboard Layer 1 (Fail)
//Storyboard Layer 2 (Pass)
//Storyboard Layer 3 (Foreground)
Sprite,Foreground,TopLeft,"sb\bar.png",-107,410 V,1,6753,7527,0,0.05,0.3,0.05 V,1,7527,8301,0.3,0.05,0.3,0.32 F,0,56301,56689,0.5,0 F,0,57850,58043,0,0.5 F,1,82624,83398,0.5,0 F,1,88818,,0.5 V,1,88818,89592,0,0.05,0.3,0.05 V,1,89592,90366,0.3,0.05,0.3,0.32 F,0,132172,132559,0.5,0 F,0,133721,133914,0,0.5 C,1,182882,183656,240,210,110,130,200,240 F,0,195656,196043,0.5,0 F,1,203398,,0.5 V,1,203398,204172,0,0.05,0.3,0.05 V,1,204172,204947,0.3,0.05,0.3,0.32 F,0,221592,221979,0.5,0 C,1,221979,,240,130,150,200,200,200 F,0,221979,222076,0,0.5 F,1,234366,235140,0.5,0
Sprite,Foreground,TopLeft,"sb\u\0053.png",48,409 S,0,7527,,0.4 MX,30,7527,8027,-272,48 F,0,56301,56689,1,0 F,0,57850,58044,0,1 F,0,82624,83398,1,0
Sprite,Foreground,TopLeft,"sb\u\0061.png",66.5,416 S,0,7527,,0.4 MX,30,7627,8127,-253.5,66.5 F,0,56301,56689,1,0 F,0,57850,58044,0,1 F,0,82624,83398,1,0
Sprite,Foreground,TopLeft,"sb\u\0074.png",81,411 S,0,7527,,0.4 MX,30,7727,8227,-239,81 F,0,56301,56689,1,0 F,0,57850,58044,0,1 F,0,82624,83398,1,0
Sprite,Foreground,TopLeft,"sb\u\0065.png",96.5,416 S,0,7527,,0.4 MX,30,7827,8327,-223.5,96.5 F,0,56301,56689,1,0 F,0,57850,58044,0,1 F,0,82624,83398,1,0
Sprite,Foreground,TopLeft,"sb\u\006c.png",114,407.5 S,0,7527,,0.4 MX,30,7927,8427,-206,114 F,0,56301,56689,1,0 F,0,57850,58044,0,1 F,0,82624,83398,1,0
Sprite,Foreground,TopLeft,"sb\u\006c.png",127,407.5 S,0,7527,,0.4 MX,30,8027,8527,-193,127 F,0,56301,56689,1,0 F,0,57850,58044,0,1 F,0,82624,83398,1,0
Sprite,Foreground,TopLeft,"sb\u\0069.png",139,409 S,0,7527,,0.4 MX,30,8127,8627,-181,139 F,0,56301,56689,1,0 F,0,57850,58044,0,1 F,0,82624,83398,1,0
Sprite,Foreground,TopLeft,"sb\u\0074.png",149,411 S,0,7527,,0.4 MX,30,8227,8727,-171,149 F,0,56301,56689,1,0 F,0,57850,58044,0,1 F,0,82624,83398,1,0
Sprite,Foreground,TopLeft,"sb\u\0065.png",164.5,416 S,0,7527,,0.4 MX,30,8327,8827,-155.5,164.5 F,0,56301,56689,1,0 F,0,57850,58044,0,1 F,0,82624,83398,1,0
Sprite,Foreground,TopLeft,"sb\u\0053.png",48,409 S,0,89592,,0.4 MX,30,89592,90092,-272,48 F,0,132172,132560,1,0 F,0,133721,133915,0,1 F,0,182882,183656,1,0
Sprite,Foreground,TopLeft,"sb\u\0061.png",66.5,416 S,0,89592,,0.4 MX,30,89692,90192,-253.5,66.5 F,0,132172,132560,1,0 F,0,133721,133915,0,1 F,0,182882,183656,1,0
Sprite,Foreground,TopLeft,"sb\u\0074.png",81,411 S,0,89592,,0.4 MX,30,89792,90292,-239,81 F,0,132172,132560,1,0 F,0,133721,133915,0,1 F,0,182882,183656,1,0
Sprite,Foreground,TopLeft,"sb\u\0065.png",96.5,416 S,0,89592,,0.4 MX,30,89892,90392,-223.5,96.5 F,0,132172,132560,1,0 F,0,133721,133915,0,1 F,0,182882,183656,1,0
Sprite,Foreground,TopLeft,"sb\u\006c.png",114,407.5 S,0,89592,,0.4 MX,30,89992,90492,-206,114 F,0,132172,132560,1,0 F,0,133721,133915,0,1 F,0,182882,183656,1,0
Sprite,Foreground,TopLeft,"sb\u\006c.png",127,407.5 S,0,89592,,0.4 MX,30,90092,90592,-193,127 F,0,132172,132560,1,0 F,0,133721,133915,0,1 F,0,182882,183656,1,0
Sprite,Foreground,TopLeft,"sb\u\0069.png",139,409 S,0,89592,,0.4 MX,30,90192,90692,-181,139 F,0,132172,132560,1,0 F,0,133721,133915,0,1 F,0,182882,183656,1,0
Sprite,Foreground,TopLeft,"sb\u\0074.png",149,411 S,0,89592,,0.4 MX,30,90292,90792,-171,149 F,0,132172,132560,1,0 F,0,133721,133915,0,1 F,0,182882,183656,1,0
Sprite,Foreground,TopLeft,"sb\u\0065.png",164.5,416 S,0,89592,,0.4 MX,30,90392,90892,-155.5,164.5 F,0,132172,132560,1,0 F,0,133721,133915,0,1 F,0,182882,183656,1,0
Sprite,Foreground,TopLeft,"sb\u\002d.png",104.5,421.5 S,0,182882,,0.4 MX,30,182882,183382,-215.5,104.5 F,0,195656,196044,1,0
Sprite,Foreground,TopLeft,"sb\u\004d.png",124,409 S,0,182882,,0.4 MX,30,182982,183482,-196,124 F,0,195656,196044,1,0
Sprite,Foreground,TopLeft,"sb\u\006f.png",144,416 S,0,182882,,0.4 MX,30,183082,183582,-176,144 F,0,195656,196044,1,0
Sprite,Foreground,TopLeft,"sb\u\002d.png",164.5,421.5 S,0,182882,,0.4 MX,30,183182,183682,-155.5,164.5 F,0,195656,196044,1,0
Sprite,Foreground,TopLeft,"sb\u\002d.png",104.5,421.5 S,0,204172,,0.4 MX,30,204172,204672,-215.5,104.5 F,0,221592,221980,1,0 F,0,221979,222076,0,1 F,0,234366,235140,1,0
Sprite,Foreground,TopLeft,"sb\u\004d.png",124,409 S,0,204172,,0.4 MX,30,204272,204772,-196,124 F,0,221592,221980,1,0 F,0,221979,222076,0,1 F,0,234366,235140,1,0
Sprite,Foreground,TopLeft,"sb\u\006f.png",144,416 S,0,204172,,0.4 MX,30,204372,204872,-176,144 F,0,221592,221980,1,0 F,0,221979,222076,0,1 F,0,234366,235140,1,0
Sprite,Foreground,TopLeft,"sb\u\002d.png",164.5,421.5 S,0,204172,,0.4 MX,30,204472,204972,-155.5,164.5 F,0,221592,221980,1,0 F,0,221979,222076,0,1 F,0,234366,235140,1,0
Sprite,Foreground,Centre,"sb\hl.png",353,235 C,0,195656,,255,255,255 M,0,195656,195704,353,235,331.3751,228.7859 M,0,195704,195752,331.3751,228.7859,309.7502,222.5719 M,0,195752,195801,309.7502,222.5719,288.1253,216.3578 M,0,195801,195849,288.1253,216.3578,266.5005,210.1438 F,2,195849,196049,1,0 S,2,195849,196049,1,0.2
Sprite,Foreground,Centre,"sb\hl.png",184,161 C,0,195947,,255,255,255 F,2,195947,196147,1,0 S,2,195947,196147,1,0.2
Sprite,Foreground,Centre,"sb\hl.png",202,148 C,0,196043,,255,255,255 M,0,196043,196091,202,148,223.6056,141.7193 M,0,196091,196139,223.6056,141.7193,245.2112,135.4386 M,0,196139,196188,245.2112,135.4386,266.8169,129.1579 M,0,196188,196236,266.8169,129.1579,288,123 F,2,196236,196436,1,0 S,2,196236,196436,1,0.2
Sprite,Foreground,Centre,"sb\hl.png",452,93 C,0,196334,,255,255,255 F,2,196334,196534,1,0 S,2,196334,196534,1,0.2
Sprite,Foreground,Centre,"sb\hl.png",433,81 C,0,196431,,255,255,255 M,0,196431,196479,433,81,410.5777,79.13148 M,0,196479,196527,410.5777,79.13148,388.1555,77.26295 F,2,196527,196727,1,0 S,2,196527,196727,1,0.2
Sprite,Foreground,Centre,"sb\hl.png",222,214 C,0,196624,,255,255,255 M,0,196624,196672,222,214,244.4223,212.1315 M,0,196672,196720,244.4223,212.1315,266.8445,210.263 F,2,196720,196920,1,0 S,2,196720,196920,1,0.2
Sprite,Foreground,Centre,"sb\hl.png",477,286 C,0,196818,,255,255,255 M,0,196818,196866,477,286,454.5777,284.1315 M,0,196866,196914,454.5777,284.1315,432.1555,282.2629 F,2,196914,197114,1,0 S,2,196914,197114,1,0.2
Sprite,Foreground,Centre,"sb\hl.png",183,359 C,0,197011,,255,255,255 M,0,197011,197059,183,359,205.4223,357.1315 M,0,197059,197107,205.4223,357.1315,227.8446,355.2629 F,2,197107,197307,1,0 S,2,197107,197307,1,0.2
Sprite,Foreground,Centre,"sb\hl.png",362,383 C,0,132172,,255,255,255 M,0,132172,132220,362,383,346.3021,366.9837 M,0,132220,132268,346.3021,366.9837,327.8917,354.2028 M,0,132268,132317,327.8917,354.2028,307.1374,345.7381 M,0,132317,132365,307.1374,345.7381,285.1475,341.5126 M,0,132365,132413,285.1475,341.5126,262.7326,341.8146 M,0,132413,132462,262.7326,341.8146,240.8321,346.7437 M,0,132462,132510,240.8321,346.7437,262.7326,341.8146 M,0,132510,132559,262.7326,341.8146,285.1475,341.5126 M,0,132559,132607,285.1475,341.5126,307.1374,345.7381 M,0,132607,132655,307.1374,345.7381,327.8917,354.2028 M,0,132655,132704,327.8917,354.2028,346.3021,366.9837 M,0,132704,132752,346.3021,366.9837,362,383 F,2,132752,132952,1,0 S,2,132752,132952,1,0.2
Sprite,Foreground,Centre,"sb\hl.png",493,324 C,0,132947,,255,255,255 M,0,132947,132995,493,324,502.9094,303.8897 M,0,132995,133043,502.9094,303.8897,508.6144,282.2311 M,0,133043,133092,508.6144,282.2311,509.562,259.8202 M,0,133092,133140,509.562,259.8202,505.4816,237.7475 F,2,133140,133340,1,0 S,2,133140,133340,1,0.2
Sprite,Foreground,Centre,"sb\hl.png",433,168 C,0,133237,,255,255,255 F,2,133237,133437,1,0 S,2,133237,133437,1,0.2
Sprite,Foreground,Centre,"sb\hl.png",408,175 C,0,133334,,255,255,255 M,0,133334,133382,408,175,403.3234,196.9828 M,0,133382,133430,403.3234,196.9828,401,219 F,2,133430,133630,1,0 S,2,133430,133630,1,0.2
Sprite,Foreground,Centre,"sb\hl.png",566,438 C,0,133527,,255,255,255 M,0,133527,133575,566,438,544.8715,430.3451 M,0,133575,133623,544.8715,430.3451,522.9922,425.2588 F,2,133623,133823,1,0 S,2,133623,133823,1,0.2
Sprite,Foreground,Centre,"sb\hl.png",160,99 C,0,56301,,255,255,255 M,0,56301,56349,160,99,182.4604,100.3343 M,0,56349,56397,182.4604,100.3343,204.9208,101.6686 M,0,56397,56446,204.9208,101.6686,227.3812,103.0028 M,0,56446,56494,227.3812,103.0028,249.8416,104.3371 F,2,56494,56694,1,0 S,2,56494,56694,1,0.2
Sprite,Foreground,Centre,"sb\hl.png",487,173 C,0,56592,,255,255,255 F,2,56592,56792,1,0 S,2,56592,56792,1,0.2
Sprite,Foreground,Centre,"sb\hl.png",470,184 C,0,56689,,255,255,255 M,0,56689,56737,470,184,447.5396,185.3343 M,0,56737,56785,447.5396,185.3343,425.0792,186.6686 M,0,56785,56834,425.0792,186.6686,402.6188,188.0028 M,0,56834,56882,402.6188,188.0028,380.1584,189.3371 F,2,56882,57082,1,0 S,2,56882,57082,1,0.2
Sprite,Foreground,Centre,"sb\hl.png",171,247 C,0,56979,,255,255,255 F,2,56979,57179,1,0 S,2,56979,57179,1,0.2
Sprite,Foreground,Centre,"sb\hl.png",188,256 C,0,57076,,255,255,255 M,0,57076,57124,188,256,210.4223,257.8685 M,0,57124,57172,210.4223,257.8685,232.8446,259.7371 F,2,57172,57372,1,0 S,2,57172,57372,1,0.2
Sprite,Foreground,Centre,"sb\hl.png",453,294 C,0,57269,,255,255,255 M,0,57269,57317,453,294,430.5777,295.8685 M,0,57317,57365,430.5777,295.8685,408.1555,297.7371 F,2,57365,57565,1,0 S,2,57365,57565,1,0.2
Sprite,Foreground,Centre,"sb\hl.png",142,383 C,0,57463,,255,255,255 M,0,57463,57511,142,383,164.4223,384.8685 M,0,57511,57559,164.4223,384.8685,186.8446,386.7371 F,2,57559,57759,1,0 S,2,57559,57759,1,0.2
Sprite,Foreground,Centre,"sb\hl.png",479,420 C,0,57656,,255,255,255 M,0,57656,57704,479,420,456.5777,421.8685 M,0,57704,57752,456.5777,421.8685,434.1555,423.7371 F,2,57752,57952,1,0 S,2,57752,57952,1,0.2
//Storyboard Sound Samples

[TimingPoints]
560,387.096774193548,4,2,80,70,1,0
19140,-133.333333333333,4,2,80,50,0,0
30753,-100,4,2,80,50,0,0
31527,-100,4,2,80,70,0,0
44495,-133.333333333333,4,3,80,70,0,0
50108,-100,4,2,80,70,0,0
56301,-100,4,3,80,50,0,0
57850,-90.9090909090909,4,2,80,70,0,0
82624,-133.333333333333,4,2,80,70,0,0
88818,-100,4,2,80,70,0,0
96559,-200,4,2,80,70,0,0
97140,-200,4,2,80,30,0,0
97334,-200,4,2,80,70,0,0
97914,-100,4,2,80,70,0,0
120366,-133.333333333333,4,1,80,70,0,0
126753,-200,4,1,80,70,0,0
127334,-200,4,1,80,30,0,0
127527,-200,4,1,80,70,0,0
128108,-100,4,1,80,70,0,0
128301,-200,4,1,80,70,0,0
128882,-200,4,1,80,30,0,0
129076,-100,4,2,80,70,0,0
132172,-100,4,2,80,50,0,0
133721,-90.9090909090909,4,2,80,70,0,0
158495,-100,4,2,80,70,0,0
183366,-133.333333333333,4,1,80,50,0,0
189463,-100,4,2,80,70,0,0
195656,-100,4,3,80,50,0,0
203398,-133.333333333333,4,2,80,70,0,0
208043,-100,4,2,80,70,0,0
209592,-90.9090909090909,4,2,80,70,0,0
221979,-90.9090909090909,4,2,80,70,0,0

[Colours]
Combo1 : 254,252,158
Combo2 : 222,139,198
Combo3 : 71,202,245
Combo4 : 249,104,104

[HitObjects]
290,14,6753,38,0,B|314:51|314:51|303:144,1,135,6|0,1:2|0:0,0:0:0:0:
289,220,7140,1,8,0:0:0:0:
213,70,7334,1,2,0:3:0:0:
431,177,7527,1,2,1:2:0:0:
209,277,7721,2,0,P|205:253|205:224,1,45,2|0,0:3|0:0,0:0:0:0:
318,127,7914,1,8,0:0:0:0:
386,347,8108,21,2,0:3:0:0:
386,347,8205,1,0,0:0:0:0:
386,347,8301,2,0,B|295:319|295:319|257:333,1,135,6|0,1:2|0:0,0:0:0:0:
187,375,8689,1,8,0:0:0:0:
349,242,8882,1,2,0:3:0:0:
230,170,9076,22,0,L|180:162,3,45,6|0|2|0,1:1|0:0|0:3|0:0,0:0:0:0:
114,212,9463,1,12,0:1:0:0:
283,56,9656,1,2,0:3:0:0:
37,161,9850,22,0,B|23:204|23:204|40:298,1,135,6|0,1:2|0:0,0:0:0:0:
56,376,10237,1,8,0:0:0:0:
262,253,10430,1,2,0:3:0:0:
165,126,10624,1,6,1:1:0:0:
178,374,10818,1,2,0:3:0:0:
195,384,10914,2,0,B|236:390|236:390|284:378,1,90,0|0,0:0|0:0,0:0:0:0:
354,340,11205,1,2,0:3:0:0:
124,299,11398,21,6,1:2:0:0:
345,223,11592,1,0,0:0:0:0:
345,223,11689,1,0,0:0:0:0:
345,223,11785,1,8,0:0:0:0:
237,126,11979,1,2,0:3:0:0:
470,228,12172,21,6,1:1:0:0:
246,293,12366,1,2,0:3:0:0:
246,293,12463,1,0,0:0:0:0:
246,293,12559,2,0,L|241:238,1,45,12|0,0:1|0:0,0:0:0:0:
445,103,12753,2,0,L|440:147,1,45,2|0,0:3|0:0,0:0:0:0:
345,223,12947,22,0,B|321:186|321:186|328:94,1,135,6|0,1:2|0:0,0:0:0:0:
337,11,13334,1,8,0:0:0:0:
157,200,13527,1,2,0:3:0:0:
157,200,13624,1,0,0:0:0:0:
157,200,13721,2,0,L|147:118,1,45,2|0,1:2|0:0,0:0:0:0:
136,60,13914,1,2,0:3:0:0:
328,95,14108,1,8,0:0:0:0:
62,124,14301,21,2,0:3:0:0:
62,124,14398,1,0,0:0:0:0:
62,124,14495,2,0,B|38:161|38:161|28:255,1,135,6|0,1:2|0:0,0:0:0:0:
20,333,14882,1,8,0:0:0:0:
252,269,15076,1,2,0:3:0:0:
157,200,15269,21,6,1:1:0:0:
305,372,15463,1,2,0:3:0:0:
305,372,15559,1,0,0:0:0:0:
305,372,15656,2,0,L|311:320,1,45,12|0,0:1|0:0,0:0:0:0:
420,241,15850,2,0,L|414:189,1,45,2|0,0:3|0:0,0:0:0:0:
327,95,16043,21,6,1:2:0:0:
413,352,16237,1,0,0:0:0:0:
413,352,16334,1,0,0:0:0:0:
413,352,16430,1,8,0:0:0:0:
147,298,16624,1,2,0:3:0:0:
420,241,16818,21,6,1:1:0:0:
200,384,17011,1,2,0:3:0:0:
157,200,17205,22,0,L|237:211,1,45,8|0,0:0|0:0,0:0:0:0:
325,283,17398,2,0,P|334:264|341:238,1,45,2|0,0:3|0:0,0:0:0:0:
261,37,17592,21,6,1:2:0:0:
249,79,17689,1,0,0:0:0:0:
269,118,17785,1,2,0:3:0:0:
310,134,17882,1,0,0:0:0:0:
352,119,17979,1,12,0:1:0:0:
106,99,18172,22,0,P|125:88|148:85,1,45,2|0,0:3|0:0,0:0:0:0:
423,162,18366,1,6,1:2:0:0:
261,37,18559,1,2,3:3:0:0:
427,316,18753,1,14,3:1:0:0:
427,316,18850,1,0,3:2:0:0:
427,316,18947,1,2,3:3:0:0:
427,316,19043,1,0,3:2:0:0:
427,316,19140,6,0,P|435:276|436:236,1,67.5000025749208,6|2,1:2|0:3,0:0:0:0:
336,358,19527,1,2,1:2:0:0:
298,196,19721,1,2,0:3:0:0:
164,295,19914,2,0,P|197:300|230:296,2,67.5000025749208,2|2|2,1:2|0:3|1:2,0:0:0:0:
54,204,20495,1,2,0:3:0:0:
181,120,20689,22,0,L|194:200,1,67.5000025749208,2|2,1:2|0:3,0:0:0:0:
321,289,21076,2,0,L|308:369,1,67.5000025749208,2|2,1:2|0:3,0:0:0:0:
164,295,21463,2,0,L|147:299,4,16.8750006437302,2|0|0|0|2,1:2|0:0|0:0|0:0|0:3,0:0:0:0:
298,196,21850,1,2,1:2:0:0:
314,217,22237,22,0,L|173:210,1,135.000005149842,2|2,1:2|1:2,0:0:0:0:
283,100,22818,1,2,0:3:0:0:
408,189,23011,2,0,P|412:228|402:260,1,67.5000025749208,2|2,1:2|0:3,0:0:0:0:
241,360,23398,2,0,P|267:339|299:330,1,67.5000025749208,2|2,1:2|0:3,0:0:0:0:
493,361,23785,22,0,B|512:299|512:299|503:253,1,101.250003862381,2|0,1:2|0:0,0:0:0:0:
491,229,24172,2,0,L|409:233,1,67.5000025749208,2|2,1:2|0:3,0:0:0:0:
228,170,24559,2,0,L|211:165,4,16.8750006437302,2|0|0|0|2,1:2|0:0|0:0|0:0|0:3,0:0:0:0:
414,318,24947,1,0,1:3:0:0:
207,261,25140,21,0,1:0:0:0:
207,261,25237,1,0,1:0:0:0:
207,261,25334,2,0,P|152:258|87:304,1,135.000005149842,6|2,1:2|1:2,0:0:0:0:
280,350,25914,1,2,0:3:0:0:
228,170,26108,2,0,P|223:137|223:90,1,67.5000025749208,2|2,1:2|0:3,0:0:0:0:
369,247,26495,2,0,P|335:243|290:231,1,67.5000025749208,2|2,1:2|0:3,0:0:0:0:
353,27,26882,22,0,P|374:62|324:136,1,135.000005149842,2|2,1:2|1:2,0:0:0:0:
111,174,27463,1,2,0:3:0:0:
207,66,27656,2,0,L|199:50,4,16.8750006437302,2|0|0|0|2,1:2|0:0|0:0|0:0|0:3,0:0:0:0:
298,260,28043,1,2,1:2:0:0:
330,134,28237,1,2,0:3:0:0:
334,350,28430,22,0,P|268:343|191:340,1,135.000005149842,2|2,1:2|1:2,0:0:0:0:
37,253,29011,1,2,0:3:0:0:
32,351,29205,2,0,P|68:348|122:303,1,101.250003862381,2|0,1:2|0:0,0:0:0:0:
142,280,29592,2,0,L|135:211,1,67.5000025749208,2|2,1:2|0:3,0:0:0:0:
330,130,29979,21,6,1:2:0:0:
222,311,30172,1,2,0:3:0:0:
203,100,30366,1,2,1:2:0:0:
341,259,30559,1,2,0:3:0:0:
136,213,30753,37,14,3:2:0:0:
136,213,30947,2,0,L|191:208,1,45,8|0,3:2|3:2,0:0:0:0:
374,134,31140,1,8,3:2:0:0:
374,134,31334,2,0,L|319:129,1,45,8|0,3:2|3:2,0:0:0:0:
258,26,31527,38,0,B|234:63|234:63|245:156,1,135,6|0,1:2|0:0,0:0:0:0:
259,232,31914,1,8,0:0:0:0:
356,46,32108,1,2,0:3:0:0:
152,97,32301,1,2,1:2:0:0:
152,97,32398,1,0,0:0:0:0:
152,97,32495,2,0,L|145:147,1,45,2|0,0:3|0:0,0:0:0:0:
363,225,32689,1,8,0:0:0:0:
159,276,32882,1,2,0:3:0:0:
442,311,33076,22,0,B|459:222|459:222|443:177,1,135,2|0,1:2|0:0,0:0:0:0:
410,107,33463,1,8,0:0:0:0:
226,214,33656,1,2,0:3:0:0:
226,214,33753,1,0,0:0:0:0:
226,214,33850,2,0,L|231:160,1,45,2|0,1:2|0:0,0:0:0:0:
241,46,34043,1,2,0:3:0:0:
363,225,34237,1,8,0:0:0:0:
363,225,34334,1,0,0:0:0:0:
363,225,34430,2,0,L|302:220,1,45,2|0,0:3|0:0,0:0:0:0:
116,204,34624,21,2,1:2:0:0:
309,132,34818,1,2,0:3:0:0:
116,204,35011,1,8,0:0:0:0:
340,301,35205,1,2,0:3:0:0:
37,263,35398,2,0,P|20:218|23:171,1,90,2|2,1:2|0:3,0:0:0:0:
61,100,35689,1,0,0:0:0:0:
61,100,35785,2,0,L|150:93,1,90,8|2,0:0|0:3,0:0:0:0:
420,135,36172,21,2,1:2:0:0:
241,46,36366,1,2,0:3:0:0:
241,46,36463,1,0,0:0:0:0:
241,46,36559,1,8,0:0:0:0:
370,0,36753,1,2,0:3:0:0:
116,37,36947,37,2,1:2:0:0:
116,37,37140,2,0,L|123:88,1,45,2|0,0:3|0:0,0:0:0:0:
339,176,37334,1,8,3:3:0:0:
339,176,37527,2,0,L|324:230,1,45,10|0,3:3|3:2,0:0:0:0:
120,359,37721,38,0,P|174:349|280:347,1,135,6|0,1:2|0:0,0:0:0:0:
340,360,38108,1,8,0:0:0:0:
165,256,38301,1,2,0:3:0:0:
165,256,38398,1,0,0:0:0:0:
165,256,38495,2,0,L|175:208,1,45,2|0,1:2|0:0,0:0:0:0:
326,132,38689,2,0,L|339:176,1,45,2|0,0:3|0:0,0:0:0:0:
222,48,38882,1,8,0:0:0:0:
448,113,39076,21,2,0:3:0:0:
448,113,39172,1,0,0:0:0:0:
448,113,39269,2,0,P|449:175|440:252,1,135,2|0,1:2|0:0,0:0:0:0:
412,327,39656,1,8,0:0:0:0:
165,256,39850,1,2,0:3:0:0:
165,256,39947,1,0,0:0:0:0:
165,256,40043,2,0,L|222:247,1,45,2|0,1:2|0:0,0:0:0:0:
326,132,40237,2,0,L|269:123,1,45,2|0,0:3|0:0,0:0:0:0:
57,201,40430,21,8,0:0:0:0:
44,243,40527,1,0,0:0:0:0:
48,288,40624,1,2,0:3:0:0:
68,328,40721,1,0,0:0:0:0:
101,358,40818,1,6,1:2:0:0:
295,215,41011,1,10,1:3:0:0:
165,256,41205,21,8,1:2:0:0:
361,353,41398,1,10,1:3:0:0:
361,353,41495,1,0,0:0:0:0:
361,353,41592,1,14,1:2:0:0:
233,146,41785,21,10,1:3:0:0:
221,353,41979,1,8,1:2:0:0:
221,353,42076,1,0,0:0:0:0:
221,353,42172,2,0,L|279:348,1,45,2|0,3:3|3:0,0:0:0:0:
409,246,42366,21,6,1:1:0:0:
148,75,42559,1,0,0:0:0:0:
126,97,42656,2,0,P|115:148|126:189,1,90,4|0,0:1|0:0,0:0:0:0:
165,256,42947,2,0,L|226:252,1,45,4|0,0:1|0:0,0:0:0:0:
409,246,43140,21,6,1:2:0:0:
369,226,43237,1,0,3:2:0:0:
325,226,43334,1,2,3:3:0:0:
284,246,43430,1,0,3:2:0:0:
256,282,43527,1,8,3:2:0:0:
228,317,43624,1,0,3:2:0:0:
187,337,43721,1,2,3:3:0:0:
143,337,43818,1,0,3:2:0:0:
103,318,43914,1,6,1:2:0:0:
80,278,44495,21,2,1:3:0:0:
146,214,44689,2,0,L|184:219,2,33.7500012874604,8|0|0,0:0|0:0|0:0,0:0:0:0:
61,189,44979,2,0,L|23:194,2,33.7500012874604,8|0|0,0:0|0:0|0:0,0:0:0:0:
123,125,45269,2,0,L|126:81,1,33.7500012874604,8|0,0:0|0:0,0:0:0:0:
215,57,45463,22,0,L|217:90,3,33.7500012874604,2|0|0|0,1:2|0:0|0:0|0:0,0:0:0:0:
264,192,45850,2,0,L|266:158,3,33.7500012874604,0|0|2|0,0:0|0:0|1:3|0:0,0:0:0:0:
342,122,46237,22,0,P|394:127|425:137,1,67.5000025749208,8|0,0:0|0:0,0:0:0:0:
479,204,46527,2,0,P|427:209|396:219,1,67.5000025749208,8|0,0:0|0:0,0:0:0:0:
329,264,46818,2,0,L|326:297,1,33.7500012874604,8|0,0:0|0:0,0:0:0:0:
228,330,47011,22,0,L|225:296,3,33.7500012874604,2|0|0|0,1:2|0:0|0:0|0:0,0:0:0:0:
134,244,47398,2,0,L|137:210,3,33.7500012874604,0|0|2|0,0:0|0:0|1:3|0:0,0:0:0:0:
241,190,47785,2,0,L|233:123,1,67.5000025749208,8|0,0:0|0:0,0:0:0:0:
256,87,48076,1,8,0:0:0:0:
256,87,48172,2,0,L|248:20,1,67.5000025749208,0|8,0:0|0:0,0:0:0:0:
92,75,48559,22,0,L|58:71,3,33.7500012874604,2|0|0|0,1:2|0:0|0:0|0:0,0:0:0:0:
160,140,48947,2,0,L|168:188,1,33.7500012874604,0|0,0:0|0:0,0:0:0:0:
43,215,49140,2,0,L|35:263,1,33.7500012874604,2|0,0:3|0:0,0:0:0:0:
150,352,49334,1,10,1:2:0:0:
150,352,49430,1,0,0:0:0:0:
150,352,49527,1,8,0:0:0:0:
150,352,49624,1,0,0:0:0:0:
150,352,49721,2,0,L|144:318,1,33.7500012874604,0|0,0:0|0:0,0:0:0:0:
272,147,49914,2,0,L|266:180,1,33.7500012874604,10|0,0:3|0:0,0:0:0:0:
122,229,50108,22,0,B|215:219|192:278|293:271,1,180,12|12,1:2|1:3,0:0:0:0:
453,177,50689,1,10,3:3:0:0:
453,177,50785,1,0,3:2:0:0:
453,177,50882,2,0,L|459:259,1,45,14|0,1:3|0:0,0:0:0:0:
282,101,51076,2,0,L|271:147,1,45,10|0,3:3|3:2,0:0:0:0:
407,49,51269,1,12,1:3:0:0:
437,313,51463,21,10,3:3:0:0:
437,313,51559,1,0,3:2:0:0:
437,313,51656,1,14,1:3:0:0:
252,235,51850,1,10,3:3:0:0:
366,164,52043,1,12,1:3:0:0:
133,200,52237,21,10,3:3:0:0:
133,200,52334,1,0,0:0:0:0:
133,200,52430,2,0,P|126:244|142:291,1,90,14|10,1:3|3:3,0:0:0:0:
197,344,52721,1,0,0:0:0:0:
216,352,52818,2,0,L|264:347,1,45,12|0,1:3|0:0,0:0:0:0:
336,244,53011,2,0,L|381:249,1,45,10|0,3:3|0:0,0:0:0:0:
227,127,53205,21,12,1:2:0:0:
113,365,53398,1,10,3:3:0:0:
336,244,53592,21,12,1:3:0:0:
73,219,53785,1,10,3:3:0:0:
366,164,53979,21,12,1:1:0:0:
142,282,54172,1,10,3:3:0:0:
142,282,54269,1,0,0:0:0:0:
142,282,54366,1,12,1:3:0:0:
340,72,54559,1,10,3:3:0:0:
431,357,54753,21,12,1:2:0:0:
388,372,54850,1,0,0:0:0:0:
342,372,54947,1,10,3:3:0:0:
300,356,55043,1,0,0:0:0:0:
265,327,55140,1,12,1:3:0:0:
230,298,55237,1,0,0:0:0:0:
188,282,55334,1,10,3:3:0:0:
142,282,55430,1,0,0:0:0:0:
99,297,55527,2,0,L|86:351,1,45,12|8,1:1|3:2,0:0:0:0:
262,212,55721,2,0,L|251:168,1,45,10|8,3:3|3:2,0:0:0:0:
96,43,55914,21,12,1:1:0:0:
96,43,56011,1,8,3:2:0:0:
96,43,56108,1,14,3:1:0:0:
96,43,56205,1,8,3:2:0:0:
96,43,56301,2,0,L|197:49,1,90,6|0,3:2|3:2,0:0:0:0:
423,117,56592,1,0,0:0:0:0:
406,128,56689,2,0,L|305:134,1,90,0|0,3:2|3:2,0:0:0:0:
107,191,56979,1,0,0:0:0:0:
124,200,57076,22,0,L|172:204,1,45,0|0,3:2|3:2,0:0:0:0:
389,238,57269,2,0,L|341:242,1,45,0|0,3:2|3:2,0:0:0:0:
78,327,57463,2,0,L|126:331,1,45,0|0,3:2|3:2,0:0:0:0:
415,364,57656,2,0,L|367:368,1,45,0|0,3:2|3:2,0:0:0:0:
256,372,57850,6,0,B|236:327|236:327|248:218,1,148.50000453186,6|0,1:2|0:0,0:0:0:0:
256,146,58237,1,8,0:0:0:0:
344,303,58430,1,2,0:3:0:0:
344,303,58527,1,0,0:0:0:0:
344,303,58624,1,6,1:1:0:0:
107,191,58818,1,2,0:3:0:0:
354,93,59011,2,0,B|370:143|370:143|363:189,1,99.0000030212403,8|2,0:0|0:3,0:0:0:0:
134,49,59398,21,6,1:2:0:0:
459,164,59592,1,2,0:3:0:0:
459,164,59689,1,0,0:0:0:0:
459,164,59785,1,8,0:0:0:0:
296,0,59979,1,2,0:3:0:0:
344,302,60172,2,0,P|350:279|354:254,1,49.5000015106202,6|0,1:1|0:0,0:0:0:0:
176,153,60366,2,0,P|181:178|188:202,1,49.5000015106202,2|0,0:3|0:0,0:0:0:0:
354,93,60559,1,12,0:1:0:0:
60,134,60753,21,10,0:3:0:0:
60,134,60850,1,0,0:0:0:0:
60,134,60947,2,0,P|64:192|72:235,1,99.0000030212403,6|2,1:2|0:3,0:0:0:0:
118,302,61237,1,0,0:0:0:0:
138,291,61334,2,0,L|132:340,1,49.5000015106202,8|0,0:0|0:0,0:0:0:0:
267,229,61527,2,0,L|265:180,1,49.5000015106202,2|0,0:3|0:0,0:0:0:0:
173,16,61721,21,6,1:1:0:0:
152,61,61818,1,0,0:0:0:0:
153,110,61914,1,2,0:3:0:0:
176,153,62011,1,0,0:0:0:0:
216,182,62108,2,0,L|270:179,1,49.5000015106202,8|0,0:0|0:0,0:0:0:0:
488,166,62301,2,0,L|438:164,1,49.5000015106202,2|0,0:3|0:0,0:0:0:0:
257,83,62495,21,6,1:2:0:0:
257,83,62689,2,0,L|263:31,1,49.5000015106202,2|0,0:3|0:0,0:0:0:0:
362,200,62882,1,8,0:3:0:0:
362,200,63076,2,0,L|356:148,1,49.5000015106202,2|0,0:3|0:0,0:0:0:0:
183,291,63269,1,6,1:1:0:0:
226,269,63366,1,0,0:0:0:0:
275,273,63463,1,2,0:3:0:0:
314,302,63559,1,0,0:0:0:0:
333,347,63656,1,12,0:1:0:0:
101,207,63850,1,10,0:3:0:0:
375,26,64043,22,0,B|391:76|391:76|384:122,1,99.0000030212403,6|2,1:2|0:3,0:0:0:0:
362,200,64334,1,0,0:0:0:0:
362,200,64430,1,8,0:0:0:0:
166,157,64624,1,2,0:3:0:0:
383,296,64818,21,6,1:1:0:0:
257,83,65011,1,2,0:3:0:0:
257,83,65108,1,0,0:0:0:0:
257,83,65205,1,8,0:0:0:0:
375,26,65398,1,2,0:3:0:0:
133,66,65592,21,6,1:2:0:0:
423,107,65785,1,2,0:3:0:0:
423,107,65882,1,0,0:0:0:0:
423,107,65979,1,12,1:1:0:0:
205,22,66172,1,2,0:3:0:0:
355,271,66366,1,6,1:1:0:0:
355,271,66463,1,0,0:0:0:0:
355,271,66559,2,0,P|370:224|368:170,1,99.0000030212403,2|8,0:3|0:0,0:0:0:0:
102,247,66947,21,2,0:3:0:0:
102,247,67043,1,0,0:0:0:0:
102,247,67140,2,0,L|209:239,1,99.0000030212403,6|2,1:2|0:3,0:0:0:0:
286,231,67430,1,0,0:0:0:0:
286,231,67527,1,8,0:0:0:0:
154,125,67721,1,2,0:3:0:0:
185,339,67914,21,6,1:1:0:0:
185,339,68011,1,0,0:0:0:0:
185,339,68108,2,0,L|241:335,1,49.5000015106202,2|0,0:3|0:0,0:0:0:0:
368,159,68301,21,8,0:0:0:0:
368,159,68398,1,0,0:0:0:0:
368,159,68495,2,0,L|419:168,1,49.5000015106202,2|0,0:3|0:0,0:0:0:0:
289,31,68689,21,6,1:2:0:0:
251,63,68785,1,0,0:0:0:0:
226,106,68882,1,2,0:3:0:0:
217,154,68979,1,0,0:0:0:0:
226,203,69076,1,8,0:0:0:0:
250,245,69172,1,0,0:0:0:0:
287,277,69269,1,2,0:3:0:0:
333,295,69366,1,0,0:0:0:0:
385,299,69463,21,6,1:1:0:0:
338,278,69559,1,0,3:0:0:0:
287,277,69656,1,2,3:3:0:0:
239,293,69753,1,0,3:0:0:0:
199,323,69850,1,14,3:1:0:0:
158,355,69947,1,0,3:0:0:0:
110,371,70043,1,14,3:1:0:0:
58,370,70140,1,0,3:0:0:0:
11,351,70237,21,6,1:2:0:0:
250,245,70430,1,2,0:3:0:0:
96,76,70624,1,8,0:0:0:0:
71,102,70721,2,0,P|68:154|78:200,1,99.0000030212403,0|0,0:0|0:0,0:0:0:0:
128,263,71011,1,6,1:1:0:0:
368,159,71205,1,2,0:3:0:0:
243,98,71398,1,8,0:0:0:0:
383,296,71592,1,2,0:3:0:0:
57,325,71785,22,0,P|37:276|42:229,1,99.0000030212403,6|2,1:2|0:3,0:0:0:0:
441,94,72172,2,0,P|461:143|456:190,1,99.0000030212403,8|2,0:0|0:3,0:0:0:0:
145,126,72559,1,6,1:1:0:0:
345,23,72753,1,2,0:3:0:0:
345,23,72850,1,0,0:0:0:0:
345,23,72947,1,12,0:1:0:0:
49,63,73140,21,10,0:3:0:0:
49,63,73237,1,0,0:0:0:0:
49,63,73334,2,0,P|29:112|34:159,1,99.0000030212403,6|2,1:2|0:3,0:0:0:0:
80,223,73624,1,0,0:0:0:0:
101,231,73721,2,0,L|186:226,1,49.5000015106202,8|0,0:0|0:0,0:0:0:0:
368,159,73914,2,0,L|283:154,1,49.5000015106202,2|0,0:3|0:0,0:0:0:0:
192,82,74108,21,6,1:1:0:0:
192,82,74205,1,0,0:0:0:0:
192,82,74301,2,0,L|201:24,1,49.5000015106202,2|0,0:3|0:0,0:0:0:0:
230,232,74495,21,8,0:0:0:0:
230,232,74592,1,0,0:0:0:0:
230,232,74689,2,0,L|239:174,1,49.5000015106202,2|0,0:3|0:0,0:0:0:0:
289,373,74882,21,6,1:2:0:0:
289,373,75076,2,0,L|280:315,1,49.5000015106202,2|0,0:3|0:0,0:0:0:0:
493,262,75269,1,8,0:0:0:0:
493,262,75463,2,0,L|500:213,1,49.5000015106202,2|0,0:3|0:0,0:0:0:0:
286,64,75656,1,6,1:1:0:0:
289,112,75753,1,0,0:0:0:0:
320,149,75850,1,2,0:3:0:0:
368,159,75947,1,0,0:0:0:0:
412,139,76043,1,12,3:1:0:0:
230,232,76237,21,10,3:3:0:0:
230,232,76334,1,0,3:0:0:0:
230,232,76430,2,0,L|130:224,1,99.0000030212403,6|2,1:2|0:3,0:0:0:0:
370,71,76818,1,8,0:0:0:0:
405,355,77011,1,2,0:3:0:0:
405,355,77108,1,0,0:0:0:0:
405,355,77205,1,6,1:1:0:0:
193,137,77398,1,2,0:3:0:0:
497,196,77592,2,0,B|491:248|491:248|472:293,1,99.0000030212403,8|2,0:0|0:3,0:0:0:0:
118,217,77979,21,6,1:2:0:0:
370,71,78172,1,2,0:3:0:0:
370,71,78269,1,0,0:0:0:0:
370,71,78366,2,0,L|377:129,1,49.5000015106202,8|0,0:0|0:0,0:0:0:0:
269,310,78559,2,0,L|276:368,1,49.5000015106202,2|0,0:3|0:0,0:0:0:0:
379,250,78753,1,6,1:1:0:0:
349,211,78850,1,0,0:0:0:0:
306,187,78947,1,2,0:3:0:0:
257,182,79043,1,0,0:0:0:0:
211,198,79140,1,8,0:0:0:0:
61,344,79334,21,10,0:3:0:0:
61,344,79430,1,0,0:0:0:0:
61,344,79527,1,6,1:2:0:0:
476,267,79721,1,2,0:3:0:0:
246,33,79914,1,8,0:0:0:0:
246,33,80011,1,0,0:0:0:0:
246,33,80108,2,0,L|235:92,1,49.5000015106202,2|0,0:3|0:0,0:0:0:0:
211,198,80301,1,6,1:1:0:0:
281,267,81076,21,6,1:2:0:0:
349,103,81269,1,2,0:3:0:0:
111,289,81463,1,8,0:0:0:0:
399,380,81656,2,0,P|405:349|406:318,1,49.5000015106202,2|0,0:3|0:0,0:0:0:0:
277,137,81850,21,6,1:1:0:0:
310,172,81947,1,0,0:0:0:0:
357,182,82043,1,2,0:3:0:0:
402,162,82140,1,0,0:0:0:0:
426,119,82237,1,12,3:1:0:0:
421,71,82334,1,0,3:0:0:0:
389,35,82430,1,14,3:1:0:0:
341,24,82527,1,0,3:0:0:0:
296,43,82624,21,6,0:0:0:0:
387,318,88818,38,0,P|343:325|300:314,1,90,6|2,1:2|0:3,0:0:0:0:
232,266,89108,1,0,0:0:0:0:
232,266,89205,1,8,0:0:0:0:
343,84,89398,1,2,0:3:0:0:
343,84,89495,1,0,0:0:0:0:
343,84,89592,2,0,B|361:128|361:128|350:218,1,135,6|0,1:2|0:0,0:0:0:0:
350,214,89979,1,8,0:0:0:0:
172,173,90172,21,2,0:3:0:0:
172,173,90269,1,0,0:0:0:0:
172,173,90366,2,0,P|213:156|258:159,1,90,6|2,1:2|0:3,0:0:0:0:
125,270,90753,1,8,0:0:0:0:
192,51,90947,1,2,0:3:0:0:
192,51,91043,1,0,0:0:0:0:
192,51,91140,1,6,1:2:0:0:
350,214,91334,1,2,0:3:0:0:
350,214,91430,1,0,0:0:0:0:
350,214,91527,1,8,0:0:0:0:
172,173,91721,2,0,L|180:125,1,45,2|0,0:3|0:0,0:0:0:0:
192,51,91914,22,0,L|291:58,1,90,6|2,1:2|0:3,0:0:0:0:
364,23,92205,2,0,P|371:63|353:112,1,90,0|0,0:0|0:0,0:0:0:0:
276,141,92495,2,0,L|224:138,1,45,2|0,0:3|0:0,0:0:0:0:
151,161,92689,22,0,P|144:201|162:250,1,90,0|2,1:3|0:3,0:0:0:0:
223,305,92979,2,0,L|326:311,1,90,0|0,0:0|0:0,0:0:0:0:
293,224,93269,2,0,L|241:221,1,45,2|0,0:3|0:0,0:0:0:0:
121,361,93463,21,6,1:2:0:0:
389,293,93656,1,2,0:3:0:0:
144,116,93850,21,8,0:3:0:0:
355,166,94043,1,2,0:3:0:0:
71,209,94237,21,6,1:1:0:0:
41,175,94334,1,0,3:2:0:0:
27,132,94430,1,2,3:3:0:0:
29,88,94527,1,0,3:2:0:0:
48,47,94624,1,12,3:1:0:0:
81,17,94721,1,0,3:2:0:0:
123,2,94818,1,10,3:3:0:0:
167,2,94914,1,0,3:2:0:0:
209,19,95011,21,4,1:2:0:0:
302,366,95205,1,4,1:2:0:0:
336,335,96559,22,0,P|246:322|161:320,1,157.5,4|0,1:1|0:0,0:0:0:0:
98,344,97334,1,6,1:2:0:0:
243,246,97527,1,0,0:0:0:0:
119,213,97721,1,0,0:0:0:0:
211,122,97914,2,0,L|259:131,1,45,0|0,0:0|0:0,0:0:0:0:
359,191,98108,22,0,B|348:102|348:102|370:62,1,135,4|4,1:2|1:2,0:0:0:0:
438,118,99656,21,6,1:2:0:0:
74,266,100043,1,6,0:1:0:0:
306,35,100430,21,6,1:2:0:0:
402,270,100624,1,0,0:0:0:0:
189,102,100818,21,8,3:0:0:0:
159,134,100914,1,0,3:0:0:0:
155,178,101011,1,8,3:0:0:0:
179,216,101108,1,0,3:0:0:0:
220,231,101205,1,4,1:2:0:0:
327,161,101398,1,2,0:3:0:0:
220,231,101592,1,12,0:3:0:0:
402,270,101785,21,2,0:3:0:0:
402,270,101882,1,0,0:0:0:0:
402,270,101979,2,0,B|421:183|421:183|412:133,1,135,4|0,1:3|0:0,0:0:0:0:
394,61,102366,1,12,0:3:0:0:
155,178,102559,21,2,0:3:0:0:
155,178,102656,1,0,0:0:0:0:
155,178,102753,2,0,L|253:182,1,90,4|2,1:3|0:3,0:0:0:0:
137,79,103140,1,12,0:3:0:0:
90,263,103334,1,2,0:3:0:0:
90,263,103430,1,0,0:0:0:0:
90,263,103527,1,4,1:3:0:0:
234,106,103721,1,2,0:3:0:0:
276,255,103914,1,12,0:3:0:0:
316,45,104108,21,2,0:3:0:0:
316,45,104205,1,0,0:0:0:0:
316,45,104301,2,0,P|268:10|188:17,1,135,4|0,1:3|0:0,0:0:0:0:
137,79,104689,1,12,0:3:0:0:
327,148,104882,1,2,0:3:0:0:
327,148,104979,1,0,0:0:0:0:
327,148,105076,2,0,L|334:240,1,90,4|2,1:3|0:3,0:0:0:0:
129,173,105463,1,12,0:3:0:0:
234,106,105656,2,0,L|230:156,1,45,2|0,0:3|0:0,0:0:0:0:
123,301,105850,21,6,1:2:0:0:
334,238,106043,1,2,0:3:0:0:
137,79,106237,21,12,0:3:0:0:
327,148,106430,1,2,0:3:0:0:
123,301,106624,37,14,3:2:0:0:
123,301,106818,2,0,L|130:252,1,45,8|0,3:3|3:2,0:0:0:0:
229,61,107011,1,8,3:2:0:0:
229,61,107205,2,0,L|234:116,1,45,8|0,3:2|3:2,0:0:0:0:
313,175,107398,38,0,B|276:199|276:199|183:188,1,135,6|0,1:2|0:0,0:0:0:0:
105,174,107785,1,8,0:0:0:0:
273,338,107979,1,2,0:3:0:0:
273,338,108076,1,0,0:0:0:0:
273,338,108172,2,0,P|277:314|280:293,1,45,2|0,1:2|0:0,0:0:0:0:
186,188,108366,2,0,B|188:209|192:232,1,45,2|0,0:3|0:0,0:0:0:0:
338,165,108559,1,8,0:0:0:0:
396,376,108753,21,2,0:3:0:0:
396,376,108850,1,0,0:0:0:0:
396,376,108947,2,0,B|361:347|361:347|273:338,1,135,2|0,1:2|0:0,0:0:0:0:
186,334,109334,1,8,0:0:0:0:
352,263,109527,1,2,0:3:0:0:
227,144,109721,1,2,1:2:0:0:
227,144,109818,1,0,0:0:0:0:
227,144,109914,2,0,L|218:194,1,45,2|0,0:3|0:0,0:0:0:0:
269,298,110108,1,8,0:0:0:0:
297,83,110301,21,2,0:3:0:0:
297,83,110398,1,0,0:0:0:0:
297,83,110495,2,0,B|209:102|209:102|166:80,1,135,2|0,1:2|0:0,0:0:0:0:
104,36,110882,1,8,0:0:0:0:
151,243,111076,1,2,0:3:0:0:
151,243,111172,1,0,0:0:0:0:
151,243,111269,2,0,P|175:241|198:236,1,45,2|0,1:2|0:0,0:0:0:0:
349,148,111463,2,0,P|339:170|335:191,1,45,2|0,0:3|0:0,0:0:0:0:
430,383,111656,2,0,P|441:339|435:289,1,90,8|2,0:0|0:3,0:0:0:0:
404,223,111947,21,0,0:0:0:0:
404,223,112043,2,0,B|314:214|314:214|281:246,1,135,2|0,1:2|0:0,0:0:0:0:
228,309,112430,1,8,0:0:0:0:
205,154,112624,1,2,0:3:0:0:
342,330,112818,37,2,1:2:0:0:
342,330,113011,2,0,L|348:278,1,45,2|0,0:3|0:0,0:0:0:0:
474,175,113205,1,8,3:0:0:0:
474,175,113398,2,0,L|468:123,1,45,10|0,3:0|3:0,0:0:0:0:
282,7,113592,38,0,B|266:49|266:49|278:140,1,135,6|0,1:2|0:0,0:0:0:0:
288,218,113979,1,8,0:0:0:0:
392,67,114172,1,2,0:3:0:0:
392,67,114269,1,0,0:0:0:0:
392,67,114366,2,0,P|396:87|394:115,1,45,2|0,1:2|0:0,0:0:0:0:
175,194,114559,2,0,P|171:174|173:146,1,45,2|0,0:3|0:0,0:0:0:0:
282,7,114753,1,8,0:0:0:0:
95,91,114947,21,2,0:3:0:0:
95,91,115043,1,0,0:0:0:0:
95,91,115140,2,0,B|72:134|72:134|84:224,1,135,2|0,1:2|0:0,0:0:0:0:
100,298,115527,1,8,0:0:0:0:
347,256,115721,1,2,0:3:0:0:
347,256,115818,1,0,0:0:0:0:
347,256,115914,2,0,L|290:247,1,45,2|0,1:2|0:0,0:0:0:0:
186,132,116108,2,0,L|243:123,1,45,2|0,0:3|0:0,0:0:0:0:
455,201,116301,21,8,0:0:0:0:
468,243,116398,1,0,0:0:0:0:
464,288,116495,1,2,0:3:0:0:
444,328,116592,1,0,0:0:0:0:
411,358,116689,1,14,1:2:0:0:
217,215,116882,1,10,1:3:0:0:
347,256,117076,21,8,1:0:0:0:
151,353,117269,1,10,1:3:0:0:
151,353,117366,1,0,0:0:0:0:
151,353,117463,1,14,1:2:0:0:
279,146,117656,21,10,1:3:0:0:
291,353,117850,1,8,1:2:0:0:
291,353,117947,1,0,0:0:0:0:
291,353,118043,2,0,L|233:348,1,45,2|0,3:3|3:0,0:0:0:0:
103,246,118237,21,6,1:1:0:0:
364,75,118430,1,0,0:0:0:0:
386,97,118527,2,0,P|397:148|386:189,1,90,4|0,0:1|0:0,0:0:0:0:
347,256,118818,2,0,L|286:252,1,45,4|0,0:1|0:0,0:0:0:0:
103,246,119011,21,6,1:2:0:0:
143,226,119108,1,0,3:2:0:0:
187,226,119205,1,2,3:3:0:0:
228,246,119301,1,0,3:2:0:0:
256,282,119398,1,8,3:2:0:0:
284,317,119495,1,0,3:2:0:0:
325,337,119592,1,2,3:3:0:0:
369,337,119689,1,0,3:2:0:0:
409,318,119785,1,6,1:2:0:0:
432,278,120366,21,0,1:0:0:0:
358,191,120559,2,0,L|366:123,1,67.5000025749208,2|0,1:0|0:0,0:0:0:0:
262,236,120947,2,0,L|219:238,3,33.7500012874604,2|0|0|0,1:0|0:0|0:0|0:0,0:0:0:0:
156,294,121334,21,2,1:2:0:0:
140,264,121430,1,0,0:0:0:0:
136,231,121527,1,0,0:0:0:0:
144,198,121624,1,0,0:0:0:0:
164,171,121721,2,0,L|197:169,3,33.7500012874604,2|0|0|0,0:0|0:0|1:0|0:0,0:0:0:0:
302,119,122108,2,0,L|286:148,3,33.7500012874604,2|0|0|0,1:0|1:0|1:0|1:0,0:0:0:0:
280,264,122495,2,0,L|261:235,3,33.7500012874604,2|0|0|0,1:0|1:0|1:0|1:0,0:0:0:0:
197,169,122882,22,0,L|164:171,1,33.7500012874604,2|0,1:0|0:0,0:0:0:0:
99,120,123076,2,0,B|130:91|130:91|222:87,1,135.000005149842,0|0,0:0|1:0,0:0:0:0:
378,218,123656,1,2,1:0:0:0:
378,218,123753,1,0,0:0:0:0:
378,218,123850,1,0,0:0:0:0:
317,34,124043,1,2,1:0:0:0:
305,19,124430,22,0,P|296:62|304:128,1,101.250003862381,2|0,1:0|1:0,0:0:0:0:
378,218,124818,2,0,P|331:205|291:206,1,67.5000025749208,2|0,1:0|1:0,0:0:0:0:
106,310,125205,2,0,L|115:265,3,33.7500012874604,2|0|2|0,0:0|0:0|0:3|0:0,0:0:0:0:
198,212,125592,2,0,L|189:173,1,33.7500012874604,8|0,0:0|0:0,0:0:0:0:
277,116,125785,2,0,L|243:94,1,33.7500012874604,8|8,0:0|0:0,0:0:0:0:
112,124,125979,21,6,1:2:0:0:
423,57,126172,1,6,1:2:0:0:
390,35,126753,22,0,B|383:81|383:81|399:129|399:129|392:187,1,157.5,0|0,3:0|1:0,2:0:0:0:
380,268,127527,21,6,1:2:0:0:
150,29,127721,1,6,1:2:0:0:
130,59,128108,22,0,L|178:63,1,45
265,120,128301,22,0,B|280:205|227:183|245:271,1,157.5,0|0,3:0|1:0,2:0:0:0:
273,346,129076,21,12,1:2:0:0:
141,162,129269,1,10,3:3:0:0:
386,248,129463,21,12,1:3:0:0:
166,299,129656,1,10,3:3:0:0:
362,99,129850,21,12,1:1:0:0:
455,361,130043,1,10,3:3:0:0:
455,361,130140,1,0,0:0:0:0:
455,361,130237,1,12,1:3:0:0:
227,225,130430,1,10,3:3:0:0:
460,94,130624,21,12,1:2:0:0:
452,138,130721,1,0,0:0:0:0:
426,174,130818,1,10,3:3:0:0:
387,195,130914,1,0,0:0:0:0:
343,197,131011,1,12,1:3:0:0:
302,180,131108,1,0,0:0:0:0:
273,146,131205,2,0,P|265:125|263:93,1,45,10|0,3:3|0:0,0:0:0:0:
362,99,131398,21,12,1:1:0:0:
372,142,131495,1,8,3:2:0:0:
384,185,131592,2,0,L|399:242,1,45,10|8,3:3|3:2,0:0:0:0:
228,57,131785,21,12,1:1:0:0:
218,100,131882,1,8,3:2:0:0:
206,143,131979,2,0,L|191:200,1,45,14|8,3:1|3:2,0:0:0:0:
298,327,132172,22,0,P|260:296|176:291,2,135,6|0|0,3:2|3:0|3:2,0:0:0:0:
429,268,132947,2,0,P|445:225|441:180,1,90,4|0,3:2|3:2,0:0:0:0:
369,112,133237,1,0,3:2:0:0:
344,119,133334,2,0,P|339:142|337:163,1,45,4|0,3:1|3:2,0:0:0:0:
502,382,133527,2,0,P|473:372|439:367,1,45,0|0,3:2|3:2,0:0:0:0:
216,383,133721,6,0,B|241:343|241:343|254:239,1,148.50000453186,6|0,1:2|0:0,0:0:0:0:
266,162,134108,1,8,0:0:0:0:
363,363,134301,1,2,0:3:0:0:
363,363,134398,1,0,0:0:0:0:
363,363,134495,1,6,1:1:0:0:
134,227,134689,1,2,0:3:0:0:
383,108,134882,2,0,B|395:156|395:156|389:208,1,99.0000030212403,8|2,0:0|0:3,0:0:0:0:
124,343,135269,22,0,B|157:311|157:311|262:306,1,148.50000453186,6|0,1:2|0:0,0:0:0:0:
337,302,135656,1,8,0:0:0:0:
253,66,135850,1,2,0:3:0:0:
174,228,136043,2,0,L|239:223,1,49.5000015106202,6|0,1:1|0:0,0:0:0:0:
383,108,136237,2,0,L|433:112,1,49.5000015106202,2|0,0:3|0:0,0:0:0:0:
192,7,136430,1,12,0:1:0:0:
359,207,136624,1,10,0:3:0:0:
97,276,136818,22,0,B|85:230|85:230|92:179,1,99.0000030212403,6|2,1:2|0:3,0:0:0:0:
340,34,137205,1,8,0:0:0:0:
342,78,137301,1,0,0:0:0:0:
324,119,137398,1,2,0:3:0:0:
291,148,137495,1,0,0:0:0:0:
248,159,137592,1,6,1:1:0:0:
75,60,137785,1,2,0:3:0:0:
75,60,137882,1,0,0:0:0:0:
75,60,137979,2,0,B|122:49|122:49|173:55,1,99.0000030212403,8|2,0:0|0:3,0:0:0:0:
253,66,138269,1,0,0:0:0:0:
253,66,138366,21,6,1:2:0:0:
337,302,138559,1,2,0:3:0:0:
337,302,138656,1,0,0:0:0:0:
337,302,138753,2,0,B|350:256|350:256|343:206,1,99.0000030212403,8|2,0:3|0:3,0:0:0:0:
133,147,139140,1,6,1:1:0:0:
137,191,139237,1,0,0:0:0:0:
161,228,139334,1,2,0:3:0:0:
199,251,139430,1,0,0:0:0:0:
244,253,139527,1,12,0:1:0:0:
449,122,139721,21,10,0:3:0:0:
449,122,139818,1,0,0:0:0:0:
449,122,139914,2,0,B|440:220|440:220|402:257,1,148.50000453186,6|0,1:2|0:0,0:0:0:0:
337,302,140301,1,8,0:0:0:0:
133,147,140495,1,2,0:3:0:0:
342,31,140689,22,0,L|334:130,1,99.0000030212403,6|2,1:1|0:3,0:0:0:0:
326,211,140979,1,0,0:0:0:0:
326,211,141076,1,8,0:0:0:0:
193,33,141269,1,2,0:3:0:0:
449,122,141463,21,6,1:2:0:0:
207,174,141656,1,2,0:3:0:0:
207,174,141753,1,0,0:0:0:0:
207,174,141850,2,0,L|197:274,1,99.0000030212403,12|2,1:1|0:3,0:0:0:0:
386,359,142237,1,6,1:1:0:0:
386,359,142334,1,0,0:0:0:0:
386,359,142430,1,2,0:3:0:0:
106,283,142624,1,8,0:0:0:0:
331,114,142818,21,2,0:3:0:0:
331,114,142914,1,0,0:0:0:0:
331,114,143011,2,0,B|339:162|339:162|326:211,1,99.0000030212403,6|0,1:2|0:0,0:0:0:0:
290,286,143301,1,0,0:0:0:0:
290,286,143398,1,8,0:0:0:0:
87,182,143592,1,2,0:3:0:0:
219,56,143785,21,6,1:1:0:0:
157,295,143979,1,2,0:3:0:0:
157,295,144076,1,0,0:0:0:0:
157,295,144172,2,0,B|114:315|114:315|63:313,1,99.0000030212403,8|2,0:0|0:3,0:0:0:0:
97,95,144559,21,6,1:2:0:0:
129,133,144656,1,0,0:0:0:0:
172,158,144753,1,2,0:3:0:0:
220,167,144850,1,0,0:0:0:0:
269,158,144947,1,8,0:0:0:0:
311,134,145043,1,0,0:0:0:0:
343,98,145140,1,2,0:3:0:0:
361,51,145237,1,0,0:0:0:0:
348,3,145334,21,6,1:1:0:0:
331,51,145430,1,0,3:0:0:0:
331,103,145527,1,2,3:3:0:0:
349,150,145624,1,0,3:0:0:0:
381,189,145721,1,14,3:1:0:0:
414,229,145818,1,0,3:0:0:0:
432,276,145914,1,14,3:1:0:0:
432,328,146011,1,0,3:0:0:0:
414,376,146108,21,6,1:2:0:0:
157,295,146301,1,2,0:3:0:0:
349,150,146495,1,8,0:0:0:0:
381,189,146592,2,0,B|379:238|379:238|358:285,1,99.0000030212403
315,353,146882,1,6,1:1:0:0:
216,178,147076,1,2,0:3:0:0:
271,64,147269,1,8,0:0:0:0:
92,184,147463,1,2,0:3:0:0:
303,283,147656,22,0,B|319:179|319:179|303:138,1,148.50000453186,6|0,1:2|0:0,0:0:0:0:
271,64,148043,1,8,0:0:0:0:
157,295,148237,1,2,0:3:0:0:
157,295,148334,1,0,0:0:0:0:
157,295,148430,2,0,L|213:288,1,49.5000015106202,6|0,1:1|0:0,0:0:0:0:
388,186,148624,2,0,L|314:170,1,49.5000015106202,2|0,0:3|0:0,0:0:0:0:
175,140,148818,1,12,0:1:0:0:
466,253,149011,21,10,0:3:0:0:
466,253,149108,1,0,0:0:0:0:
466,253,149205,2,0,B|483:212|483:212|480:156,1,99.0000030212403,6|2,1:2|0:3,0:0:0:0:
443,89,149495,1,0,0:0:0:0:
432,76,149592,2,0,L|439:22,1,49.5000015106202,8|0,0:0|0:0,0:0:0:0:
284,160,149785,2,0,L|277:104,1,49.5000015106202,2|0,0:3|0:0,0:0:0:0:
111,68,149979,21,6,1:1:0:0:
111,68,150076,1,0,0:0:0:0:
111,68,150172,2,0,L|116:13,1,49.5000015106202,2|0,0:3|0:0,0:0:0:0:
217,235,150366,1,8,0:0:0:0:
179,258,150463,1,0,0:0:0:0:
135,270,150559,1,2,0:3:0:0:
91,268,150656,1,0,0:0:0:0:
49,252,150753,21,6,1:2:0:0:
210,96,150947,1,2,0:3:0:0:
210,96,151043,1,0,0:0:0:0:
210,96,151140,1,8,0:0:0:0:
276,327,151334,1,2,0:3:0:0:
49,252,151527,1,6,1:1:0:0:
86,228,151624,1,0,0:0:0:0:
130,216,151721,1,2,0:3:0:0:
174,218,151818,1,0,0:0:0:0:
216,234,151914,1,12,3:1:0:0:
381,373,152108,21,10,3:3:0:0:
381,373,152205,1,0,3:0:0:0:
381,373,152301,2,0,P|383:325|390:275,1,99.0000030212403,6|2,1:2|0:3,0:0:0:0:
463,58,152689,1,8,0:0:0:0:
464,209,152882,1,2,0:3:0:0:
464,209,152979,1,0,0:0:0:0:
464,209,153076,2,0,B|420:186|420:186|372:180,1,99.0000030212403,6|2,1:1|0:3,0:0:0:0:
138,294,153463,1,8,0:0:0:0:
271,81,153656,1,2,0:3:0:0:
381,373,153850,21,6,1:2:0:0:
56,348,154043,1,2,0:3:0:0:
56,348,154140,1,0,0:0:0:0:
56,348,154237,2,0,B|43:301|43:301|49:250,1,99.0000030212403,8|2,0:0|0:3,0:0:0:0:
293,125,154624,1,6,1:1:0:0:
262,157,154721,1,0,0:0:0:0:
221,172,154818,1,2,0:3:0:0:
176,165,154914,1,0,0:0:0:0:
142,137,155011,1,8,0:0:0:0:
366,9,155205,21,10,0:3:0:0:
366,9,155301,1,0,0:0:0:0:
366,9,155398,1,6,1:2:0:0:
420,351,155592,1,2,0:3:0:0:
90,227,155785,1,8,0:0:0:0:
90,227,155882,1,0,0:0:0:0:
90,227,155979,2,0,L|142:218,1,49.5000015106202,2|0,0:3|0:0,0:0:0:0:
256,192,156172,1,6,1:1:0:0:
271,81,156947,21,6,1:2:0:0:
350,321,157140,1,2,0:3:0:0:
94,234,157334,1,8,0:0:0:0:
364,128,157527,2,0,P|374:150|378:174,1,49.5000015106202,2|0,0:3|0:0,0:0:0:0:
285,356,157721,21,6,1:1:0:0:
246,326,157818,1,0,0:0:0:0:
226,282,157914,1,2,0:3:0:0:
229,233,158011,1,0,0:0:0:0:
255,192,158108,2,0,L|304:174,3,49.5000015106202,12|0|14|0,3:1|3:0|3:1|3:0,0:0:0:0:
325,264,158495,38,0,P|269:292|186:262,1,135,6|0,1:2|0:0,0:0:0:0:
138,218,158882,1,8,0:0:0:0:
271,81,159076,1,2,0:3:0:0:
271,81,159172,1,0,0:0:0:0:
271,81,159269,2,0,L|315:75,2,45,2|0|0,1:2|0:0|0:0,0:0:0:0:
187,41,159559,2,0,B|179:84|179:84|192:132,1,90,0|0,0:0|0:0,0:0:0:0:
272,175,159850,1,2,0:3:0:0:
72,129,160043,21,2,1:2:0:0:
40,160,160140,1,0,0:0:0:0:
24,202,160237,1,2,0:3:0:0:
27,246,160334,1,0,0:0:0:0:
49,285,160430,1,8,0:0:0:0:
85,311,160527,1,0,0:0:0:0:
129,319,160624,1,2,0:3:0:0:
172,309,160721,22,0,P|206:301|267:307,1,90,2|0,0:2|0:0,0:0:0:0:
351,348,161011,2,0,L|357:302,1,45,2|0,0:3|0:0,0:0:0:0:
481,189,161205,2,0,L|487:234,1,45,8|0,0:0|0:0,0:0:0:0:
264,188,161398,2,0,L|270:142,1,45,10|0,0:3|0:0,0:0:0:0:
479,7,161592,22,0,P|492:48|478:100,1,90,6|2,1:2|0:3,0:0:0:0:
400,138,161882,1,0,0:0:0:0:
380,126,161979,2,0,L|328:117,2,45,8|0|2,0:0|0:0|0:3,0:0:0:0:
481,189,162269,2,0,B|487:235|487:235|474:295,1,90,2|0,0:2|0:0,0:0:0:0:
395,353,162559,2,0,L|347:347,1,45,2|0,0:3|0:0,0:0:0:0:
129,319,162753,2,0,L|173:313,1,45,8|0,0:0|0:0,0:0:0:0:
316,199,162947,2,0,L|268:193,1,45,2|0,0:3|0:0,0:0:0:0:
209,60,163140,21,2,1:2:0:0:
76,257,163334,1,2,0:3:0:0:
60,239,163430,2,0,B|51:195|51:195|57:145,1,90
73,71,163721,2,0,L|124:65,1,45,2|0,0:3|0:0,0:0:0:0:
346,284,163914,22,0,P|290:287|258:268,1,90,2|2,1:2|0:3,0:0:0:0:
206,206,164205,1,0,0:0:0:0:
191,190,164301,2,0,L|197:145,1,45,8|0,0:0|0:0,0:0:0:0:
403,39,164495,2,0,L|409:84,1,45,10|0,0:3|0:0,0:0:0:0:
316,199,164689,22,0,B|313:153|313:153|292:115|292:115|289:66,1,135,6|0,1:2|0:0,0:0:0:0:
329,0,165076,1,8,0:0:0:0:
191,190,165269,1,2,0:3:0:0:
191,190,165366,1,0,0:0:0:0:
191,190,165463,2,0,B|146:178|146:178|93:181,1,90,2|2,1:2|0:3,0:0:0:0:
8,142,165753,2,0,P|-1:188|13:230,1,90,2|0,0:0|0:0,0:0:0:0:
101,280,166043,1,2,0:3:0:0:
141,74,166237,21,2,1:2:0:0:
141,74,166334,1,0,0:0:0:0:
141,74,166430,2,0,L|85:78,1,45,2|0,0:3|0:0,0:0:0:0:
311,137,166624,21,8,0:0:0:0:
311,137,166721,1,0,0:0:0:0:
311,137,166818,2,2,L|367:133,1,45,2|0,0:3|0:0,0:0:0:0:
256,19,167011,22,0,L|253:41,4,22.5,2|0|0|0|2,1:2|0:0|0:0|0:0|0:3,0:0:0:0:
212,144,167301,2,0,B|222:190|222:190|252:224,1,90,2|0,0:0|0:0,0:0:0:0:
354,239,167592,1,2,0:3:0:0:
141,344,167785,21,6,1:2:0:0:
177,328,167882,1,0,0:0:0:0:
217,323,167979,1,2,0:3:0:0:
256,332,168076,1,0,0:0:0:0:
290,352,168172,1,8,0:0:0:0:
327,368,168269,1,0,0:0:0:0:
367,373,168366,1,2,0:3:0:0:
406,364,168463,1,0,0:0:0:0:
440,344,168559,22,0,L|445:300,1,45,2|0,1:2|0:0,0:0:0:0:
354,239,168753,2,0,L|359:195,1,45,2|0,0:3|0:0,0:0:0:0:
476,184,168947,2,0,L|481:140,1,45,8|0,0:0|0:0,0:0:0:0:
339,78,169140,2,0,L|344:34,1,45,2|0,0:3|0:0,0:0:0:0:
512,0,169334,21,6,1:2:0:0:
211,200,169527,1,2,0:3:0:0:
211,200,169624,1,0,0:0:0:0:
211,200,169721,2,0,P|186:199|159:192,3,45,12|0|2|0,0:1|0:0|0:3|0:0,0:0:0:0:
339,78,170108,21,6,1:2:0:0:
369,122,170205,1,0,3:2:0:0:
385,173,170301,1,2,3:3:0:0:
386,227,170398,1,0,3:2:0:0:
371,279,170495,1,8,3:2:0:0:
341,324,170592,1,0,3:2:0:0:
300,358,170689,2,0,L|254:351,1,45,10|0,3:3|3:2,0:0:0:0:
77,176,170882,21,6,1:2:0:0:
56,160,170979,2,0,B|46:204|46:204|54:253,1,90,0|0,0:0|0:0,0:0:0:0:
76,330,171269,2,0,L|122:337,1,45,8|0,0:0|0:0,0:0:0:0:
276,264,171463,1,2,0:3:0:0:
176,89,171656,21,2,1:2:0:0:
158,75,171753,2,0,P|143:126|153:176,2,90
238,24,172237,2,0,L|286:29,1,45,2|0,0:3|0:0,0:0:0:0:
486,157,172430,21,2,1:2:0:0:
382,15,172624,1,0,0:0:0:0:
363,28,172721,2,0,B|344:67|344:67|339:117,1,90,0|0,0:0|0:0,0:0:0:0:
378,198,173011,1,2,0:3:0:0:
245,100,173205,22,0,L|155:93,1,90,2|2,1:2|0:3,0:0:0:0:
73,87,173495,1,0,0:0:0:0:
60,86,173592,1,8,0:0:0:0:
199,277,173785,21,10,0:3:0:0:
199,277,173882,1,0,0:0:0:0:
199,277,173979,2,0,L|196:230,1,45,6|0,1:2|0:0,0:0:0:0:
316,160,174172,2,0,L|319:115,1,45,2|0,0:3|0:0,0:0:0:0:
465,252,174366,1,8,0:0:0:0:
475,268,174463,2,0,B|429:255|429:255|383:255,1,90,0|0,0:0|0:0,0:0:0:0:
307,305,174753,21,2,1:2:0:0:
298,291,174850,1,0,0:0:0:0:
289,277,174947,2,0,L|292:232,1,45,2|2,0:3|0:3,0:0:0:0:
205,79,175140,21,8,0:0:0:0:
214,93,175237,1,0,0:0:0:0:
223,107,175334,2,0,L|220:152,1,45,2|0,0:3|0:0,0:0:0:0:
115,308,175527,21,2,1:2:0:0:
102,320,175624,2,0,B|91:276|91:276|97:229,2,90
179,375,176108,2,0,L|229:372,1,45,2|0,0:3|0:0,0:0:0:0:
413,363,176301,21,2,1:2:0:0:
205,265,176495,1,2,0:3:0:0:
380,118,176689,1,8,3:2:0:0:
400,158,176785,1,0,3:0:0:0:
406,203,176882,1,10,3:3:0:0:
397,246,176979,1,0,3:0:0:0:
373,285,177076,22,0,L|277:275,1,90,6|2,1:2|0:3,0:0:0:0:
205,265,177366,1,0,0:0:0:0:
182,262,177463,2,0,L|187:311,1,45,8|0,0:0|0:0,0:0:0:0:
300,178,177656,2,0,L|304:133,1,45,2|0,0:3|0:0,0:0:0:0:
210,18,177850,21,2,1:2:0:0:
46,181,178043,1,2,0:3:0:0:
60,197,178140,2,0,B|106:200|106:200|151:193,1,90,2|0,0:0|0:0,0:0:0:0:
223,157,178430,1,2,0:3:0:0:
365,58,178624,21,2,1:2:0:0:
344,44,178721,2,0,P|342:97|351:142,1,90,0|0,0:0|0:0,0:0:0:0:
451,260,179011,21,8,0:0:0:0:
473,248,179108,2,0,P|428:219|384:205,1,90,0|0,0:0|0:0,0:0:0:0:
228,235,179398,21,2,1:2:0:0:
232,258,179495,2,0,P|278:233|313:202,2,90,0|0|0,0:0|0:0|0:0,0:0:0:0:
143,306,179979,2,0,L|150:355,1,45,10|8,3:3|3:0,0:0:0:0:
53,259,180172,22,0,B|67:170|67:170|59:125,1,135,6|0,1:2|0:0,0:0:0:0:
43,37,180559,2,0,L|98:46,1,45,8|0,0:0|0:0,0:0:0:0:
178,164,180753,2,0,L|223:157,1,45,2|0,0:3|0:0,0:0:0:0:
422,127,180947,22,0,P|440:94|441:42,1,90,2|2,1:2|0:3,0:0:0:0:
279,64,181237,2,0,P|289:100|325:137,1,90,2|0,0:0|0:0,0:0:0:0:
435,220,181527,2,0,L|441:267,1,45,2|0,0:3|0:0,0:0:0:0:
409,370,181721,21,6,1:2:0:0:
194,299,181914,1,2,0:3:0:0:
198,269,182011,1,0,0:0:0:0:
202,239,182108,1,12,0:1:0:0:
335,381,182301,1,2,0:3:0:0:
30,322,182495,21,6,1:2:0:0:
30,322,182592,1,0,3:2:0:0:
30,322,182689,2,0,L|25:273,1,45,2|0,3:3|3:2,0:0:0:0:
122,161,182882,21,12,3:2:0:0:
122,161,182979,1,0,3:2:0:0:
122,161,183076,2,0,L|127:112,1,45,10|0,3:3|3:2,0:0:0:0:
22,10,183269,21,6,1:2:0:0:
309,71,183656,1,0,0:0:0:0:
309,71,183850,1,0,0:0:0:0:
309,71,184043,2,0,L|318:205,1,135.000005149842,2|0,0:0|0:0,0:0:0:0:
449,330,184818,22,0,P|397:287|331:287,1,135.000005149842,2|0,0:0|0:0,0:0:0:0:
257,336,185398,1,0,0:0:0:0:
94,253,185592,1,2,0:0:0:0:
94,253,185689,1,0,0:0:0:0:
94,253,185785,2,0,L|96:286,1,33.7500012874604
172,332,185979,1,2,0:0:0:0:
172,332,186076,1,0,0:0:0:0:
172,332,186172,2,0,L|169:365,1,33.7500012874604
329,247,186366,21,2,0:0:0:0:
150,139,186753,1,0,0:0:0:0:
150,139,186947,1,0,0:0:0:0:
150,139,187140,2,0,P|163:223|214:252,1,135.000005149842,2|0,0:0|0:0,0:0:0:0:
432,104,187914,22,0,L|327:90,1,101.250003862381,2|0,0:0|0:0,0:0:0:0:
281,143,188301,2,0,P|292:176|293:209,1,67.5000025749208
226,95,188689,1,2,0:0:0:0:
96,230,189076,2,0,P|94:263|102:296,1,67.5000025749208,2|0,0:0|0:0,0:0:0:0:
151,356,189463,21,14,1:2:0:0:
376,251,189656,1,10,3:3:0:0:
376,251,189753,1,0,1:0:0:0:
376,251,189850,1,12,1:3:0:0:
179,182,190043,1,10,3:3:0:0:
179,182,190139,1,0,3:2:0:0:
179,182,190237,2,0,L|175:137,1,45,6|0,1:3|0:0,0:0:0:0:
286,260,190430,2,0,L|282:304,1,45,10|0,3:3|3:2,0:0:0:0:
402,178,190623,1,12,1:3:0:0:
259,31,190818,21,10,3:3:0:0:
259,31,190914,1,0,3:2:0:0:
259,31,191011,2,0,L|177:37,1,45,6|0,1:3|0:0,0:0:0:0:
127,161,191205,2,0,L|171:157,1,45,10|0,3:3|3:2,0:0:0:0:
286,260,191398,1,12,1:3:0:0:
120,333,191592,21,10,3:3:0:0:
120,333,191689,1,0,0:0:0:0:
120,333,191785,2,0,P|113:289|129:242,1,90,14|10,1:3|3:3,0:0:0:0:
198,194,192076,1,0,0:0:0:0:
211,210,192173,2,0,L|216:258,1,45,12|0,1:3|0:0,0:0:0:0:
295,295,192366,2,0,L|299:339,1,45,10|0,3:3|0:0,0:0:0:0:
404,364,192560,21,12,1:2:0:0:
157,309,192753,1,10,3:3:0:0:
443,231,192947,21,12,1:3:0:0:
198,377,193140,1,10,3:3:0:0:
441,329,193334,21,12,1:1:0:0:
170,231,193527,1,10,3:3:0:0:
170,231,193624,1,0,0:0:0:0:
170,231,193721,1,12,1:3:0:0:
395,106,193914,1,10,3:3:0:0:
304,302,194108,21,4,1:2:0:0:
304,302,194205,1,0,0:0:0:0:
304,302,194301,2,0,L|301:257,1,45,8|0,3:3|0:0,0:0:0:0:
203,154,194495,1,12,1:3:0:0:
203,154,194592,1,0,0:0:0:0:
203,154,194688,2,0,L|207:109,1,45,10|0,3:3|0:0,0:0:0:0:
56,74,194882,21,12,1:0:0:0:
53,118,194978,1,8,3:0:0:0:
65,161,195075,1,10,3:0:0:0:
91,197,195172,1,8,3:0:0:0:
128,223,195269,1,12,1:0:0:0:
172,234,195365,1,8,3:0:0:0:
216,230,195462,1,10,3:0:0:0:
257,211,195559,1,8,3:0:0:0:
289,179,195656,22,0,L|202:154,1,90,6|0,3:2|3:2,0:0:0:0:
120,105,195947,1,0,0:0:0:0:
138,92,196043,2,0,L|224:67,1,90,0|0,3:2|3:2,0:0:0:0:
388,37,196334,1,0,0:0:0:0:
369,25,196431,2,0,L|321:21,1,45,0|0,3:2|3:2,0:0:0:0:
158,158,196624,2,0,L|206:154,1,45,0|0,3:2|3:2,0:0:0:0:
413,230,196818,2,0,L|365:226,1,45,0|0,3:2|3:2,0:0:0:0:
119,303,197011,2,0,L|167:299,1,45,0|0,3:2|3:2,0:0:0:0:
391,373,197205,21,6,1:2:0:0:
151,260,203398,22,0,L|162:360,1,101.250003862381,6|0,1:2|0:0,0:0:0:0:
331,240,203979,1,0,0:0:0:0:
198,83,204172,22,0,L|187:183,1,101.250003862381,6|0,1:1|0:0,0:0:0:0:
392,83,204753,1,0,0:0:0:0:
236,248,204947,22,0,L|254:312,1,67.5000025749208,6|0,1:2|0:0,0:0:0:0:
349,229,205334,2,0,L|367:164,1,67.5000025749208,6|0,1:1|0:0,0:0:0:0:
426,343,205721,1,6,1:2:0:0:
426,343,205818,1,0,0:0:0:0:
426,343,205914,1,0,0:0:0:0:
251,263,206108,21,0,1:0:0:0:
251,263,206205,1,0,1:0:0:0:
251,263,206301,1,0,1:0:0:0:
251,263,206398,1,0,1:0:0:0:
251,263,206495,2,0,L|186:284,1,67.5000025749208,6|0,1:2|0:0,0:0:0:0:
67,177,207076,21,0,1:0:0:0:
67,177,207173,1,0,1:0:0:0:
67,177,207270,2,0,L|131:198,1,67.5000025749208,6|0,1:1|0:0,0:0:0:0:
226,97,207850,21,0,1:0:0:0:
226,97,207947,1,0,1:0:0:0:
226,97,208043,2,0,L|243:55,1,45,6|0,1:2|1:0,0:0:0:0:
280,230,208237,1,2,0:3:0:0:
280,230,208334,1,0,1:0:0:0:
280,230,208430,2,0,L|297:188,1,45,8|0,1:2|1:0,0:0:0:0:
437,148,208624,2,0,L|420:190,1,45,2|0,1:3|1:0,0:0:0:0:
337,347,208818,5,6,1:1:0:0:
301,317,208914,1,0,3:0:0:0:
258,300,209011,1,2,3:3:0:0:
214,300,209108,1,0,3:0:0:0:
170,314,209205,1,14,3:1:0:0:
127,329,209302,1,0,3:0:0:0:
83,329,209398,1,14,3:1:0:0:
40,313,209495,1,0,3:0:0:0:
5,283,209592,21,6,1:2:0:0:
248,192,209785,1,2,0:3:0:0:
104,360,209979,1,12,0:3:0:0:
83,329,210076,2,0,B|75:280|75:280|94:234,1,99.0000030212403
145,173,210366,1,6,1:1:0:0:
248,372,210560,1,2,0:3:0:0:
354,101,210753,1,12,0:3:0:0:
419,331,210947,21,2,0:3:0:0:
419,331,211043,1,0,0:0:0:0:
419,331,211140,2,0,P|381:299|334:286,1,99.0000030212403,6|2,1:2|0:3,0:0:0:0:
256,23,211527,2,0,P|248:72|261:120,1,99.0000030212403,12|2,0:3|0:3,0:0:0:0:
71,319,211914,2,0,P|118:301|152:267,1,99.0000030212403,6|2,1:1|0:3,0:0:0:0:
166,174,212205,1,0,0:0:0:0:
166,174,212302,1,12,0:1:0:0:
389,368,212495,21,10,0:3:0:0:
393,372,212592,1,0,0:0:0:0:
397,376,212689,2,0,L|406:277,1,99.0000030212403,6|2,1:2|0:3,0:0:0:0:
381,186,212979,1,0,0:0:0:0:
358,196,213076,2,0,L|308:198,1,49.5000015106202,12|0,0:3|0:0,0:0:0:0:
222,320,213269,2,0,L|172:317,1,49.5000015106202,2|0,0:3|0:0,0:0:0:0:
84,191,213463,21,6,1:1:0:0:
314,70,213656,1,2,0:3:0:0:
351,100,213752,1,0,0:0:0:0:
358,148,213849,1,12,0:3:0:0:
332,188,213946,1,0,0:0:0:0:
285,202,214043,2,0,P|260:199|238:190,1,49.5000015106202,2|0,0:3|0:0,0:0:0:0:
89,71,214237,21,6,1:2:0:0:
89,71,214431,2,0,L|81:119,1,49.5000015106202,2|0,0:3|0:0,0:0:0:0:
165,277,214624,1,12,0:3:0:0:
165,277,214818,2,0,L|172:325,1,49.5000015106202,2|0,0:3|0:0,0:0:0:0:
332,188,215011,1,6,1:1:0:0:
304,146,215108,1,0,0:0:0:0:
259,124,215205,1,2,0:3:0:0:
209,123,215302,1,0,0:0:0:0:
166,147,215398,1,12,3:1:0:0:
129,180,215495,1,0,3:0:0:0:
81,192,215592,1,10,3:3:0:0:
36,169,215689,1,0,3:0:0:0:
9,127,215785,22,0,L|70:48,1,99.0000030212403,6|2,1:2|0:3,0:0:0:0:
125,323,216172,1,12,0:3:0:0:
259,176,216365,1,2,0:3:0:0:
259,176,216462,1,0,0:0:0:0:
259,176,216559,2,0,B|215:153|215:153|167:147,1,99.0000030212403,6|2,1:1|0:3,0:0:0:0:
236,327,216946,1,12,0:3:0:0:
277,69,217139,1,2,0:3:0:0:
55,186,217334,21,6,1:2:0:0:
441,227,217527,1,2,0:3:0:0:
441,227,217624,1,0,0:0:0:0:
441,227,217721,2,0,L|435:177,1,49.5000015106202,12|0,0:3|0:0,0:0:0:0:
236,327,217914,2,0,L|243:385,1,49.5000015106202,2|0,0:3|0:0,0:0:0:0:
477,294,218108,1,6,1:1:0:0:
166,344,218302,1,2,0:3:0:0:
166,344,218398,1,0,0:0:0:0:
166,344,218495,1,12,0:3:0:0:
457,371,218689,21,10,0:3:0:0:
457,371,218785,1,0,0:0:0:0:
457,371,218882,1,6,1:2:0:0:
291,3,219076,1,2,0:3:0:0:
111,306,219269,1,12,0:3:0:0:
111,306,219366,1,0,0:0:0:0:
111,306,219463,2,0,L|168:289,1,49.5000015106202,2|0,0:3|0:0,0:0:0:0:
256,192,219656,1,6,1:1:0:0:
231,96,220430,21,6,1:2:0:0:
177,329,220623,1,2,0:3:0:0:
397,233,220817,1,12,0:3:0:0:
121,148,221011,2,0,L|123:200,1,49.5000015106202,2|0,0:3|0:0,0:0:0:0:
250,376,221204,21,6,1:1:0:0:
289,346,221301,1,0,0:0:0:0:
308,302,221398,2,0,P|304:278|297:255,1,49.5000015106202,2|0,0:3|0:0,0:0:0:0:
199,153,221592,21,12,3:1:0:0:
241,179,221689,1,0,3:0:0:0:
289,183,221785,1,14,3:1:0:0:
336,167,221882,1,0,3:0:0:0:
376,138,221979,22,0,B|381:43|381:43|351:-1,1,148.50000453186,6|0,1:2|0:0,0:0:0:0:
275,31,222366,1,8,0:0:0:0:
469,179,222559,2,0,L|465:129,1,49.5000015106202,2|0,0:3|0:0,0:0:0:0:
362,287,222753,1,2,1:2:0:0:
362,287,222850,1,0,0:0:0:0:
362,287,222947,2,0,L|365:237,1,49.5000015106202,2|0,0:3|0:0,0:0:0:0:
470,376,223140,1,8,0:0:0:0:
182,300,223334,21,2,0:3:0:0:
182,300,223431,1,0,0:0:0:0:
182,300,223527,2,0,L|275:268,1,99.0000030212403,2|2,1:2|0:3,0:0:0:0:
362,287,223818,1,0,0:0:0:0:
362,287,223914,1,8,0:0:0:0:
204,77,224108,1,2,0:3:0:0:
178,118,224204,1,0,0:0:0:0:
185,166,224301,1,2,1:2:0:0:
222,197,224398,1,0,0:0:0:0:
271,197,224495,1,2,0:3:0:0:
308,166,224591,1,0,0:0:0:0:
315,118,224688,1,8,3:0:0:0:
106,17,224882,21,10,3:0:0:0:
106,17,224979,1,0,3:0:0:0:
106,17,225076,2,0,B|83:56|83:56|88:159,1,148.50000453186,6|0,1:2|0:0,0:0:0:0:
119,250,225463,1,8,0:0:0:0:
320,150,225656,1,2,0:3:0:0:
324,154,225753,1,0,0:0:0:0:
328,158,225850,2,0,L|230:143,1,99.0000030212403,2|2,1:2|0:3,0:0:0:0:
317,343,226237,1,8,0:0:0:0:
429,116,226430,21,2,0:3:0:0:
429,116,226527,1,0,0:0:0:0:
429,116,226624,2,0,B|447:165|447:165|434:260,1,148.50000453186,2|0,1:2|0:0,0:0:0:0:
395,346,227011,1,8,0:0:0:0:
206,232,227205,1,2,0:3:0:0:
206,232,227301,1,0,0:0:0:0:
206,232,227398,2,0,L|216:183,1,49.5000015106202,2|0,1:2|0:0,0:0:0:0:
348,140,227592,2,0,L|337:188,1,49.5000015106202,2|0,0:3|0:0,0:0:0:0:
248,351,227785,21,8,3:0:0:0:
200,364,227882,1,0,3:0:0:0:
151,352,227979,1,10,3:3:0:0:
113,319,228076,1,0,3:0:0:0:
95,271,228172,38,0,B|95:227|95:227|154:141,1,148.50000453186,6|0,1:2|0:0,0:0:0:0:
238,97,228559,1,8,0:0:0:0:
307,315,228753,1,2,0:3:0:0:
307,315,228850,1,0,0:0:0:0:
307,315,228947,1,2,1:2:0:0:
84,203,229140,1,2,0:3:0:0:
84,203,229237,1,0,0:0:0:0:
84,203,229334,1,8,0:0:0:0:
309,25,229527,21,2,0:3:0:0:
309,25,229624,1,0,0:0:0:0:
309,25,229721,2,0,B|341:113|341:113|325:165,1,148.50000453186,6|0,1:2|0:0,0:0:0:0:
283,249,230108,1,8,0:0:0:0:
433,86,230301,1,2,0:3:0:0:
210,116,230495,2,0,L|160:119,1,49.5000015106202,6|0,1:1|0:0,0:0:0:0:
357,249,230689,2,0,L|406:252,1,49.5000015106202,2|0,0:3|0:0,0:0:0:0:
225,376,230882,1,12,0:1:0:0:
15,148,231076,21,2,0:3:0:0:
15,148,231172,1,0,0:0:0:0:
15,148,231269,2,0,B|40:52|40:52|78:18,1,148.50000453186,6|0,1:2|0:0,0:0:0:0:
166,4,231656,1,8,0:0:0:0:
332,242,231850,1,2,0:3:0:0:
332,242,231947,1,0,0:0:0:0:
332,242,232043,1,6,1:1:0:0:
99,157,232237,1,2,0:3:0:0:
385,115,232430,1,8,0:0:0:0:
101,346,232624,21,2,0:3:0:0:
101,346,232721,1,0,0:0:0:0:
101,346,232818,2,0,P|78:304|77:255,1,99.0000030212403,6|2,1:2|0:3,0:0:0:0:
411,38,233205,2,0,P|435:81|436:130,1,99.0000030212403,12|2,0:1|0:3,0:0:0:0:
306,335,233592,21,6,1:2:0:0:
306,335,233689,1,0,3:0:0:0:
306,335,233785,2,0,L|309:278,1,49.5000015106202,2|0,3:3|3:0,3:0:0:0:
226,192,233979,21,6,3:2:0:0:
226,192,234076,1,0,3:0:0:0:
226,192,234172,2,0,L|229:135,1,49.5000015106202,2|0,3:3|3:0,3:0:0:0:
139,42,234366,21,2,0:0:0:0:
