osu file format v14

[General]
AudioFilename: Shissou Suru Kanashimi no Naka de.mp3
AudioLeadIn: 1500
PreviewTime: 31490
Countdown: 0
SampleSet: Soft
StackLeniency: 0.3
Mode: 0
LetterboxInBreaks: 0
EpilepsyWarning: 1
WidescreenStoryboard: 1

[Editor]
DistanceSpacing: 1
BeatDivisor: 4
GridSize: 4
TimelineZoom: 1

[Metadata]
Title:Shissou Suru Kanashimi no Naka de
TitleUnicode:疾走する悲しみの中で
Artist:senya
ArtistUnicode:senya
Creator:-Mo-
Version:Normal
Source:艦隊これくしょん~艦これ~
Tags:Yuuhei Catharsis 幽閉カタルシス In The Midst Of Dashing Grief Kantai Collection~KanColle~ Collection KanColle 艦隊これくしょん 艦これ Kamase-tora かませ虎 HiZuMi ikuo 連合艦隊、西へ Mayumi Morinaga 森永真由美 Korekushon Combined Fleet C88
BeatmapID:795622
BeatmapSetID:347460

[Difficulty]
HPDrainRate:3.5
CircleSize:3
OverallDifficulty:3.5
ApproachRate:4.5
SliderMultiplier:1
SliderTickRate:1

[Events]
//Background and Video events
0,0,"C88Cover.jpg",0,0
//Break Periods
2,81238,85972
2,192722,197456
//Storyboard Layer 0 (Background)
//Storyboard Layer 1 (Fail)
//Storyboard Layer 2 (Pass)
//Storyboard Layer 3 (Foreground)
Sprite,Foreground,Centre,"SB\Ring.png",344,432 S,1,12910,15232,0.3,0.8 F,0,13297,15232,1,0
Sprite,Foreground,Centre,"SB\Ring.png",228,196 S,1,25297,27619,0.3,0.8 F,0,25684,27619,1,0
Sprite,Foreground,Centre,"SB\Ring.png",266,152 S,1,37684,40006,0.3,0.8 F,0,38071,40006,1,0
Sprite,Foreground,Centre,"SB\Ring.png",397,292 S,1,51619,53942,0.3,0.8 F,0,52006,53942,1,0
Sprite,Foreground,Centre,"SB\Ring.png",249,350 S,1,68652,70974,0.3,0.8 F,0,69039,70974,1,0
Sprite,Foreground,Centre,"SB\Ring.png",199,350 S,1,93426,95748,0.3,0.8 F,0,93813,95748,1,0
Sprite,Foreground,Centre,"SB\Ring.png",409,311 S,1,105813,108135,0.3,0.8 F,0,106200,108135,1,0
Sprite,Foreground,Centre,"SB\Ring.png",315,278 S,1,118200,120522,0.3,0.8 F,0,118587,120522,1,0
Sprite,Foreground,Centre,"SB\Ring.png",412,392 S,1,132135,134458,0.3,0.8 F,0,132522,134458,1,0
Sprite,Foreground,Centre,"SB\Ring.png",330,148 S,1,149168,151490,0.3,0.8 F,0,149555,151490,1,0
Sprite,Foreground,Centre,"SB\Ring.png",283,371 S,1,163103,165426,0.3,0.8 F,0,163490,165426,1,0
Sprite,Foreground,Centre,"SB\Ring.png",351,374 S,1,180135,182458,0.3,0.8 F,0,180522,182458,1,0
Sprite,Foreground,Centre,"SB\Ring.png",335,420 S,1,206458,208781,0.3,0.8 F,0,206845,208781,1,0
Sprite,Foreground,Centre,"SB\Ring.png",351,190 S,1,223490,225813,0.3,0.8 F,0,223877,225813,1,0
Sprite,Foreground,Centre,"SB\Ring.png",320,127 S,1,226587,228910,0.3,0.8 F,0,226974,228910,1,0
Sprite,Foreground,Centre,"SB\Glow.png",494,250 F,2,6716,7490,1,0
Sprite,Foreground,Centre,"SB\Glow.png",490,254 F,2,8264,9038,1,0
Sprite,Foreground,Centre,"SB\Glow.png",485,257 F,2,9813,10587,1,0
Sprite,Foreground,Centre,"SB\Glow.png",419,76 F,2,10587,11361,1,0
Sprite,Foreground,Centre,"SB\Glow.png",243,141 F,2,11361,12135,1,0
Sprite,Foreground,Centre,"SB\Glow.png",313,212 F,2,11748,12522,1,0
Sprite,Foreground,Centre,"SB\Glow.png",243,283 F,2,12135,12909,1,0
Sprite,Foreground,Centre,"SB\Glow.png",258,381 F,2,12522,13297,1,0
Sprite,Foreground,Centre,"SB\Glow.png",314,173 F,2,31490,32264,1,0
Sprite,Foreground,Centre,"SB\Glow.png",221,136 F,2,33039,33813,1,0
Sprite,Foreground,Centre,"SB\Glow.png",300,330 F,2,34587,35361,1,0
Sprite,Foreground,Centre,"SB\Glow.png",219,147 F,2,35361,36135,1,0
Sprite,Foreground,Centre,"SB\Glow.png",417,168 F,2,36135,36909,1,0
Sprite,Foreground,Centre,"SB\Glow.png",511,189 F,2,36522,37297,1,0
Sprite,Foreground,Centre,"SB\Glow.png",417,168 F,2,36910,37684,1,0
Sprite,Foreground,Centre,"SB\Glow.png",303,292 F,2,43877,44652,1,0
Sprite,Foreground,Centre,"SB\Glow.png",293,236 F,2,50071,50845,1,0
Sprite,Foreground,Centre,"SB\Glow.png",312,138 F,2,50458,51232,1,0
Sprite,Foreground,Centre,"SB\Glow.png",293,236 F,2,50845,51619,1,0
Sprite,Foreground,Centre,"SB\Glow.png",346,292 F,2,56264,57038,1,0
Sprite,Foreground,Centre,"SB\Glow.png",313,333 F,2,62458,63232,1,0
Sprite,Foreground,Centre,"SB\Glow.png",422,374 F,2,67103,67877,1,0
Sprite,Foreground,Centre,"SB\Glow.png",502,417 F,2,67490,68264,1,0
Sprite,Foreground,Centre,"SB\Glow.png",0,0 S,0,67877,,1 M,0,67877,68264,422,374,329,411 S,2,68071,68652,1,3 M,0,68264,68652,329,411,249,350
Sprite,Foreground,Centre,"SB\Glow.png",419,322 F,2,87232,88006,1,0
Sprite,Foreground,Centre,"SB\Glow.png",149,181 F,2,112006,112780,1,0
Sprite,Foreground,Centre,"SB\Glow.png",307,147 F,2,113555,114329,1,0
Sprite,Foreground,Centre,"SB\Glow.png",417,277 F,2,115103,115877,1,0
Sprite,Foreground,Centre,"SB\Glow.png",298,116 F,2,115877,116651,1,0
Sprite,Foreground,Centre,"SB\Glow.png",217,298 F,2,116652,117426,1,0
Sprite,Foreground,Centre,"SB\Glow.png",159,375 F,2,117039,117813,1,0
Sprite,Foreground,Centre,"SB\Glow.png",217,298 F,2,117426,118200,1,0
Sprite,Foreground,Centre,"SB\Glow.png",375,272 F,2,124393,125167,1,0
Sprite,Foreground,Centre,"SB\Glow.png",552,318 F,2,130587,131361,1,0
Sprite,Foreground,Centre,"SB\Glow.png",525,224 F,2,130974,131748,1,0
Sprite,Foreground,Centre,"SB\Glow.png",552,318 F,2,131361,132135,1,0
Sprite,Foreground,Centre,"SB\Glow.png",317,352 F,2,136781,137555,1,0
Sprite,Foreground,Centre,"SB\Glow.png",269,243 F,2,142974,143748,1,0
Sprite,Foreground,Centre,"SB\Glow.png",0,0 M,0,147619,147716,250,343,229,329 M,0,147716,147813,229,329,210,312 M,0,147813,147910,210,312,193,294 M,0,147910,148006,193,294,178,275 M,0,148006,148103,178,275,202,267 M,0,148103,148200,202,267,224,256 M,0,148200,148297,224,256,243,239 M,0,148297,148393,243,239,255,217 M,0,148393,148490,255,217,241,196 M,0,148490,148587,241,196,232,173 M,0,148587,148684,232,173,229,148 M,0,148684,148781,229,148,233,124 M,0,148781,149168,233,124,330,148 S,2,148877,149168,1,3
Sprite,Foreground,Centre,"SB\Glow.png",421,351 F,2,161555,162329,1,0
Sprite,Foreground,Centre,"SB\Glow.png",404,258 F,2,161942,162716,1,0
Sprite,Foreground,Centre,"SB\Glow.png",421,351 F,2,162329,163103,1,0
Sprite,Foreground,Centre,"SB\Glow.png",266,293 F,2,186329,187103,1,0
Sprite,Foreground,Centre,"SB\Glow.png",424,332 F,2,187877,188651,1,0
Sprite,Foreground,Centre,"SB\Glow.png",338,93 F,2,189426,190200,1,0
Sprite,Foreground,Centre,"SB\Glow.png",213,249 F,2,190200,190974,1,0
Sprite,Foreground,Centre,"SB\Glow.png",410,281 F,2,190974,191748,1,0
Sprite,Foreground,Centre,"SB\Glow.png",499,317 F,2,191361,192135,1,0
Sprite,Foreground,Centre,"SB\Glow.png",410,281 F,2,191748,192522,1,0
Sprite,Foreground,Centre,"SB\Glow.png",156,330 F,2,204910,205684,1,0
Sprite,Foreground,Centre,"SB\Glow.png",67,293 F,2,205297,206071,1,0
Sprite,Foreground,Centre,"SB\Glow.png",156,330 F,2,205684,206458,1,0
Sprite,Foreground,Centre,"SB\Glow.png",359,195 F,2,217297,218071,1,0
Sprite,Foreground,Centre,"SB\Glow.png",426,124 F,2,223103,223877,1,0
//Storyboard Sound Samples

[TimingPoints]
523,387.096774193548,4,2,2,40,1,0
6716,-100,4,2,1,80,0,0
12910,-100,4,2,2,90,0,0
13006,-100,4,2,1,90,0,0
25297,-100,4,3,2,90,0,0
25393,-100,4,3,1,80,0,0
31490,-100,4,2,1,90,0,0
37297,-100,4,2,1,60,0,0
37684,-100,4,2,2,100,0,1
37781,-100,4,2,1,100,0,1
50071,-100,4,2,1,80,0,0
51619,-100,4,2,2,100,0,1
51716,-100,4,2,1,100,0,1
67103,-100,4,2,1,90,0,0
68652,-100,4,2,2,90,0,0
68748,-100,4,2,1,90,0,0
81039,-100,4,2,1,60,0,0
87232,-100,4,2,1,80,0,0
93426,-100,4,2,2,90,0,0
93522,-100,4,2,1,90,0,0
105813,-100,4,3,2,90,0,0
105910,-100,4,3,1,80,0,0
112006,-100,4,2,1,90,0,0
117813,-100,4,2,1,60,0,0
118200,-100,4,2,2,100,0,1
118297,-100,4,2,1,100,0,1
130587,-100,4,2,1,90,0,0
132135,-100,4,2,2,100,0,1
132232,-100,4,2,1,100,0,1
147619,-100,4,2,1,100,0,0
147716,-100,4,2,2,100,0,0
149168,-100,4,2,2,90,0,0
149264,-100,4,2,1,90,0,0
160587,-100,4,2,2,90,0,0
160684,-100,4,2,1,90,0,0
161555,-100,4,2,1,80,0,0
163103,-100,4,2,2,90,0,0
163200,-100,4,2,1,90,0,0
178974,-100,4,2,2,90,0,0
180135,-100,4,3,2,90,0,0
180232,-100,4,3,1,80,0,0
186329,-100,4,2,1,90,0,0
192135,-100,4,2,1,60,0,0
198716,-100,4,2,2,40,0,0
204910,-100,4,2,1,90,0,0
206458,-100,4,2,2,100,0,1
206555,-100,4,2,1,100,0,1
221942,-100,4,2,2,100,0,0
223490,-100,4,2,2,100,0,1
223587,-100,4,2,1,90,0,0
226587,-100,4,2,2,90,0,0
226781,-100,4,2,2,60,0,0
228135,-100,4,2,2,90,0,0
230458,-100,4,2,1,30,0,0

[Colours]
Combo1 : 223,72,0
Combo2 : 0,74,158
Combo3 : 185,0,0
Combo4 : 0,128,191

[HitObjects]
259,58,523,6,0,B|281:50|299:28|299:28|327:32|344:47,1,100,2|0,0:0|0:0,0:0:0:0:
403,128,1297,2,0,B|390:150|370:158|370:158|345:143|315:148,1,100
248,219,2071,2,0,B|251:246|236:273|236:273|244:298|239:316,2,100,2|0|0,0:0|0:0|0:0,0:0:0:0:
198,132,3232,1,0,0:0:0:0:
97,131,3619,6,0,B|59:149|52:189|52:189|107:240|95:298,2,200,2|0|2,0:0|0:0|0:0,0:0:0:0:
191,95,5555,1,0,0:0:0:0:
254,172,5942,2,0,B|267:193|290:203|290:203|308:178|336:175,1,100
430,194,6716,5,6,0:0:0:0:
426,198,8264,1,6,0:0:0:0:
421,201,9813,6,0,P|387:166|371:119,1,100,6|0,0:0|0:0,0:0:0:0:
355,20,10587,2,0,B|327:22|308:40|308:40|287:27|259:30,1,100,6|0,0:0|0:0,0:0:0:0:
179,85,11361,1,6,0:0:0:0:
249,156,11748,1,6,0:0:0:0:
179,227,12135,2,0,P|178:277|194:325,1,100,6|6,0:0|0:0,0:0:0:0:
280,376,12910,6,0,B|288:351|288:351|325:329|357:331,1,100,6|8,0:0|0:0,0:0:0:0:
455,354,13684,2,0,B|465:323|452:298|452:298|463:274|458:257,1,100,0|8,0:0|0:0,0:0:0:0:
436,212,14264,1,0,0:0:0:0:
458,167,14458,2,0,B|479:141|479:141|462:105|472:75,2,100,2|8|0,0:0|0:0|0:0,0:0:0:0:
377,226,15619,1,8,0:0:0:0:
327,139,16006,6,0,P|288:107|240:95,1,100,2|8,0:0|0:0,0:0:0:0:
141,113,16781,2,0,B|148:147|174:171|174:171|157:197,1,100,0|8,0:0|0:0,0:0:0:0:
127,238,17361,1,0,0:0:0:0:
141,286,17555,2,0,B|159:316|159:316|189:325|223:313,2,100,2|8|0,0:0|0:0|0:0,0:0:0:0:
158,187,18716,1,8,0:0:0:0:
122,93,19103,6,0,B|103:72|103:72|66:59|32:71,2,100,2|8|0,0:0|0:0|0:0,0:0:0:0:
183,171,20264,1,8,0:0:0:0:
247,248,20652,2,0,P|291:269|341:267,1,100,2|8,0:0|0:0,0:0:0:0:
405,189,21426,2,0,P|360:168|311:170,1,100,0|8,0:0|0:0,0:0:0:0:
222,216,22200,6,0,B|168:223|140:176|140:176|155:122|121:78,1,200,2|0,0:0|0:0,0:0:0:0:
27,48,23361,1,8,0:0:0:0:
45,147,23748,2,0,B|42:202|3:235|3:235|12:291|67:302,1,200,2|0,0:0|0:0,0:0:0:0:
144,238,24910,1,8,0:0:0:0:
164,140,25297,6,0,B|167:102|148:76|148:76|165:48,2,100,6|8|2,0:2|0:2|0:0,0:0:0:0:
144,238,26458,1,8,0:2:0:0:
231,287,26845,2,0,B|234:325|215:351|215:351|232:378,2,100,2|8|2,0:2|0:2|0:0,0:0:0:0:
217,188,28006,1,8,0:2:0:0:
268,102,28393,6,0,B|295:86|295:86|329:93|350:123,1,100,2|8,0:2|0:2,0:0:0:0:
378,165,28974,1,2,0:0:0:0:
413,200,29168,2,0,P|458:220|507:215,1,100,2|8,0:0|0:2,0:0:0:0:
475,120,29942,2,0,L|507:81,2,50,2|0|8,0:2|0:0|0:2,0:0:0:0:
425,123,30522,1,0,0:0:0:0:
377,107,30716,2,0,B|347:93|347:93|338:59|311:38,1,100,2|8,0:2|0:2,0:0:0:0:
250,117,31490,6,0,B|245:144|245:144|270:171|266:211,2,100,6|8|0,0:0|0:0|0:0,0:0:0:0:
234,17,32652,1,8,0:0:0:0:
157,80,33039,2,0,B|136:95|124:116|124:116|138:138|132:164,1,100,6|8,0:0|0:0,0:0:0:0:
82,251,33813,2,0,B|76:274|76:274|94:303|141:307,1,100,0|8,0:0|0:0,0:0:0:0:
236,274,34587,5,6,0:0:0:0:
155,91,35361,1,6,0:0:0:0:
353,112,36135,2,0,B|380:117|397:137|397:137|419:127|447:133,2,100,6|6|6,0:0|0:0|0:0,0:0:0:0:
270,169,37297,1,2,0:0:0:0:
202,96,37684,6,0,B|157:88|106:115|106:115|137:163|123:211,1,200,6|2,0:0|0:0,0:0:0:0:
67,293,38845,1,8,0:0:0:0:
167,301,39232,2,0,B|202:300|202:300|220:271|255:267,1,100,2|8,0:0|0:0,0:0:0:0:
303,283,39813,1,0,0:0:0:0:
350,266,40006,2,0,P|371:221|366:172,1,100,2|8,0:0|0:0,0:0:0:0:
324,81,40781,6,0,B|297:89|282:111|282:111|259:103|232:112,1,100,2|8,0:0|0:0,0:0:0:0:
163,180,41555,2,0,B|142:197|142:197|106:184|89:149,1,100,2|8,0:0|0:0,0:0:0:0:
100,50,42329,2,0,B|130:50|161:78|161:78|183:56,1,100,2|8,0:0|0:0,0:0:0:0:
228,34,42910,1,0,0:0:0:0:
275,50,43103,2,0,P|289:86|281:145,1,100,2|8,0:0|0:0,0:0:0:0:
239,236,43877,6,0,B|260:188|314:175|314:175|358:211|406:191,1,200,6|2,0:0|0:0,0:0:0:0:
459,105,45039,1,8,0:0:0:0:
506,193,45426,2,0,B|510:230|510:230|492:256|495:289,2,100,2|8|2,0:0|0:0|0:0,0:0:0:0:
459,105,46587,1,8,0:0:0:0:
368,148,46974,6,0,B|315:164|270:148|270:148|255:96|207:66,1,200,2|2,0:0|0:0,0:0:0:0:
113,86,48135,1,8,0:0:0:0:
147,180,48522,2,0,B|129:225|78:248|78:248|95:296|148:313,1,200,2|2,0:0|0:0,0:0:0:0:
243,280,49684,1,8,0:0:0:0:
229,180,50071,6,0,B|226:131|226:131|248:82,2,100,6|6|6,0:0|0:0|0:0,0:0:0:0:
243,280,51232,1,2,0:0:0:0:
333,236,51619,6,0,B|349:218|349:218|321:194|315:152,1,100,6|8,0:0|0:0,0:0:0:0:
325,104,52200,1,0,0:0:0:0:
362,72,52393,2,0,B|396:53|431:64|431:64|445:89,1,100,2|8,0:0|0:0,0:0:0:0:
464,187,53168,6,0,B|447:213|428:220|428:220|408:219|384:198,1,100,2|8,0:0|0:0,0:0:0:0:
321,121,53942,2,0,B|297:111|274:118|274:118|260:95|233:86,1,100,2|8,0:0|0:0,0:0:0:0:
134,87,54716,2,0,B|112:100|112:100|135:134|123:170,1,100,2|8,0:0|0:0,0:0:0:0:
99,215,55297,1,0,0:0:0:0:
107,264,55490,2,0,P|147:291|196:289,1,100,2|8,0:0|0:0,0:0:0:0:
282,236,56264,6,0,B|335:226|377:256|377:256|425:226|421:171,1,200,6|2,0:0|0:0,0:0:0:0:
394,76,57426,1,8,0:0:0:0:
302,116,57813,2,0,B|276:125|276:125|259:94|217:85,1,100,2|8,0:0|0:0,0:0:0:0:
118,93,58587,2,0,B|97:102|97:102|88:145|108:176,1,100,2|8,0:0|0:0,0:0:0:0:
184,241,59361,6,0,B|226:201|274:211|274:211|296:261|350:272,1,200,2|2,0:0|0:0,0:0:0:0:
443,236,60522,1,8,0:0:0:0:
365,173,60910,2,0,B|354:142|354:142|374:111|370:77,2,100,2|8|2,0:0|0:0|0:0,0:0:0:0:
349,271,62071,1,8,0:0:0:0:
249,277,62458,6,0,B|212:253|206:211|206:211|219:198,1,100,6|8,0:0|0:0,0:0:0:0:
256,164,63039,1,0,0:0:0:0:
284,123,63232,2,0,P|277:67|243:27,1,100,2|8,0:0|0:0,0:0:0:0:
186,109,64006,2,0,B|149:116|119:98|119:98|98:119,2,100,2|8|2,0:0|0:0|0:0,0:0:0:0:
277,67,65168,1,8,0:0:0:0:
360,122,65555,6,0,B|390:171|366:217|366:217|311:213|278:258,1,200,2|2,0:0|0:0,0:0:0:0:
265,355,66716,1,8,0:0:0:0:
358,318,67103,6,0,B|408:321|408:321|438:360,2,100,6|6|6,0:0|0:0|0:0,0:0:0:0:
265,355,68264,1,0,0:0:0:0:
185,294,68652,6,0,B|168:262|168:262|191:233|191:233|150:166|183:113,1,200,6|2,0:0|0:0,0:0:0:0:
270,64,69813,1,8,0:0:0:0:
269,165,70200,1,2,0:0:0:0:
367,187,70587,2,0,B|417:181|417:181|452:146,2,100,8|2|8,0:0|0:0|0:0,0:0:0:0:
267,194,71748,6,0,B|216:199|216:199|181:234,1,100,2|8,0:0|0:0,0:0:0:0:
113,307,72522,2,0,B|70:282|70:282|52:235,1,100,2|8,0:0|0:0,0:0:0:0:
61,135,73297,2,0,B|75:82|117:55|117:55|125:103|168:138,1,200,2|2,0:0|0:0,0:0:0:0:
266,120,74458,1,8,0:0:0:0:
346,178,74845,6,0,B|363:229|329:270|329:270|280:242|232:262,1,200,2|2,0:0|0:0,0:0:0:0:
176,344,76006,2,0,B|222:360|222:360|272:354,2,100,8|2|8,0:0|0:0|0:0,0:0:0:0:
105,273,77168,2,0,B|94:225|94:225|127:184,1,100,2|8,0:0|0:0,0:0:0:0:
221,153,77942,6,0,B|258:182|264:241|264:241|313:232|337:179,1,200,2|2,0:0|0:0,0:0:0:0:
323,81,79103,1,8,0:0:0:0:
224,69,79490,2,0,B|191:63|164:43|164:43|137:68|124:96|124:96|98:82|58:79,2,200,2|2|2,0:0|0:0|0:0,0:0:0:0:
355,266,87232,6,0,B|324:271|324:271|308:236|277:221,1,100,6|8,0:0|0:0,0:0:0:0:
178,231,88006,2,0,B|143:226|123:194|123:194|135:163,1,100,0|8,0:0|0:0,0:0:0:0:
172,132,88587,1,0,0:0:0:0:
222,132,88781,2,0,B|256:129|256:129|275:104|308:89,2,100,2|8|0,0:0|0:0|0:0,0:0:0:0:
122,118,89942,1,8,0:0:0:0:
35,168,90329,6,0,B|13:188|13:188|18:225|47:247,1,100,2|8,0:0|0:0,0:0:0:0:
135,294,91103,2,0,P|183:283|219:249,2,100,0|8|2,0:0|0:0|0:0,0:0:0:0:
135,294,93426,6,0,B|130:276|141:255|141:255|131:231|137:196,1,100,6|8,0:0|0:0,0:0:0:0:
184,108,94200,2,0,B|225:101|257:115|257:115|255:140,1,100,0|8,0:0|0:0,0:0:0:0:
244,189,94780,1,0,0:0:0:0:
264,235,94974,2,0,B|282:255|282:255|317:239|353:244,2,100,2|8|0,0:0|0:0|0:0,0:0:0:0:
210,151,96135,1,8,0:0:0:0:
118,111,96522,6,0,B|92:109|72:130|72:130|77:163|60:177,1,100,2|8,0:0|0:0,0:0:0:0:
12,263,97297,2,0,B|5:287|5:287|34:307|75:309,1,100,0|8,0:0|0:0,0:0:0:0:
124,297,97877,1,0,0:0:0:0:
171,315,98071,2,0,B|205:320|237:298|237:298|249:325,2,100,2|8|0,0:0|0:0|0:0,0:0:0:0:
88,260,99232,1,8,0:0:0:0:
137,173,99619,6,0,B|149:149|149:149|124:121|123:82,2,100,2|8|0,0:0|0:0|0:0,0:0:0:0:
88,260,100780,1,8,0:0:0:0:
176,292,101168,2,0,B|202:297|202:297|222:265|260:255,1,100,2|8,0:0|0:0,0:0:0:0:
357,280,101942,2,0,B|382:285|382:285|401:252|396:212,1,100,0|8,0:0|0:0,0:0:0:0:
366,118,102716,6,0,B|324:76|276:90|276:90|251:137|192:137,1,200,2|0,0:0|0:0,0:0:0:0:
104,89,103877,1,8,0:0:0:0:
74,184,104264,2,0,B|60:243|93:278|93:278|142:245|187:253,1,200,2|0,0:0|0:0,0:0:0:0:
266,315,105426,1,8,0:0:0:0:
345,255,105813,6,0,B|375:260|375:260|385:296|418:311,2,100,6|8|2,0:2|0:2|0:0,0:0:0:0:
246,240,106974,1,8,0:2:0:0:
185,319,107361,2,0,B|165:342|165:342|128:333|98:354,2,100,2|8|2,0:2|0:2|0:0,0:0:0:0:
188,219,108522,1,8,0:2:0:0:
147,128,108909,6,0,B|146:102|146:102|183:109|218:93,1,100,2|8,0:2|0:2,0:0:0:0:
261,67,109490,1,2,0:0:0:0:
304,41,109684,2,0,B|328:37|328:37|352:70|347:108,1,100,2|8,0:0|0:2,0:0:0:0:
336,208,110458,2,0,L|392:194,2,50,2|0|8,0:2|0:0|0:2,0:0:0:0:
288,222,111038,1,0,0:0:0:0:
244,198,111232,2,0,B|210:171|209:133|209:133|184:126,1,100,2|8,0:2|0:2,0:0:0:0:
85,125,112006,6,0,B|68:145|68:145|92:175|87:214,2,100,6|8|0,0:0|0:0|0:0,0:0:0:0:
152,51,113168,1,8,0:0:0:0:
243,91,113555,2,0,P|289:108|335:92,1,100,6|8,0:0|0:0,0:0:0:0:
432,68,114329,2,0,B|451:86|451:86|450:128|426:159,1,100,0|8,0:0|0:0,0:0:0:0:
353,221,115103,5,6,0:0:0:0:
234,60,115877,1,6,0:0:0:0:
153,242,116652,2,0,B|137:264|112:272|112:272|112:296|95:319,2,100,6|6|6,0:0|0:0|0:0,0:0:0:0:
185,147,117813,1,2,0:0:0:0:
251,222,118200,6,0,B|287:262|341:260|341:260|337:204|364:165,1,200,6|2,0:0|0:0,0:0:0:0:
425,87,119361,1,8,0:0:0:0:
471,175,119748,2,0,B|469:210|449:232|449:232|451:258|446:269,1,100,2|8,0:0|0:0,0:0:0:0:
415,308,120329,1,0,0:0:0:0:
399,355,120522,2,0,B|373:367|373:367|358:336|326:313,1,100,2|8,0:0|0:0,0:0:0:0:
227,306,121297,6,0,B|200:340|158:338|158:338|146:320,1,100,2|8,0:0|0:0,0:0:0:0:
137,221,122071,2,0,P|143:171|125:125,1,100,2|8,0:0|0:0,0:0:0:0:
67,44,122845,2,0,B|85:20|85:20|116:35|153:29,1,100,2|8,0:0|0:0,0:0:0:0:
201,14,123426,1,0,0:0:0:0:
244,39,123619,2,0,B|261:59|261:59|246:95|259:131,1,100,2|8,0:0|0:0,0:0:0:0:
311,216,124393,6,0,B|278:176|227:161|227:161|190:194|135:189,1,200,6|2,0:0|0:0,0:0:0:0:
74,110,125555,1,8,0:0:0:0:
38,203,125942,2,0,B|32:226|46:241|46:241|30:274|38:298,1,100,2|8,0:0|0:0,0:0:0:0:
109,367,126716,2,0,B|130:378|130:378|133:335|161:306,1,100,2|8,0:0|0:0,0:0:0:0:
233,242,127490,6,0,B|227:189|173:168|173:168|188:110|230:90,1,200,2|2,0:0|0:0,0:0:0:0:
322,52,128651,1,8,0:0:0:0:
386,128,129038,2,0,B|380:184|332:208|332:208|325:264|364:296,1,200,2|2,0:0|0:0,0:0:0:0:
447,353,130200,1,8,0:0:0:0:
488,262,130587,6,0,B|486:212|486:212|461:168,2,100,6|6|6,0:0|0:0|0:0,0:0:0:0:
447,353,131748,1,2,0:0:0:0:
348,336,132135,6,0,B|312:326|312:326|298:295|268:282,1,100,6|8,0:0|0:0,0:0:0:0:
219,277,132716,1,0,0:0:0:0:
178,305,132909,2,0,B|152:321|152:321|115:306|103:273,1,100,2|8,0:0|0:0,0:0:0:0:
102,173,133684,6,0,B|112:152|138:139|138:139|161:146|186:139,1,100,2|8,0:0|0:0,0:0:0:0:
271,84,134458,2,0,B|311:85|336:120|336:120|357:112,1,100,2|8,0:0|0:0,0:0:0:0:
449,72,135232,2,0,B|482:87|502:120|502:120|483:140,1,100,2|8,0:0|0:0,0:0:0:0:
444,171,135813,1,0,0:0:0:0:
423,216,136006,2,0,B|405:239|405:239|364:224|330:244,1,100,2|8,0:0|0:0,0:0:0:0:
253,296,136780,6,0,B|195:311|159:278|159:278|166:219|127:186,1,200,6|2,0:0|0:0,0:0:0:0:
56,118,137942,1,8,0:0:0:0:
11,206,138329,2,0,B|6:241|6:241|34:253|69:256,1,100,2|8,0:0|0:0,0:0:0:0:
155,206,139103,2,0,B|177:190|177:190|204:214|243:211,1,100,2|8,0:0|0:0,0:0:0:0:
342,191,139877,6,0,B|383:149|376:101|376:101|324:104|282:72,1,200,2|2,0:0|0:0,0:0:0:0:
203,12,141038,1,8,0:0:0:0:
120,68,141426,2,0,B|92:77|92:77|88:118|63:139,2,100,2|8|2,0:0|0:0|0:0,0:0:0:0:
217,88,142587,1,8,0:0:0:0:
205,187,142974,6,0,B|196:211|196:211|219:240|262:239,1,100,6|8,0:0|0:0,0:0:0:0:
311,232,143555,1,0,0:0:0:0:
359,246,143748,2,0,P|386:204|388:155,1,100,2|8,0:0|0:0,0:0:0:0:
332,73,144522,2,0,B|294:84|261:69|261:69|240:89,2,100,2|8|2,0:0|0:0|0:0,0:0:0:0:
422,29,145684,1,8,0:0:0:0:
455,123,146071,6,0,B|457:183|421:213|421:213|371:198|329:239,1,200,2|2,0:0|0:0,0:0:0:0:
279,325,147232,1,8,0:0:0:0:
186,287,147619,6,0,B|147:263|114:219|114:219|175:205|191:161|191:161|155:111|169:68,1,300,6|0,0:0|0:0,0:0:0:0:
266,92,149168,6,0,B|301:127|291:186|291:186|337:216|389:187,1,200,6|2,0:0|0:0,0:0:0:0:
464,129,150329,1,8,0:0:0:0:
414,42,150716,2,0,B|390:28|390:28|356:42|320:27,1,100,2|8,0:0|0:0,0:0:0:0:
221,9,151490,2,0,B|193:38|189:71|189:71|215:81,1,100,2|8,0:0|0:0,0:0:0:0:
311,105,152264,6,0,B|329:138|329:138|305:204,1,100,2|8,0:0|0:0,0:0:0:0:
272,232,152845,2,0,B|274:259|274:259|313:277|323:310,2,100,2|2|0,0:0|0:0|0:0,0:0:0:0:
234,198,153813,1,2,0:0:0:0:
162,127,154200,2,0,B|174:97|174:97|151:68|157:33,2,100,8|2|8,0:0|0:0|0:0,0:0:0:0:
87,195,155361,6,0,B|79:221|79:221|115:208|150:216,1,100,2|8,0:0|0:0,0:0:0:0:
228,279,156135,2,0,B|265:300|302:293|302:293|309:271,1,100,2|8,0:0|0:0,0:0:0:0:
285,174,156910,2,0,B|276:146|276:146|303:118|299:81,1,100,2|8,0:0|0:0,0:0:0:0:
286,34,157490,1,0,0:0:0:0:
236,28,157684,2,0,B|170:43|170:43|148:67,1,100,2|8,0:0|0:0,0:0:0:0:
175,163,158458,6,0,B|181:211|181:211|161:258,1,100,2|8,0:0|0:0,0:0:0:0:
81,318,159232,2,0,B|51:320|51:320|39:287|4:269,2,100,2|8|2,0:0|0:0|0:0,0:0:0:0:
125,294,160200,2,0,B|143:258|143:258|152:310|206:350,1,150,2|2,0:0|0:0,0:0:0:0:
298,376,161168,1,8,0:0:0:0:
357,295,161555,6,0,B|366:246|366:246|340:202,2,100,6|6|6,0:0|0:0|0:0,0:0:0:0:
298,376,162716,1,2,0:0:0:0:
219,315,163103,6,0,B|208:294|208:294|251:292|277:265,1,100,6|8,0:0|0:0,0:0:0:0:
339,187,163877,2,0,B|347:154|347:154|313:96,1,100,2|8,0:0|0:0,0:0:0:0:
233,36,164652,2,0,B|195:36|174:12|174:12|145:31,2,100,2|8|2,0:0|0:0|0:0,0:0:0:0:
330,12,165813,1,8,0:0:0:0:
411,70,166200,6,0,B|422:90|410:118|410:118|381:121|366:138,1,100,2|8,0:0|0:0,0:0:0:0:
353,238,166974,2,0,B|389:243|419:223|419:223|439:250,1,100,2|8,0:0|0:0,0:0:0:0:
459,344,167748,2,0,B|448:369|448:369|408:375|377:358,1,100,2|8,0:0|0:0,0:0:0:0:
343,322,168329,2,0,B|296:305|296:305|249:322,1,100,2|2,0:0|0:0,0:0:0:0:
215,359,168910,1,10,0:0:0:0:
159,276,169297,6,0,B|156:227|156:227|181:184,1,100,2|8,0:0|0:0,0:0:0:0:
241,102,170071,2,0,B|290:105|290:105|334:79,1,100,2|8,0:0|0:0,0:0:0:0:
370,44,170652,1,0,0:0:0:0:
419,54,170845,2,0,B|435:99|435:99|424:148,1,100,2|8,0:0|0:0,0:0:0:0:
336,197,171619,2,0,B|285:207|285:207|251:241,1,100,2|8,0:0|0:0,0:0:0:0:
171,302,172393,6,0,B|146:296|146:296|147:255|123:226,1,100,2|8,0:0|0:0,0:0:0:0:
48,161,173168,2,0,B|36:122|55:89|55:89|85:93,1,100,2|8,0:0|0:0,0:0:0:0:
173,130,173942,2,0,B|176:173|215:217|215:217|246:173|297:162,1,200,2|2,0:0|0:0,0:0:0:0:
394,187,175103,1,8,0:0:0:0:
361,281,175490,6,0,B|319:314|267:301|267:301|215:289|173:323,1,200,2|2,0:0|0:0,0:0:0:0:
92,382,176652,1,8,0:0:0:0:
83,282,177039,2,0,B|84:254|84:254|114:235|125:197,1,100,2|8,0:0|0:0,0:0:0:0:
103,99,177813,2,0,B|96:73|96:73|124:51|165:56,1,100,2|8,0:0|0:0,0:0:0:0:
262,76,178587,6,0,B|298:122|299:167|299:167|250:174|205:144|205:144|197:195|223:242,1,300,2|0,0:0|0:0,0:0:0:0:
287,318,180135,6,0,B|323:326|353:310|353:310|376:330,2,100,6|8|2,0:2|0:2|0:0,0:0:0:0:
200,268,181296,1,8,0:2:0:0:
105,300,181684,2,0,B|87:332|95:365|95:365|69:383,2,100,2|8|2,0:2|0:2|0:0,0:0:0:0:
180,234,182844,1,8,0:2:0:0:
258,296,183231,6,0,P|301:316|356:309,1,100,2|8,0:2|0:2,0:0:0:0:
394,283,183812,1,2,0:0:0:0:
389,233,184006,2,0,B|383:207|383:207|417:183|422:146,1,100,2|8,0:0|0:2,0:0:0:0:
392,52,184780,2,0,L|427:8,2,50,2|0|8,0:2|0:0|0:2,0:0:0:0:
360,90,185360,1,0,0:0:0:0:
325,126,185555,2,0,B|289:133|259:118|259:118|244:146,1,100,2|8,0:2|0:2,0:0:0:0:
202,237,186328,6,0,B|173:246|173:246|157:220|116:206,2,100,6|8|0,0:0|0:0|0:0,0:0:0:0:
295,200,187490,1,8,0:0:0:0:
360,276,187877,2,0,B|375:290|375:290|413:276|428:236,1,100,6|8,0:0|0:0,0:0:0:0:
439,137,188651,2,0,B|422:110|406:98|406:98|383:102|358:92,1,100,0|8,0:0|0:0,0:0:0:0:
274,37,189426,5,6,0:0:0:0:
149,193,190200,1,6,0:0:0:0:
346,225,190975,2,0,B|371:234|385:256|385:256|408:250|435:261,2,100,6|6|6,0:0|0:0|0:0,0:0:0:0:
249,249,192136,1,2,0:0:0:0:
176,181,192522,5,2,0:0:0:0:
211,304,198716,6,0,B|219:224|289:188|289:188|345:262|428:222,1,300,2|0,0:0|0:0,0:0:0:0:
375,137,200264,2,0,B|345:90|296:78|296:78|242:104|200:86,1,200,2|0,0:0|0:0,0:0:0:0:
121,26,201426,1,0,0:0:0:0:
109,126,201813,6,0,B|98:208|171:250|171:250|229:176|304:210,1,300,2|0,0:0|0:0,0:0:0:0:
364,291,203361,2,0,B|358:345|309:370|309:370|279:322|225:325,1,200,2|0,0:0|0:0,0:0:0:0:
134,365,204522,1,0,0:0:0:0:
92,274,204910,6,0,B|52:245|52:245|3:237,2,100,6|6|6,0:0|0:0|0:0,0:0:0:0:
271,364,206458,6,0,B|301:348|301:348|286:314|296:283,1,100,6|8,0:0|0:0,0:0:0:0:
326,243,207039,1,0,0:0:0:0:
367,215,207232,2,0,B|391:181|376:141|376:141|346:127,1,100,2|8,0:0|0:0,0:0:0:0:
260,161,208006,6,0,B|235:156|219:137|219:137|195:149|168:142,1,100,2|8,0:0|0:0,0:0:0:0:
115,58,208781,2,0,B|129:31|129:31|172:20|213:37,1,100,2|8,0:0|0:0,0:0:0:0:
280,89,209555,2,0,B|296:114|296:114|274:142|278:180,1,100,2|8,0:0|0:0,0:0:0:0:
297,226,210136,1,0,0:0:0:0:
339,250,210329,2,0,P|377:217|397:171,1,100,2|8,0:0|0:0,0:0:0:0:
380,73,211103,6,0,B|351:20|300:24|300:24|265:60|207:44,1,200,6|2,0:0|0:0,0:0:0:0:
112,13,212265,1,8,0:0:0:0:
133,111,212652,2,0,B|133:152|103:178|103:178|109:202,1,100,2|8,0:0|0:0,0:0:0:0:
158,289,213426,2,0,B|200:309|233:300|233:300|238:278,1,100,2|8,0:0|0:0,0:0:0:0:
221,179,214200,6,0,B|210:123|254:92|254:92|296:129|347:120,1,200,2|2,0:0|0:0,0:0:0:0:
436,75,215361,1,8,0:0:0:0:
431,175,215749,2,0,B|426:208|426:208|395:222|390:260,2,100,2|8|2,0:0|0:0|0:0,0:0:0:0:
381,88,216910,1,8,0:0:0:0:
295,139,217297,6,0,B|257:147|228:123|228:123|202:135,1,100,6|8,0:0|0:0,0:0:0:0:
169,173,217878,1,0,0:0:0:0:
185,220,218071,2,0,P|173:272|138:308,1,100,2|8,0:0|0:0,0:0:0:0:
86,223,218845,2,0,B|77:200|77:200|94:162|76:127,2,100,2|8|2,0:0|0:0|0:0,0:0:0:0:
142,305,220007,1,8,0:0:0:0:
214,235,220394,6,0,B|261:208|311:226|311:226|298:281|329:320,1,200,2|2,0:0|0:0,0:0:0:0:
423,355,221555,1,8,0:0:0:0:
405,254,221942,6,0,B|404:202|439:164|439:164|481:121|460:73|460:73|414:47|362:68,1,300,2|0,0:0|0:0,0:0:0:0:
287,134,223490,5,6,0:0:0:0:
156,244,225039,5,2,0:0:0:0:
356,244,225813,1,2,0:0:0:0:
256,71,226587,5,6,0:0:0:0:
256,192,226781,12,6,228135,0:0:0:0:
256,192,228329,12,0,230458,0:0:0:0:
