osu file format v14

[General]
AudioFilename: Shissou Suru Kanashimi no Naka de.mp3
AudioLeadIn: 1500
PreviewTime: 31490
Countdown: 0
SampleSet: Soft
StackLeniency: 0.3
Mode: 0
LetterboxInBreaks: 0
EpilepsyWarning: 1
WidescreenStoryboard: 1

[Editor]
DistanceSpacing: 0.6
BeatDivisor: 8
GridSize: 4
TimelineZoom: 1.4

[Metadata]
Title:Shissou Suru Kanashimi no Naka de
TitleUnicode:疾走する悲しみの中で
Artist:senya
ArtistUnicode:senya
Creator:-Mo-
Version:Insane
Source:艦隊これくしょん~艦これ~
Tags:Yuuhei Catharsis 幽閉カタルシス In The Midst Of Dashing Grief Kantai Collection~KanColle~ Collection KanColle 艦隊これくしょん 艦これ Kamase-tora かませ虎 HiZuMi ikuo 連合艦隊、西へ Mayumi Morinaga 森永真由美 Korekushon Combined Fleet C88
BeatmapID:767861
BeatmapSetID:347460

[Difficulty]
HPDrainRate:6
CircleSize:4
OverallDifficulty:7.5
ApproachRate:8.8
SliderMultiplier:1.6
SliderTickRate:1

[Events]
//Background and Video events
0,0,"C88Cover.jpg",0,0
//Break Periods
2,81239,86603
2,192722,198087
//Storyboard Layer 0 (Background)
//Storyboard Layer 1 (Fail)
//Storyboard Layer 2 (Pass)
//Storyboard Layer 3 (Foreground)
Sprite,Foreground,Centre,"SB\Ring.png",173,326 S,1,12910,15232,0.3,0.8 F,0,13297,15232,1,0
Sprite,Foreground,Centre,"SB\Ring.png",548,220 S,1,25297,27619,0.3,0.8 F,0,25684,27619,1,0
Sprite,Foreground,Centre,"SB\Ring.png",326,140 S,1,37684,40006,0.3,0.8 F,0,38071,40006,1,0
Sprite,Foreground,Centre,"SB\Ring.png",338,116 S,1,51619,53942,0.3,0.8 F,0,52006,53942,1,0
Sprite,Foreground,Centre,"SB\Ring.png",274,347 S,1,68652,70974,0.3,0.8 F,0,69039,70974,1,0
Sprite,Foreground,Centre,"SB\Ring.png",254,138 S,1,93426,95748,0.3,0.8 F,0,93813,95748,1,0
Sprite,Foreground,Centre,"SB\Ring.png",136,347 S,1,105813,108135,0.3,0.8 F,0,106200,108135,1,0
Sprite,Foreground,Centre,"SB\Ring.png",330,151 S,1,118200,120522,0.3,0.8 F,0,118587,120522,1,0
Sprite,Foreground,Centre,"SB\Ring.png",416,83 S,1,132135,134458,0.3,0.8 F,0,132522,134458,1,0
Sprite,Foreground,Centre,"SB\Ring.png",290,214 S,1,149168,151490,0.3,0.8 F,0,149555,151490,1,0
Sprite,Foreground,Centre,"SB\Ring.png",334,106 S,1,163103,165426,0.3,0.8 F,0,163490,165426,1,0
Sprite,Foreground,Centre,"SB\Ring.png",320,392 S,1,180135,182458,0.3,0.8 F,0,180522,182458,1,0
Sprite,Foreground,Centre,"SB\Ring.png",445,120 S,1,206458,208781,0.3,0.8 F,0,206845,208781,1,0
Sprite,Foreground,Centre,"SB\Ring.png",228,387 S,1,223490,225813,0.3,0.8 F,0,223877,225813,1,0
Sprite,Foreground,Centre,"SB\Ring.png",320,248 S,1,226587,228910,0.3,0.8 F,0,226974,228910,1,0
Sprite,Foreground,Centre,"SB\Ring.png",320,248 S,1,228135,230458,0.3,0.8 F,0,228522,230458,1,0
Sprite,Foreground,Centre,"SB\Glow.png",336,89 F,2,6716,7490,1,0
Sprite,Foreground,Centre,"SB\Glow.png",332,93 F,2,8264,9039,1,0
Sprite,Foreground,Centre,"SB\Glow.png",328,97 F,2,9813,10587,1,0
Sprite,Foreground,Centre,"SB\Glow.png",380,236 F,2,10587,11361,1,0
Sprite,Foreground,Centre,"SB\Glow.png",348,153 F,2,11361,12135,1,0
Sprite,Foreground,Centre,"SB\Glow.png",269,287 F,2,11748,12522,1,0
Sprite,Foreground,Centre,"SB\Glow.png",173,326 F,2,12135,12910,1,0
Sprite,Foreground,Centre,"SB\Glow.png",269,287 F,2,12522,13297,1,0
Sprite,Foreground,Centre,"SB\Glow.png",426,295 F,2,31490,32264,1,0
Sprite,Foreground,Centre,"SB\Glow.png",263,136 F,2,33039,33813,1,0
Sprite,Foreground,Centre,"SB\Glow.png",250,106 F,2,34587,35361,1,0
Sprite,Foreground,Centre,"SB\Glow.png",234,408 F,2,34781,35555,1,0
Sprite,Foreground,Centre,"SB\Glow.png",250,106 F,2,35361,36135,1,0
Sprite,Foreground,Centre,"SB\Glow.png",504,270 F,2,35555,36329,1,0
Sprite,Foreground,Centre,"SB\Glow.png",155,251 F,2,36135,36910,1,0
Sprite,Foreground,Centre,"SB\Glow.png",425,113 F,2,36522,37297,1,0
Sprite,Foreground,Centre,"SB\Glow.png",410,417 F,2,36910,37684,1,0
Sprite,Foreground,Centre,"SB\Glow.png",156,97 F,2,43877,44652,1,0
Sprite,Foreground,Centre,"SB\Glow.png",268,401 F,2,50071,50845,1,0
Sprite,Foreground,Centre,"SB\Glow.png",230,367 F,2,50458,51232,1,0
Sprite,Foreground,Centre,"SB\Glow.png",374,369 F,2,50587,51361,1,0
Sprite,Foreground,Centre,"SB\Glow.png",362,318 F,2,50716,51490,1,0
Sprite,Foreground,Centre,"SB\Glow.png",302,266 F,2,50845,51619,1,0
Sprite,Foreground,Centre,"SB\Glow.png",214,183 F,2,56264,57039,1,0
Sprite,Foreground,Centre,"SB\Glow.png",383,401 F,2,62458,63232,1,0
Sprite,Foreground,Centre,"SB\Glow.png",425,313 F,2,67103,67877,1,0
Sprite,Foreground,Centre,"SB\Glow.png",358,362 F,2,67490,68264,1,0
Sprite,Foreground,Centre,"SB\Glow.png",279,351 S,0,67877,,1 S,2,68071,68652,1,3
Sprite,Foreground,Centre,"SB\Glow.png",372,209 F,2,87232,88006,1,0
Sprite,Foreground,Centre,"SB\Glow.png",212,297 F,2,112006,112781,1,0
Sprite,Foreground,Centre,"SB\Glow.png",374,138 F,2,113555,114329,1,0
Sprite,Foreground,Centre,"SB\Glow.png",388,108 F,2,115103,115877,1,0
Sprite,Foreground,Centre,"SB\Glow.png",404,410 F,2,115297,116071,1,0
Sprite,Foreground,Centre,"SB\Glow.png",213,115 F,2,115877,116652,1,0
Sprite,Foreground,Centre,"SB\Glow.png",228,416 F,2,116071,116845,1,0
Sprite,Foreground,Centre,"SB\Glow.png",388,108 F,2,116652,117426,1,0
Sprite,Foreground,Centre,"SB\Glow.png",133,272 F,2,117039,117813,1,0
Sprite,Foreground,Centre,"SB\Glow.png",404,410 F,2,117426,118200,1,0
Sprite,Foreground,Centre,"SB\Glow.png",82,203 F,2,124393,125168,1,0
Sprite,Foreground,Centre,"SB\Glow.png",382,314 F,2,130587,131361,1,0
Sprite,Foreground,Centre,"SB\Glow.png",352,272 F,2,130974,131748,1,0
Sprite,Foreground,Centre,"SB\Glow.png",334,417 F,2,131103,131877,1,0
Sprite,Foreground,Centre,"SB\Glow.png",285,399 F,2,131232,132006,1,0
Sprite,Foreground,Centre,"SB\Glow.png",240,333 F,2,131361,132135,1,0
Sprite,Foreground,Centre,"SB\Glow.png",152,349 F,2,136781,137555,1,0
Sprite,Foreground,Centre,"SB\Glow.png",197,190 F,2,142974,143748,1,0
Sprite,Foreground,Centre,"SB\Glow.png",0,0 M,0,147619,147716,182,248,161,261 M,0,147716,147813,161,261,144,280 M,0,147813,147910,145,278,133,299 M,0,147910,148006,133,299,127,322 M,0,148006,148103,127,322,127,346 M,0,148103,148200,127,346,133,368 M,0,148200,148297,133,368,145,390 M,0,148297,148393,145,390,161,407 M,0,148393,148490,161,407,181,420 M,0,148490,148587,181,420,204,427 M,0,148587,148684,204,427,228,427 M,0,148684,148781,228,427,251,424 M,0,148781,149168,251,424,290,214 S,2,148877,149168,1,3
Sprite,Foreground,Centre,"SB\Glow.png",204,376 F,2,161555,162329,1,0
Sprite,Foreground,Centre,"SB\Glow.png",183,329 F,2,161942,162716,1,0
Sprite,Foreground,Centre,"SB\Glow.png",316,391 F,2,162071,162845,1,0
Sprite,Foreground,Centre,"SB\Glow.png",326,340 F,2,162200,162974,1,0
Sprite,Foreground,Centre,"SB\Glow.png",293,266 F,2,162329,163103,1,0
Sprite,Foreground,Centre,"SB\Glow.png",242,276 F,2,186329,187103,1,0
Sprite,Foreground,Centre,"SB\Glow.png",252,363 F,2,187877,188652,1,0
Sprite,Foreground,Centre,"SB\Glow.png",248,398 F,2,189426,190200,1,0
Sprite,Foreground,Centre,"SB\Glow.png",292,96 F,2,189619,190393,1,0
Sprite,Foreground,Centre,"SB\Glow.png",182,233 F,2,190200,190974,1,0
Sprite,Foreground,Centre,"SB\Glow.png",417,424 F,2,190393,191168,1,0
Sprite,Foreground,Centre,"SB\Glow.png",248,398 F,2,190974,191748,1,0
Sprite,Foreground,Centre,"SB\Glow.png",292,96 F,2,191361,192135,1,0
Sprite,Foreground,Centre,"SB\Glow.png",529,286 F,2,191748,192522,1,0
Sprite,Foreground,Centre,"SB\Glow.png",202,364 F,2,204910,205684,1,0
Sprite,Foreground,Centre,"SB\Glow.png",181,317 F,2,205297,206071,1,0
Sprite,Foreground,Centre,"SB\Glow.png",313,380 F,2,205426,206200,1,0
Sprite,Foreground,Centre,"SB\Glow.png",323,329 F,2,205555,206329,1,0
Sprite,Foreground,Centre,"SB\Glow.png",292,255 F,2,205684,206458,1,0
Sprite,Foreground,Centre,"SB\Glow.png",485,104 F,2,211103,211877,1,0
Sprite,Foreground,Centre,"SB\Glow.png",199,283 F,2,217297,218071,1,0
Sprite,Foreground,Centre,"SB\Glow.png",296,336 F,0,222716,222813,0,1 F,2,223103,223877,1,0
Sprite,Foreground,Centre,"SB\Glow.png",232,366 F,0,223103,223200,0,1 F,2,223490,224264,1,0
//Storyboard Sound Samples

[TimingPoints]
523,387.096774193548,4,2,1,40,1,0
523,-200,4,2,1,40,0,0
3135,-200,4,2,1,5,0,0
3232,-200,4,2,1,40,0,0
6329,-200,4,3,1,50,0,0
6716,-133.333333333333,4,2,1,80,0,0
12910,-100,4,2,2,90,0,0
13006,-100,4,2,1,90,0,0
25297,-133.333333333333,4,3,2,90,0,0
25393,-133.333333333333,4,3,1,80,0,0
31490,-100,4,2,1,90,0,0
37297,-100,4,2,1,60,0,0
37490,-100,4,2,1,70,0,0
37587,-100,4,2,1,80,0,0
37684,-100,4,2,2,100,0,1
37781,-100,4,2,1,100,0,1
50071,-100,4,2,1,80,0,0
51619,-100,4,2,2,100,0,1
51716,-100,4,2,1,100,0,1
67103,-100,4,2,1,90,0,0
67200,-100,4,2,1,60,0,0
67490,-100,4,2,1,90,0,0
67587,-100,4,2,1,70,0,0
67877,-100,4,2,1,90,0,0
68652,-100,4,2,2,90,0,0
68748,-100,4,2,1,90,0,0
81039,-100,4,2,1,60,0,0
87232,-133.333333333333,4,2,1,80,0,0
93426,-100,4,2,2,90,0,0
93522,-100,4,2,1,90,0,0
105813,-133.333333333333,4,3,2,90,0,0
105910,-133.333333333333,4,3,1,80,0,0
112006,-100,4,2,1,90,0,0
117813,-100,4,2,1,60,0,0
118006,-100,4,2,1,70,0,0
118103,-100,4,2,1,80,0,0
118200,-100,4,2,2,100,0,1
118297,-100,4,2,1,100,0,1
130587,-100,4,2,1,90,0,0
132135,-100,4,2,2,100,0,1
132232,-100,4,2,1,100,0,1
147619,-166.666666666667,4,2,1,100,0,0
147716,-166.666666666667,4,2,2,100,0,0
149168,-100,4,2,2,90,0,0
149264,-100,4,2,1,90,0,0
150135,-100,4,2,2,90,0,0
150232,-100,4,2,1,90,0,0
161555,-100,4,2,1,80,0,0
163103,-100,4,2,2,90,0,0
163200,-100,4,2,1,90,0,0
178781,-100,4,2,1,70,0,0
178877,-100,4,2,1,90,0,0
179168,-100,4,2,1,70,0,0
179264,-100,4,2,1,90,0,0
179942,-100,4,3,1,90,0,0
180135,-133.333333333333,4,3,2,90,0,0
180232,-133.333333333333,4,3,1,80,0,0
186329,-100,4,2,1,90,0,0
192135,-100,4,2,1,60,0,0
198716,-200,4,2,2,40,0,0
204910,-100,4,2,1,90,0,0
206458,-100,4,2,2,100,0,1
206555,-100,4,2,1,100,0,1
221942,-100,4,2,1,100,0,0
222039,-100,4,2,1,60,0,0
222329,-100,4,2,1,70,0,0
222426,-100,4,2,1,60,0,0
222716,-100,4,2,1,70,0,0
223103,-100,4,2,1,80,0,0
223490,-100,4,2,2,100,0,1
223587,-100,4,2,1,90,0,0
226587,-100,4,2,2,90,0,0
226684,-100,4,2,2,60,0,0
227942,-100,4,2,1,30,0,0
228135,-100,4,2,2,90,0,0
230458,-100,4,2,1,30,0,0

[Colours]
Combo1 : 223,72,0
Combo2 : 0,74,158
Combo3 : 185,0,0
Combo4 : 0,128,191

[HitObjects]
134,149,523,6,0,L|150:205,1,40,2|0,0:0|0:0,0:0:0:0:
214,286,910,2,0,L|224:247,1,40
219,136,1297,2,0,P|237:106|276:78,1,80
379,89,1877,1,0,0:0:0:0:
318,177,2071,6,0,L|299:212,1,40,2|0,0:0|0:0,0:0:0:0:
239,299,2458,2,0,L|220:264,1,40
146,167,2845,2,0,P|138:195|135:225,1,60
137,237,3232,2,0,L|98:233,1,40
105,333,3619,6,0,L|109:376,1,40,2|0,0:0|0:0,0:0:0:0:
203,364,4006,2,0,L|246:360,1,40
180,265,4393,2,0,P|157:236|145:194,1,80
194,91,4974,1,0,0:0:0:0:
277,180,5168,6,0,L|239:191,1,40,2|0,0:0|0:0,0:0:0:0:
328,272,5555,2,0,L|366:283,1,40
371,138,5942,2,0,P|364:99|343:65,1,80
327,53,6426,1,0,0:0:0:0:
310,43,6522,1,0,0:0:0:0:
291,36,6619,1,0,0:0:0:0:
272,33,6716,5,6,0:0:0:0:
268,37,8264,1,6,0:0:0:0:
264,41,9813,5,6,0:0:0:0:
220,154,10200,2,0,P|216:183|221:213,1,60.0000022888184
316,180,10587,2,0,B|331:172|345:159|345:159|374:185|423:180,1,120.000004577637,6|0,0:0|0:0,0:0:0:0:
408,81,11168,1,0,0:0:0:0:
284,97,11361,6,0,P|258:113|239:136,1,60.0000022888184,6|0,0:0|0:0,0:0:0:0:
205,231,11748,2,0,P|190:204|168:184,1,60.0000022888184,6|0,0:0|0:0,0:0:0:0:
109,270,12135,5,6,0:0:0:0:
135,374,12329,1,0,0:0:0:0:
205,231,12522,5,6,0:0:0:0:
179,127,12716,1,0,0:0:0:0:
109,270,12910,6,0,P|71:278|32:268,1,80,6|0,0:0|0:0,0:0:0:0:
57,115,13297,2,0,L|72:194,1,80,8|0,0:0|0:0,0:0:0:0:
135,79,13684,2,0,P|198:34|282:44,1,160,0|8,0:0|0:0,0:0:0:0:
228,147,14264,1,0,0:0:0:0:
57,115,14458,6,0,P|49:76|59:37,1,80,2|0,0:0|0:0,0:0:0:0:
162,202,14845,2,0,P|149:239|121:267,1,80,8|0,0:0|0:0,0:0:0:0:
150,111,15232,1,0,0:0:0:0:
251,167,15426,1,0,0:0:0:0:
67,188,15619,1,8,0:0:0:0:
150,111,15813,1,0,0:0:0:0:
251,167,16006,6,0,L|316:212,1,80,2|0,0:0|0:0,0:0:0:0:
212,287,16393,2,0,L|140:320,1,80,8|0,0:0|0:0,0:0:0:0:
144,190,16781,2,0,L|150:111,1,80
240,213,17168,1,8,0:0:0:0:
227,356,17361,1,0,0:0:0:0:
334,207,17555,6,0,L|340:128,1,80,2|0,0:0|0:0,0:0:0:0:
434,232,17942,2,0,P|397:289|346:311,1,120,8|0,0:0|0:0,0:0:0:0:
328,303,18329,1,0,0:0:0:0:
232,263,18522,1,0,0:0:0:0:
131,290,18716,1,8,0:0:0:0:
62,368,18910,1,0,0:0:0:0:
64,177,19103,6,0,P|73:139|93:104,1,80,2|0,0:0|0:0,0:0:0:0:
259,171,19490,2,0,P|220:182|181:182,1,80,8|0,0:0|0:0,0:0:0:0:
280,19,19877,2,0,P|319:63|336:120,1,120
329,190,20264,2,0,P|372:222|406:230,1,80,8|0,0:0|0:0,0:0:0:0:
436,77,20652,6,0,L|402:4,1,80,2|0,0:0|0:0,0:0:0:0:
329,190,21039,2,0,L|298:264,1,80,8|0,0:0|0:0,0:0:0:0:
416,194,21426,2,0,P|393:132|346:104,1,120
279,106,21813,2,0,P|246:135|209:146,1,80,8|0,0:0|0:0,0:0:0:0:
65,108,22200,6,0,B|41:135|41:135|62:160|62:160|29:197|48:245,1,160,2|8,0:0|0:0,0:0:0:0:
98,377,22781,1,0,0:0:0:0:
189,266,22974,2,0,B|218:244|218:244|277:273|348:240,1,160,0|8,0:0|0:0,0:0:0:0:
279,106,23555,1,0,0:0:0:0:
149,198,23748,5,2,3:2:0:0:
243,331,23942,1,0,3:2:0:0:
279,106,24135,1,8,3:2:0:0:
149,198,24329,1,0,3:2:0:0:
371,236,24522,6,0,L|416:242,1,40,2|0,3:2|3:2,3:2:0:0:
370,161,24716,2,0,L|325:155,1,40,0|0,3:2|3:2,3:2:0:0:
387,89,24910,5,8,3:2:0:0:
418,94,25006,1,0,3:2:0:0:
447,108,25103,1,8,3:2:0:0:
471,130,25200,1,0,3:2:0:0:
484,156,25297,5,6,0:2:0:0:
288,200,25684,1,8,0:2:0:0:
208,140,25877,2,0,P|255:105|314:103,1,120.000004577637,2|2,0:0|0:0,0:0:0:0:
288,200,26458,1,8,0:2:0:0:
108,133,26845,5,2,0:2:0:0:
80,222,27039,1,2,0:0:0:0:
143,291,27232,1,8,0:2:0:0:
171,201,27426,2,0,B|193:121|193:121|220:148,1,120.000004577637,2|2,0:0|0:0,0:0:0:0:
143,291,28006,1,8,0:2:0:0:
318,99,28393,6,0,P|343:84|371:72,1,60.0000022888184,2|2,0:2|0:0,0:2:0:0:
367,167,28781,1,8,0:2:0:0:
300,234,28974,1,2,0:0:0:0:
318,99,29168,2,0,P|370:72|429:58,1,120.000004577637,2|8,0:0|0:2,0:2:0:0:
194,201,29942,5,2,0:2:0:0:
159,64,30135,1,2,0:0:0:0:
265,253,30329,1,8,0:2:0:0:
128,288,30522,1,2,0:0:0:0:
317,182,30716,5,2,0:2:0:0:
352,319,30909,1,2,0:0:0:0:
246,130,31103,1,8,0:2:0:0:
383,95,31296,1,2,0:0:0:0:
362,239,31490,6,0,L|351:329,1,80,6|0,0:0|0:0,0:0:0:0:
246,130,31877,2,0,L|236:50,1,80,8|0,0:0|0:0,0:0:0:0:
137,208,32264,2,0,L|126:298,1,80
25,111,32652,2,0,P|72:75|131:63,1,120,8|0,0:0|0:0,0:0:0:0:
199,80,33039,6,0,P|202:117|221:156,1,80,6|0,0:0|0:0,0:0:0:0:
389,75,33426,2,0,P|350:74|312:87,1,80,8|0,0:0|0:0,0:0:0:0:
256,266,33813,2,0,L|266:304,1,40,2|0,0:0|0:0,0:0:0:0:
346,303,34006,2,0,L|374:330,1,40,2|0,0:0|0:0,0:0:0:0:
323,228,34200,2,0,L|332:189,1,40,10|0,0:0|0:0,0:0:0:0:
253,183,34393,2,0,L|242:144,1,40,2|0,0:0|0:0,0:0:0:0:
186,50,34587,5,6,0:0:0:0:
170,352,34781,1,6,0:0:0:0:
186,50,35361,5,6,0:0:0:0:
440,214,35554,1,6,0:0:0:0:
91,195,36135,5,6,0:0:0:0:
361,57,36522,1,6,0:0:0:0:
346,361,36910,1,6,0:0:0:0:
180,148,37297,5,2,0:0:0:0:
258,80,37490,2,0,L|250:54,3,20,0|0|0|0,3:0|3:0|3:0|3:0,3:0:0:0:
262,84,37684,6,0,B|326:107|336:170|336:170|380:174,1,160,6|8,0:0|0:0,0:0:0:0:
350,39,38264,1,0,0:0:0:0:
238,182,38458,2,0,P|222:224|255:308,1,120,2|0,0:0|0:0,0:0:0:0:
295,339,38845,1,8,0:0:0:0:
276,124,39039,1,0,0:0:0:0:
168,312,39232,6,0,P|130:305|100:279,1,80,2|0,0:0|0:0,0:0:0:0:
95,271,39522,1,0,0:0:0:0:
92,263,39619,1,8,0:0:0:0:
238,182,39813,1,0,0:0:0:0:
295,339,40006,2,0,P|353:345|381:286,1,120,2|0,0:0|0:0,0:0:0:0:
373,228,40393,1,8,0:0:0:0:
436,375,40587,1,0,0:0:0:0:
482,150,40781,6,0,B|493:126|493:126|476:108|476:108|498:45|473:2,1,160,2|8,0:0|0:0,0:0:0:0:
353,55,41361,1,0,0:0:0:0:
414,202,41555,2,0,P|393:256|341:282,1,120,2|0,0:0|0:0,0:0:0:0:
273,262,41942,1,8,0:0:0:0:
324,121,42135,1,0,0:0:0:0:
415,279,42329,6,0,B|437:310|437:310|481:315|508:349,2,120,2|0|0,0:0|0:0|0:0,0:0:0:0:
324,121,43103,1,2,0:0:0:0:
297,103,43199,1,0,0:0:0:0:
266,94,43296,1,2,0:0:0:0:
234,96,43393,1,0,0:0:0:0:
202,113,43490,5,8,0:0:0:0:
186,80,43586,1,0,0:0:0:0:
161,54,43683,1,2,0:0:0:0:
128,38,43780,1,0,0:0:0:0:
92,41,43877,6,0,P|40:71|54:162,1,160,6|8,0:0|0:0,0:0:0:0:
186,80,44458,1,0,0:0:0:0:
104,213,44652,2,0,P|92:270|122:320,1,120,2|0,0:0|0:0,0:0:0:0:
185,352,45039,1,8,0:0:0:0:
219,162,45232,1,0,0:0:0:0:
259,315,45426,6,0,P|295:331|335:330,1,80,2|0,0:0|0:0,0:0:0:0:
219,162,45813,2,0,P|183:146|143:147,1,80,8|0,0:0|0:0,0:0:0:0:
328,264,46200,1,2,0:0:0:0:
328,264,46587,1,8,0:0:0:0:
399,143,46781,1,0,0:0:0:0:
413,329,46974,6,0,P|347:370|271:355,1,160,2|8,0:0|0:0,0:0:0:0:
290,157,47555,1,0,3:0:0:0:
294,153,47652,1,0,3:0:0:0:
298,149,47748,2,0,P|320:204|328:263,2,120,2|0|0,0:0|0:0|0:0,0:0:0:0:
160,67,48522,6,0,P|134:95|120:144,1,80,2|0,0:0|0:0,0:0:0:0:
124,205,48813,1,0,0:0:0:0:
126,211,48910,2,0,P|159:233|180:266,1,80,8|0,0:0|0:0,0:0:0:0:
17,208,49297,2,0,L|34:129,1,80,2|0,0:0|0:0,0:0:0:0:
99,294,49684,5,8,3:2:0:0:
114,321,49780,1,0,3:2:0:0:
138,342,49877,1,0,3:2:0:0:
169,351,49974,1,0,3:2:0:0:
204,345,50071,6,0,P|222:284|166:311,1,160,6|6,0:0|0:0,0:0:0:0:
310,313,50587,6,0,P|308:287|298:262,1,53.3333333333333,6|6,0:0|0:0,0:0:0:0:
238,210,50845,1,6,0:0:0:0:
376,97,51232,5,2,0:0:0:0:
280,56,51426,2,0,L|289:33,3,20,0|0|0|0,3:0|3:0|3:0|3:0,3:0:0:0:
276,60,51619,6,0,P|233:100|209:155,2,120,6|0|0,0:0|0:0|0:0,0:0:0:0:
275,240,52393,2,0,P|221:263|163:252,1,120,2|0,0:0|0:0,0:0:0:0:
114,200,52781,1,8,0:0:0:0:
151,365,52974,1,0,0:0:0:0:
171,117,53168,6,0,P|186:75|213:44,1,80,2|0,0:0|0:0,0:0:0:0:
295,252,53555,2,0,P|260:280|221:293,1,80,8|0,0:0|0:0,0:0:0:0:
271,103,53942,2,0,P|333:102|384:137,1,120,2|0,0:0|0:0,0:0:0:0:
403,199,54329,2,0,P|435:170|474:164,1,80,8|0,0:0|0:0,0:0:0:0:
414,321,54716,6,0,B|393:342|393:342|347:323|304:339,2,120,2|0|0,0:0|0:0|0:0,0:0:0:0:
436,150,55490,1,2,3:2:0:0:
417,124,55586,1,0,3:2:0:0:
392,104,55683,1,0,3:2:0:0:
362,93,55780,1,0,3:2:0:0:
330,98,55877,2,0,B|310:107|289:96|289:96|266:110|266:110|246:99|216:105,1,120,8|0,0:0|0:0,0:0:0:0:
150,127,56264,6,0,B|131:151|131:151|147:174|147:174|123:224|142:272,1,160,6|8,0:0|0:0,0:0:0:0:
274,227,56845,1,0,0:0:0:0:
167,341,57039,2,0,P|216:373|275:382,1,120,2|0,0:0|0:0,0:0:0:0:
344,365,57426,1,8,0:0:0:0:
220,284,57619,1,0,0:0:0:0:
325,144,57813,6,0,P|332:105|323:66,1,80,2|0,0:0|0:0,0:0:0:0:
186,180,58200,2,0,P|178:219|187:258,1,80,8|0,0:0|0:0,0:0:0:0:
325,366,58587,2,0,P|332:327|323:288,1,80,2|0,0:0|0:0,0:0:0:0:
294,224,58877,1,0,0:0:0:0:
292,218,58974,2,0,P|324:195|363:186,1,80,8|0,0:0|0:0,0:0:0:0:
247,357,59361,6,0,P|212:340|185:311,1,80,2|0,0:0|0:0,0:0:0:0:
182,302,59652,1,0,0:0:0:0:
181,294,59748,1,8,0:0:0:0:
322,212,59942,1,0,0:0:0:0:
191,117,60135,2,0,P|133:129|89:167,1,120,2|0,0:0|0:0,0:0:0:0:
61,233,60522,1,8,0:0:0:0:
188,248,60716,1,0,0:0:0:0:
94,70,60910,6,0,P|117:37|151:17,1,80,2|0,0:0|0:0,0:0:0:0:
158,17,61200,1,0,0:0:0:0:
165,17,61297,1,8,0:0:0:0:
310,62,61490,1,0,0:0:0:0:
198,166,61684,5,2,3:2:0:0:
191,197,61780,1,0,3:2:0:0:
192,229,61877,1,0,3:2:0:0:
199,260,61974,1,0,3:2:0:0:
213,288,62071,1,8,3:2:0:0:
233,313,62167,1,0,3:2:0:0:
259,333,62264,1,0,3:2:0:0:
287,347,62361,1,0,3:2:0:0:
319,345,62458,6,0,B|341:315|341:315|400:341|467:315,1,160,6|8,0:0|0:0,0:0:0:0:
403,149,63039,1,0,0:0:0:0:
279,278,63232,2,0,P|240:233|221:177,1,120,2|0,0:0|0:0,0:0:0:0:
229,107,63619,1,8,0:0:0:0:
406,219,63813,1,0,0:0:0:0:
199,300,64006,6,0,P|159:300|122:285,1,80,2|0,0:0|0:0,0:0:0:0:
313,160,64393,2,0,P|353:160|390:175,1,80,8|0,0:0|0:0,0:0:0:0:
215,183,64781,2,0,P|214:143|229:106,1,80,2|0,0:0|0:0,0:0:0:0:
284,278,65168,1,8,0:0:0:0:
142,178,65361,1,0,0:0:0:0:
138,174,65458,1,0,0:0:0:0:
134,170,65555,5,2,0:0:0:0:
369,107,65748,2,0,L|405:86,2,40,0|0|8,0:0|0:0|0:0,0:0:0:0:
223,287,66135,1,0,0:0:0:0:
219,291,66232,1,0,0:0:0:0:
215,295,66329,1,2,0:0:0:0:
229,53,66522,2,0,L|220:12,2,40,0|0|8,0:0|0:0|0:0,0:0:0:0:
353,249,66910,1,0,0:0:0:0:
357,253,67006,1,0,0:0:0:0:
361,257,67103,6,0,L|372:309,3,40,6|0|0|0,0:0|0:0|0:0|0:0,0:0:0:0:
294,306,67490,2,0,L|305:358,3,40,6|0|0|0,0:0|0:0|0:0|0:0,0:0:0:0:
215,295,67877,2,0,L|220:328,14,20,6|0|0|0|0|0|0|0|0|0|0|0|0|0|0,0:0|0:0|0:0|0:0|0:0|0:0|0:0|0:0|0:0|0:0|0:0|0:0|0:0|0:0|0:0,0:0:0:0:
210,291,68652,6,0,B|177:290|169:260|169:260|143:256|143:256|123:215|87:200,1,160,6|8,0:0|0:0,0:0:0:0:
75,359,69232,1,0,0:0:0:0:
189,188,69426,2,0,B|237:149|237:149|297:142,1,120,2|0,0:0|0:0,0:0:0:0:
360,167,69813,1,8,0:0:0:0:
377,303,70006,1,0,0:0:0:0:
223,249,70200,6,0,L|186:273,1,40,2|0,0:0|0:0,0:0:0:0:
215,340,70393,1,0,0:0:0:0:
231,158,70587,2,0,B|234:118|234:118|254:84,1,80,8|0,0:0|0:0,0:0:0:0:
398,157,70974,2,0,B|410:180|392:197|392:197|409:218|409:218|385:259|399:306,1,160,2|8,0:0|0:0,0:0:0:0:
270,208,71555,1,0,0:0:0:0:
129,376,71748,5,2,0:0:0:0:
18,277,71942,1,0,0:0:0:0:
228,265,72135,1,8,0:0:0:0:
129,376,72329,1,0,0:0:0:0:
117,166,72522,6,0,L|77:181,1,40,2|0,0:0|0:0,0:0:0:0:
23,136,72716,1,0,0:0:0:0:
236,117,72910,1,8,0:0:0:0:
228,265,73104,1,0,0:0:0:0:
165,111,73297,6,0,B|182:53|182:53|216:4,2,120,2|0|0,0:0|0:0|0:0,0:0:0:0:
228,265,74071,2,0,B|210:321|210:321|175:370,2,120,2|0|0,0:0|0:0|0:0,0:0:0:0:
257,129,74845,6,0,L|301:122,1,40,2|0,0:0|0:0,0:0:0:0:
253,133,75039,2,0,B|264:170|264:170|295:199,1,80,0|8,0:0|0:0,0:0:0:0:
408,186,75426,1,0,0:0:0:0:
488,266,75619,2,0,B|476:329|476:329|438:374,1,120,2|0,0:0|0:0,0:0:0:0:
416,375,76006,1,8,0:0:0:0:
304,311,76200,1,0,0:0:0:0:
408,186,76393,6,0,B|446:177|446:177|493:180,2,80,2|0|8,0:0|0:0|0:0,0:0:0:0:
304,311,76974,1,0,0:0:0:0:
267,156,77168,1,2,0:0:0:0:
189,293,77361,1,0,0:0:0:0:
385,343,77555,2,0,B|388:304|388:304|379:264,1,80,8|0,0:0|0:0,0:0:0:0:
267,156,77942,6,0,B|255:130|255:130|286:63|255:0,1,160,2|8,0:0|0:0,0:0:0:0:
128,77,78522,1,0,0:0:0:0:
205,218,78716,5,2,0:0:0:0:
389,132,78910,1,0,0:0:0:0:
307,218,79103,1,8,0:0:0:0:
123,132,79297,1,0,0:0:0:0:
127,281,79490,6,0,L|139:243,3,40,2|0|0|0,0:0|0:0|0:0|0:0,0:0:0:0:
194,320,79877,2,0,L|207:357,3,40,10|0|0|0,0:0|0:0|0:0|0:0,0:0:0:0:
213,245,80264,5,2,0:0:0:0:
239,225,80360,1,0,0:0:0:0:
269,214,80457,1,2,0:0:0:0:
301,214,80554,1,0,0:0:0:0:
334,230,80651,5,8,0:0:0:0:
348,196,80747,1,0,0:0:0:0:
372,169,80844,1,2,0:0:0:0:
404,151,80941,1,0,0:0:0:0:
443,158,81039,5,2,0:0:0:0:
308,153,87232,6,0,P|325:185|329:224,1,60.0000022888184,6|0,0:0|0:0,0:0:0:0:
411,128,87619,2,0,P|438:108|473:102,1,60.0000022888184,8|0,0:0|0:0,0:0:0:0:
424,259,88006,2,0,P|384:301|326:316,1,120.000004577637,0|8,0:0|0:0,0:0:0:0:
282,121,88587,1,0,0:0:0:0:
239,273,88781,6,0,P|195:278|163:266,1,60.0000022888184,2|0,0:0|0:0,0:0:0:0:
177,90,89168,2,0,P|203:125|209:159,1,60.0000022888184,8|0,0:0|0:0,0:0:0:0:
91,221,89555,2,0,P|108:180|134:158,1,60.0000022888184
239,273,89942,2,0,P|281:291|342:280,1,90.0000034332277,8|0,0:0|0:0,0:0:0:0:
384,249,90329,6,0,L|375:189,1,60.0000022888184,2|0,0:0|0:0,0:0:0:0:
278,98,90716,2,0,L|269:157,1,60.0000022888184,8|0,0:0|0:0,0:0:0:0:
192,319,91103,2,0,L|184:259,1,60.0000022888184,0|0,0:0|0:2,0:0:0:0:
128,125,91490,2,0,P|129:139|132:154,1,30.0000011444092,8|0,3:2|3:2,3:2:0:0:
238,207,91684,2,0,P|241:192|242:177,1,30.0000011444092,0|0,3:2|3:2,3:2:0:0:
190,82,91877,5,2,0:0:0:0:
190,82,93426,6,0,P|236:74|287:82,1,80,6|0,0:0|0:0,0:0:0:0:
285,278,93813,2,0,P|259:248|242:213,1,80,8|0,0:0|0:0,0:0:0:0:
331,35,94200,2,0,P|390:102|388:186,1,160,0|8,0:0|0:0,0:0:0:0:
252,64,94781,1,0,0:0:0:0:
270,213,94974,6,0,P|252:248|226:278,1,80,2|0,0:0|0:0,0:0:0:0:
155,101,95361,2,0,P|194:98|233:105,1,80,8|0,0:0|0:0,0:0:0:0:
157,242,95748,1,0,0:0:0:0:
80,138,95942,1,0,0:0:0:0:
129,312,96135,1,8,0:0:0:0:
214,191,96329,1,0,0:0:0:0:
272,348,96522,6,0,P|305:369|344:377,1,80,2|0,0:0|0:0,0:0:0:0:
446,262,96910,2,0,P|412:240|373:232,1,80,8|0,0:0|0:0,0:0:0:0:
215,305,97297,2,0,P|189:245|217:153,1,160,0|8,0:0|0:0,0:0:0:0:
324,292,97877,1,0,0:0:0:0:
412,163,98071,6,0,P|393:129|364:101,1,80,2|0,0:0|0:0,0:0:0:0:
262,236,98458,2,0,P|215:272|157:281,1,120,8|0,0:0|0:0,0:0:0:0:
135,269,98845,1,0,0:0:0:0:
179,171,99039,1,0,0:0:0:0:
262,236,99232,1,8,0:0:0:0:
303,332,99426,1,0,0:0:0:0:
326,139,99619,6,0,P|338:102|361:69,1,80,2|0,0:0|0:0,0:0:0:0:
395,238,100006,2,0,P|382:275|359:308,1,80,8|0,0:0|0:0,0:0:0:0:
216,180,100393,2,0,P|182:157|145:144,1,80
129,144,100684,1,0,0:0:0:0:
114,151,100781,2,0,P|106:190|88:225,1,80,8|0,0:0|0:0,0:0:0:0:
34,24,101168,6,0,P|73:18|111:27,1,80,2|0,0:0|0:0,0:0:0:0:
180,193,101555,2,0,P|143:178|114:151,1,80,8|0,0:0|0:0,0:0:0:0:
288,139,101942,2,0,P|312:169|323:207,1,80
329,224,102232,1,0,0:0:0:0:
332,240,102329,2,0,P|371:234|409:243,1,80,8|0,0:0|0:0,0:0:0:0:
281,355,102716,6,0,B|254:366|254:366|232:349|232:349|186:366|132:347,1,160,2|8,0:0|0:0,0:0:0:0:
43,230,103297,1,0,0:0:0:0:
188,210,103490,2,0,P|195:132|151:66,1,160,0|8,0:0|0:0,0:0:0:0:
69,166,104071,1,0,0:0:0:0:
256,237,104264,5,2,3:2:0:0:
255,36,104458,1,0,3:2:0:0:
69,166,104652,1,8,3:2:0:0:
256,237,104845,1,0,3:2:0:0:
120,36,105039,6,0,L|64:26,1,40,2|0,3:2|3:2,3:2:0:0:
119,111,105232,2,8,L|175:121,1,40,0|0,3:2|3:2,3:2:0:0:
69,166,105426,5,8,3:2:0:0:
61,197,105522,1,0,3:2:0:0:
60,229,105619,1,8,3:2:0:0:
63,260,105716,1,0,3:2:0:0:
72,291,105813,5,6,0:2:0:0:
212,99,106200,1,8,0:2:0:0:
273,176,106393,2,0,P|219:197|161:184,1,120.000004577637,2|2,0:0|0:0,0:0:0:0:
212,99,106974,1,8,0:2:0:0:
331,261,107361,5,2,0:2:0:0:
359,350,107555,1,2,0:0:0:0:
422,281,107748,1,8,0:2:0:0:
393,191,107942,2,0,B|405:109|405:109|435:132,1,120.000004577637,2|2,0:0|0:0,0:0:0:0:
422,281,108522,1,8,0:2:0:0:
160,141,108910,6,0,P|130:145|101:153,1,60.0000022888184,2|2,0:2|0:0,0:2:0:0:
164,224,109298,1,8,0:2:0:0:
257,233,109490,1,2,0:0:0:0:
160,141,109685,2,0,P|99:154|43:181,1,120.000004577637,2|8,0:0|0:2,0:2:0:0:
317,201,110458,5,2,0:2:0:0:
353,62,110651,1,2,0:0:0:0:
246,253,110845,1,8,0:2:0:0:
385,289,111038,1,2,0:0:0:0:
194,182,111232,5,2,0:2:0:0:
158,321,111425,1,2,0:0:0:0:
265,130,111619,1,8,0:2:0:0:
126,94,111812,1,2,0:0:0:0:
148,241,112006,6,0,L|159:331,1,80,6|0,0:0|0:0,0:0:0:0:
265,130,112393,2,0,L|275:50,1,80,8|0,0:0|0:0,0:0:0:0:
375,209,112780,2,0,L|386:299,1,80
484,113,113168,2,0,P|437:77|378:65,1,120,8|0,0:0|0:0,0:0:0:0:
310,82,113555,6,0,P|307:119|288:158,1,80,6|0,0:0|0:0,0:0:0:0:
121,77,113942,2,0,P|160:76|198:89,1,80,8|0,0:0|0:0,0:0:0:0:
254,268,114329,2,0,L|244:306,1,40,2|0,0:0|0:0,0:0:0:0:
164,305,114522,2,0,L|136:332,1,40,2|0,0:0|0:0,0:0:0:0:
187,230,114716,2,0,L|178:191,1,40,10|0,0:0|0:0,0:0:0:0:
257,185,114909,2,0,L|268:146,1,40,2|0,0:0|0:0,0:0:0:0:
324,52,115103,5,6,0:0:0:0:
340,354,115297,1,6,0:0:0:0:
419,197,115684,5,0,0:0:0:0:
149,59,115877,1,6,0:0:0:0:
164,360,116070,1,6,0:0:0:0:
256,192,116458,5,0,0:0:0:0:
324,52,116651,1,6,0:0:0:0:
69,216,117038,1,6,0:0:0:0:
340,354,117426,1,6,0:0:0:0:
364,110,117813,5,2,0:0:0:0:
262,91,118006,2,0,L|260:61,3,20,0|0|0|0,3:0|3:0|3:0|3:0,3:0:0:0:
266,95,118200,6,0,B|270:138|270:138|208:149|188:222,1,160,6|8,0:0|0:0,0:0:0:0:
164,363,118781,1,0,0:0:0:0:
285,237,118974,2,0,P|339:243|402:299,1,120,2|0,0:0|0:0,0:0:0:0:
417,346,119361,1,8,0:0:0:0:
230,281,119555,1,0,0:0:0:0:
398,98,119748,6,0,P|426:135|435:184,1,80,2|0,0:0|0:0,0:0:0:0:
436,174,120039,1,0,0:0:0:0:
436,181,120135,1,8,0:0:0:0:
267,66,120329,1,0,0:0:0:0:
168,190,120522,2,0,P|108:202|82:155,1,120,2|0,0:0|0:0,0:0:0:0:
89,87,120910,1,8,0:0:0:0:
77,272,121103,1,0,0:0:0:0:
267,66,121297,6,0,B|295:55|295:55|314:74|314:74|364:48|420:76,1,160,2|8,0:0|0:0,0:0:0:0:
366,211,121877,1,0,0:0:0:0:
208,122,122071,2,0,P|145:124|95:158,1,120,2|0,0:0|0:0,0:0:0:0:
76,221,122458,1,8,0:0:0:0:
194,318,122652,1,0,0:0:0:0:
280,144,122845,6,0,B|289:112|289:112|255:74|272:11,2,120,2|0|0,0:0|0:0|0:0,0:0:0:0:
194,318,123619,1,2,0:0:0:0:
167,302,123715,1,0,0:0:0:0:
145,278,123812,1,2,0:0:0:0:
131,249,123909,1,0,0:0:0:0:
133,212,124006,5,8,0:0:0:0:
96,213,124102,1,0,0:0:0:0:
61,203,124199,1,2,0:0:0:0:
32,181,124296,1,0,0:0:0:0:
18,147,124393,6,0,P|21:87|108:58,1,160,6|8,0:0|0:0,0:0:0:0:
131,249,124974,1,0,0:0:0:0:
169,90,125168,2,0,P|222:51|286:43,1,120,2|0,0:0|0:0,0:0:0:0:
342,61,125555,1,8,0:0:0:0:
170,160,125748,1,0,0:0:0:0:
338,258,125942,6,0,P|348:300|341:339,1,80,2|0,0:0|0:0,0:0:0:0:
174,237,126329,2,0,P|164:195|171:156,1,80,8|0,0:0|0:0,0:0:0:0:
348,109,126716,2,0,P|296:138|237:136,1,120,2|0,0:0|0:0,0:0:0:0:
183,91,127103,1,8,0:0:0:0:
24,167,127297,1,0,0:0:0:0:
174,237,127490,6,0,B|213:251|213:251|259:211|323:220,1,160,2|8,0:0|0:0,0:0:0:0:
382,354,128071,1,0,0:0:0:0:
467,238,128264,2,0,P|459:176|430:124,2,120,2|0|0,0:0|0:0|0:0,0:0:0:0:
313,380,129039,6,0,P|280:346|264:307,1,80,2|0,0:0|0:0,0:0:0:0:
242,251,129329,1,0,0:0:0:0:
240,245,129426,2,0,P|200:252|166:272,1,80,8|0,0:0|0:0,0:0:0:0:
180,87,129813,2,0,L|192:7,1,80,2|0,0:0|0:0,0:0:0:0:
320,131,130200,5,8,3:2:0:0:
330,161,130296,1,0,3:2:0:0:
334,192,130393,1,0,3:2:0:0:
331,224,130490,1,0,3:2:0:0:
318,258,130587,6,0,P|256:271|288:216,1,160,6|6,0:0|0:0,0:0:0:0:
270,361,131103,6,0,P|245:356|221:343,1,53.3333333333333,6|6,0:0|0:0,0:0:0:0:
176,277,131361,1,6,0:0:0:0:
333,127,131748,5,2,0:0:0:0:
347,24,131942,2,0,L|343:3,3,20,0|0|0|0,3:0|3:0|3:0|3:0,3:0:0:0:
352,27,132135,6,0,B|385:29|385:29|410:67|462:78,2,120,6|0|0,0:0|0:0|0:0,0:0:0:0:
176,87,132910,1,2,0:0:0:0:
176,87,133297,1,8,0:0:0:0:
286,236,133490,1,0,0:0:0:0:
104,205,133684,6,0,P|98:166|107:127,1,80,2|0,0:0|0:0,0:0:0:0:
192,297,134071,2,0,P|160:321|122:333,1,80,8|0,0:0|0:0,0:0:0:0:
228,175,134458,2,0,P|279:201|313:260,1,120,2|0,0:0|0:0,0:0:0:0:
314,323,134845,2,0,P|368:295|413:304,1,80,8|0,0:0|0:0,0:0:0:0:
354,131,135232,6,0,B|324:93|287:84|287:84|282:44,2,120,2|0|0,0:0|0:0|0:0,0:0:0:0:
387,295,136006,1,2,3:2:0:0:
359,311,136102,1,0,3:2:0:0:
329,321,136199,1,0,3:2:0:0:
297,324,136296,1,0,3:2:0:0:
266,319,136393,2,0,B|244:311|221:322|221:322|209:309|209:309|182:324|155:316,1,120,8|0,0:0|0:0,0:0:0:0:
88,293,136781,6,0,B|69:269|69:269|85:246|85:246|61:196|80:148,1,160,6|8,0:0|0:0,0:0:0:0:
149,20,137361,1,0,0:0:0:0:
217,182,137555,2,0,P|259:208|344:211,1,120,2|0,0:0|0:0,0:0:0:0:
392,185,137942,1,8,0:0:0:0:
317,54,138135,1,0,0:0:0:0:
138,169,138329,6,0,P|128:209|137:254,1,80,2|0,0:0|0:0,0:0:0:0:
313,131,138716,2,0,P|323:91|314:46,1,80,8|0,0:0|0:0,0:0:0:0:
225,203,139103,2,0,P|236:242|266:277,1,80,2|0,0:0|0:0,0:0:0:0:
320,309,139393,1,0,0:0:0:0:
326,311,139490,2,0,P|357:286|395:275,1,80,8|0,0:0|0:0,0:0:0:0:
287,383,139877,6,0,P|250:370|222:342,1,80,2|0,0:0|0:0,0:0:0:0:
219,333,140168,1,0,0:0:0:0:
218,325,140264,1,8,0:0:0:0:
297,175,140458,1,0,0:0:0:0:
356,350,140652,2,0,P|412:325|449:274,1,120,2|0,0:0|0:0,0:0:0:0:
456,210,141039,1,8,0:0:0:0:
295,272,141232,1,0,0:0:0:0:
319,86,141426,6,0,P|348:55|394:38,1,80,2|0,0:0|0:0,0:0:0:0:
389,40,141716,1,0,0:0:0:0:
396,41,141813,1,8,0:0:0:0:
340,200,142006,1,0,0:0:0:0:
193,86,142200,1,2,0:0:0:0:
217,272,142394,1,0,0:0:0:0:
319,86,142587,1,8,0:0:0:0:
295,272,142781,1,0,0:0:0:0:
133,134,142974,6,0,B|81:113|28:124|28:124|30:95|52:79,1,160,6|8,0:0|0:0,0:0:0:0:
191,22,143555,1,0,0:0:0:0:
205,186,143748,2,0,P|219:243|256:289,1,120,2|0,0:0|0:0,0:0:0:0:
316,328,144135,1,8,0:0:0:0:
352,181,144329,1,0,0:0:0:0:
198,109,144522,6,0,P|158:105|118:109,1,80,2|0,0:0|0:0,0:0:0:0:
216,276,144910,2,0,P|256:280|296:276,1,80,8|0,0:0|0:0,0:0:0:0:
393,108,145297,2,0,P|353:105|314:109,1,80,2|0,0:0|0:0,0:0:0:0:
159,211,145684,1,8,0:0:0:0:
358,234,145877,1,0,0:0:0:0:
364,236,145974,1,0,0:0:0:0:
370,238,146071,5,2,0:0:0:0:
197,46,146264,2,0,L|177:1,2,40,0|0|8,0:0|0:0|0:0,0:0:0:0:
227,301,146651,1,0,0:0:0:0:
229,307,146748,1,0,0:0:0:0:
231,313,146845,1,2,0:0:0:0:
360,78,147038,2,0,L|397:48,2,40,0|0|8,0:0|0:0|0:0,0:0:0:0:
130,188,147426,1,0,0:0:0:0:
124,190,147522,1,0,0:0:0:0:
118,192,147619,6,0,P|69:312|187:368,1,287.999991210938,6|0,0:0|0:0,0:0:0:0:
226,158,149168,6,0,B|215:119|215:119|225:77,1,80,6|0,0:0|0:0,0:0:0:0:
339,32,149555,2,0,L|389:22,1,40,8|0,0:0|0:0,0:0:0:0:
452,53,149748,2,0,B|471:89|471:89|447:113|447:113|494:182|441:271,1,240,0|8,0:0|0:0,0:0:0:0:
342,186,150522,1,0,0:0:0:0:
198,297,150716,6,0,L|152:304,1,40,2|0,0:0|0:0,0:0:0:0:
100,249,150910,1,0,0:0:0:0:
151,88,151103,1,8,0:0:0:0:
172,100,151199,1,0,0:0:0:0:
195,107,151296,1,0,0:0:0:0:
219,111,151393,1,0,0:0:0:0:
243,110,151490,1,2,0:0:0:0:
342,186,151684,2,0,P|332:260|402:298,1,160,2|0,0:0|0:0,0:0:0:0:
438,135,152264,6,0,B|411:81|411:81|364:44,1,120,2|0,0:0|0:0,0:0:0:0:
299,17,152652,1,8,0:0:0:0:
342,186,152845,2,0,B|315:239|315:239|268:276,1,120,2|0,0:0|0:0,0:0:0:0:
202,304,153233,1,2,0:0:0:0:
116,238,153426,1,8,0:0:0:0:
39,316,153619,1,0,0:0:0:0:
78,123,153813,6,0,B|116:112|116:112|156:111,1,80,2|0,0:0|0:0,0:0:0:0:
163,114,154103,1,0,0:0:0:0:
169,118,154200,1,8,0:0:0:0:
232,264,154393,2,0,B|253:275|253:275|280:259|280:259|323:295|378:282,1,160,2|2,0:0|0:0,0:0:0:0:
353,171,154974,1,8,0:0:0:0:
403,69,155168,1,0,0:0:0:0:
449,202,155361,6,0,B|459:225|459:225|441:249|441:249|471:292|457:348,1,160,2|8,0:0|0:0,0:0:0:0:
327,236,155942,1,0,0:0:0:0:
213,353,156135,2,0,B|174:349|174:349|145:322,1,80,2|0,0:0|0:0,0:0:0:0:
112,258,156426,2,0,P|88:310|32:320,1,120,2|0,0:0|0:0,0:0:0:0:
60,108,156910,6,0,B|101:66|101:66|166:63,1,120,2|0,0:0|0:0,0:0:0:0:
233,64,157297,1,8,0:0:0:0:
176,169,157490,1,0,0:0:0:0:
296,159,157684,2,0,B|313:185|313:185|291:206|291:206|326:255|306:309,1,160,2|8,0:0|0:0,0:0:0:0:
192,354,158264,1,0,0:0:0:0:
185,194,158458,5,2,0:0:0:0:
181,186,158554,1,0,0:0:0:0:
177,178,158651,1,0,0:0:0:0:
173,170,158748,1,0,0:0:0:0:
150,147,158845,5,8,0:0:0:0:
154,139,158941,1,0,0:0:0:0:
158,131,159038,1,0,0:0:0:0:
162,123,159135,1,0,0:0:0:0:
188,104,159232,6,0,L|181:64,1,40,2|0,0:0|0:0,0:0:0:0:
273,152,159426,2,0,L|266:192,1,40,2|0,0:0|0:0,0:0:0:0:
355,99,159619,2,0,L|348:59,1,40,10|0,0:0|0:0,0:0:0:0:
365,195,159813,2,0,B|359:234|359:234|339:269,1,80,2|0,0:0|0:0,0:0:0:0:
233,359,160200,6,0,P|198:293|123:305,1,160,2|0,0:0|0:0,0:0:0:0:
104,135,160781,2,0,B|111:76|111:76|145:26,2,120,2|0|0,0:0|0:0|0:0,0:0:0:0:
140,320,161555,6,0,P|181:271|119:273,1,160,6|6,0:0|0:0,0:0:0:0:
252,335,162071,6,0,P|260:310|262:284,1,53.3333333333333,6|6,0:0|0:0,0:0:0:0:
229,210,162329,1,6,0:0:0:0:
364,99,162716,5,2,0:0:0:0:
274,46,162910,2,0,L|277:23,3,20
270,50,163103,6,0,B|261:79|279:101|279:101|261:122|261:122|283:154|268:197,1,160,6|8,0:0|0:0,0:0:0:0:
222,323,163684,2,0,L|186:307,1,40
125,270,163877,2,0,B|107:252|107:252|127:204|108:158,2,120,2|0|0,0:0|0:0|0:0,0:0:0:0:
279,310,164652,5,2,0:0:0:0:
353,70,164942,1,0,0:0:0:0:
414,314,165232,1,0,0:0:0:0:
261,201,165426,2,0,B|226:181|226:181|187:176,1,80,2|0,0:0|0:0,0:0:0:0:
147,306,165813,2,0,B|107:301|107:301|73:281,1,80,8|0,0:0|0:0,0:0:0:0:
69,277,166103,1,0,0:0:0:0:
65,273,166200,6,0,B|54:247|54:247|70:223|70:223|53:203|53:203|63:191|63:191|25:132|61:55,1,240,2|0,0:0|0:0,0:0:0:0:
168,213,166974,2,0,B|206:258|206:258|268:277,1,120,2|0,0:0|0:0,0:0:0:0:
334,286,167361,1,8,0:0:0:0:
199,352,167555,1,0,0:0:0:0:
256,175,167748,6,0,B|264:157|264:157|248:134|248:134|267:99|256:63,1,120,2|0,0:0|0:0,0:0:0:0:
228,0,168135,1,8,0:0:0:0:
162,87,168329,2,0,B|112:120|112:120|52:115,1,120,2|0,0:0|0:0,0:0:0:0:
3,65,168716,1,2,0:0:0:0:
168,186,168910,2,0,L|181:226,1,40,10|0,0:0|0:0,0:0:0:0:
108,268,169103,2,0,L|95:308,1,40,2|0,0:0|0:0,0:0:0:0:
208,323,169297,5,2,0:0:0:0:
216,319,169393,1,0,0:0:0:0:
224,315,169490,1,0,0:0:0:0:
232,311,169587,1,0,0:0:0:0:
252,286,169684,5,8,0:0:0:0:
256,278,169780,1,0,0:0:0:0:
260,270,169877,1,0,0:0:0:0:
264,262,169974,1,0,0:0:0:0:
247,235,170071,5,2,0:0:0:0:
243,227,170167,1,0,0:0:0:0:
239,219,170264,1,0,0:0:0:0:
235,211,170361,1,0,0:0:0:0:
252,184,170458,5,8,0:0:0:0:
256,176,170554,1,0,0:0:0:0:
260,168,170651,1,0,0:0:0:0:
264,160,170748,1,0,0:0:0:0:
240,138,170845,6,0,L|228:91,3,40,2|0|2|0,0:0|0:0|0:0|0:0,0:0:0:0:
173,162,171232,2,0,L|185:209,3,40,8|0|0|0,0:0|0:0|0:0|0:0,0:0:0:0:
139,99,171619,5,2,0:0:0:0:
121,82,171715,1,0,0:0:0:0:
100,71,171812,1,2,0:0:0:0:
76,68,171909,1,0,0:0:0:0:
53,73,172006,1,8,0:0:0:0:
32,84,172102,1,0,0:0:0:0:
16,102,172199,1,0,0:0:0:0:
6,124,172296,1,0,0:0:0:0:
6,148,172393,6,0,B|14:190|14:190|36:221,1,80,2|0,0:0|0:0,0:0:0:0:
87,269,172684,1,0,0:0:0:0:
91,273,172781,2,0,L|65:329,3,40,10|0|0|0,0:0|0:0|0:0|0:0,0:0:0:0:
143,224,173168,6,0,B|179:229|179:229|215:253,1,80,2|0,0:0|0:0,0:0:0:0:
271,296,173458,1,0,0:0:0:0:
275,300,173555,2,0,L|273:352,3,40,10|0|0|0,0:0|0:0|0:0|0:0,0:0:0:0:
281,226,173942,6,0,B|290:168|290:168|317:114,1,120,2|0,0:0|0:0,0:0:0:0:
333,95,174329,1,8,0:0:0:0:
354,83,174426,2,0,B|377:115|377:115|415:131,1,80
416,227,174716,2,0,B|404:266,1,40,2|0,0:0|0:0,0:0:0:0:
307,266,174910,2,0,B|270:282,1,40
199,218,175103,1,8,0:0:0:0:
201,212,175200,2,0,B|206:171|206:171|190:128,1,80,2|0,0:0|0:0,0:0:0:0:
154,76,175490,6,0,B|115:81|115:81|87:113,1,80,2|2,0:0|0:0,0:0:0:0:
124,208,175877,1,10,0:0:0:0:
83,302,176071,2,0,B|159:328|159:328|234:304,1,160,2|0,0:0|0:0,0:0:0:0:
354,252,176652,2,0,B|368:288|368:288|363:328,1,80,10|0,0:0|0:0,0:0:0:0:
256,150,177039,6,0,B|294:104|294:104|348:77,2,120,2|0|0,0:0|0:0|0:0,0:0:0:0:
256,286,177813,2,0,B|217:331|217:331|163:358,2,120,2|0|0,0:0|0:0|0:0,0:0:0:0:
322,133,178587,6,0,L|313:93,1,40,2|0,0:0|0:0,0:0:0:0:
232,177,178781,2,0,L|223:216,1,40,2|0,0:0|0:0,0:0:0:0:
146,121,178974,2,0,L|137:81,1,40,2|0,0:0|0:0,0:0:0:0:
77,200,179168,2,0,L|68:239,1,40,2|0,0:0|0:0,0:0:0:0:
183,324,179361,6,0,L|174:362,3,40,2|0|0|0,0:0|0:0|0:0|0:0,0:0:0:0:
250,350,179748,2,0,L|245:369,7,20
256,336,180135,5,6,0:2:0:0:
137,116,180522,1,8,0:2:0:0:
234,100,180715,2,0,P|224:158|184:201,1,120.000004577637,2|2,0:0|0:0,0:0:0:0:
137,116,181296,1,8,0:2:0:0:
277,286,181684,5,2,0:2:0:0:
366,314,181878,1,2,0:0:0:0:
435,251,182071,1,8,0:2:0:0:
345,222,182264,2,0,B|269:190|269:190|298:166,1,120.000004577637,2|2,0:0|0:0,0:0:0:0:
435,251,182845,1,8,0:2:0:0:
269,93,183232,6,0,P|248:71|224:53,1,60.0000022888184,2|2,0:2|0:0,0:2:0:0:
205,147,183620,1,8,0:2:0:0:
254,227,183813,1,2,0:0:0:0:
269,93,184007,2,0,P|225:53|173:25,1,120.000004577637,2|8,0:0|0:2,0:2:0:0:
304,230,184781,5,2,0:2:0:0:
405,127,184974,1,2,0:0:0:0:
216,238,185168,1,8,0:2:0:0:
319,340,185361,1,2,0:0:0:0:
207,152,185555,5,2,0:2:0:0:
106,254,185748,1,2,0:0:0:0:
294,142,185942,1,8,0:2:0:0:
192,42,186135,1,2,0:0:0:0:
178,220,186329,6,0,L|171:299,1,80,6|0,0:0|0:0,0:0:0:0:
258,87,186716,2,0,L|192:42,1,80,8|0,0:0|0:0,0:0:0:0:
333,222,187103,2,0,L|404:187,1,80
185,135,187490,2,0,P|163:191|180:269,1,120,8|0,0:0|0:0,0:0:0:0:
188,317,187877,6,0,L|112:289,1,80,6|0,0:0|0:0,0:0:0:0:
398,188,188264,2,0,L|411:267,1,80,8|0,0:0|0:0,0:0:0:0:
181,70,188652,2,0,L|243:19,1,80
329,284,189039,2,0,P|303:341|241:359,1,120,8|0,0:0|0:0,0:0:0:0:
184,342,189426,5,6,0:0:0:0:
228,40,189620,1,6,0:0:0:0:
398,69,190007,5,0,0:0:0:0:
118,177,190200,1,6,0:0:0:0:
353,368,190393,1,6,0:0:0:0:
256,192,190781,5,0,0:0:0:0:
184,342,190974,1,6,0:0:0:0:
228,40,191361,1,6,0:0:0:0:
465,232,191749,1,6,0:0:0:0:
190,217,192135,5,2,0:0:0:0:
228,119,192329,2,0,L|201:110,4,20,0|0|0|0|2,3:2|3:2|3:2|3:2|3:2,3:2:0:0:
380,27,198716,6,0,B|390:52|376:77|376:77|392:122|375:162|375:162|363:192|391:213|391:213|416:198|408:167,1,240,2|0,0:0|0:0,0:0:0:0:
270,118,200264,2,0,L|189:148,2,80,2|0|0,0:0|0:0|0:0,0:0:0:0:
277,219,201426,1,0,0:0:0:0:
277,252,201619,1,0,0:0:0:0:
274,285,201813,6,0,B|270:315|280:337|280:337|211:334|172:369|152:379|152:379|161:330,1,240,2|0,0:0|0:0,0:0:0:0:
185,165,203361,2,0,L|157:88,2,80,2|0|0,0:0|0:0|0:0,0:0:0:0:
34,187,204522,1,0,0:0:0:0:
138,308,204910,6,0,P|179:259|117:261,1,160,6|6,0:0|0:0,0:0:0:0:
249,324,205426,6,0,P|257:299|259:273,1,53.3333333333333,6|6,0:0|0:0,0:0:0:0:
228,199,205684,1,6,0:0:0:0:
381,64,206458,6,0,P|359:32|324:13,1,80,6|0,0:0|0:0,0:0:0:0:
315,14,206748,1,0,0:0:0:0:
307,17,206845,1,8,0:0:0:0:
155,67,207039,1,0,0:0:0:0:
273,174,207232,2,0,P|274:234|224:269,1,120,2|0,0:0|0:0,0:0:0:0:
161,281,207619,1,8,0:0:0:0:
282,371,207813,1,0,0:0:0:0:
315,99,208006,6,0,P|304:60|280:28,1,80,2|0,0:0|0:0,0:0:0:0:
272,219,208393,2,0,P|310:227|350:223,1,80,8|0,0:0|0:0,0:0:0:0:
190,122,208780,2,0,P|153:166|146:234,1,120,2|0,0:0|0:0,0:0:0:0:
170,291,209167,2,0,P|132:284|94:295,1,80,8|0,0:0|0:0,0:0:0:0:
278,364,209555,6,0,B|326:382|373:363|373:363|397:388,2,120,2|0|0,0:0|0:0|0:0,0:0:0:0:
234,207,210329,1,2,0:0:0:0:
251,179,210425,1,0,0:0:0:0:
278,160,210522,1,2,0:0:0:0:
308,151,210619,1,0,0:0:0:0:
344,155,210716,5,8,0:0:0:0:
347,118,210812,1,0,0:0:0:0:
361,85,210909,1,2,0:0:0:0:
386,59,211006,1,0,0:0:0:0:
421,48,211103,6,0,P|492:68|500:143,1,160,6|8,0:0|0:0,0:0:0:0:
347,118,211684,1,0,0:0:0:0:
429,261,211877,2,0,P|421:319|379:361,1,120,2|0,0:0|0:0,0:0:0:0:
311,376,212264,1,8,0:0:0:0:
308,185,212458,1,0,0:0:0:0:
221,333,212652,6,0,P|186:351|146:355,1,80,2|0,0:0|0:0,0:0:0:0:
234,207,213039,2,0,P|268:187|308:185,1,80,8|0,0:0|0:0,0:0:0:0:
370,323,213426,2,0,P|349:289|348:250,1,80,2|0,0:0|0:0,0:0:0:0:
377,186,213716,1,0,0:0:0:0:
381,182,213813,2,0,P|414:161|433:126,1,80,8|0,0:0|0:0,0:0:0:0:
299,14,214200,6,0,P|266:35|247:70,1,80,2|0,0:0|0:0,0:0:0:0:
248,78,214490,1,0,0:0:0:0:
249,85,214587,1,8,0:0:0:0:
286,227,214781,1,0,0:0:0:0:
135,155,214974,2,0,P|75:171|45:232,1,120,2|0,0:0|0:0,0:0:0:0:
41,288,215361,1,8,0:0:0:0:
185,204,215555,1,0,0:0:0:0:
257,375,215748,6,0,P|296:380|335:371,1,80,2|0,0:0|0:0,0:0:0:0:
343,369,216039,1,0,0:0:0:0:
350,366,216135,1,8,0:0:0:0:
331,207,216329,1,0,0:0:0:0:
189,300,216522,1,2,0:0:0:0:
174,117,216716,1,0,0:0:0:0:
323,300,216910,1,8,0:0:0:0:
338,117,217104,1,0,0:0:0:0:
135,227,217297,6,0,B|103:255|103:255|134:302|112:368,1,160,6|8,0:0|0:0,0:0:0:0:
5,245,217877,1,0,0:0:0:0:
175,128,218071,2,0,P|224:171|241:222,1,120,2|0,0:0|0:0,0:0:0:0:
234,291,218458,1,8,0:0:0:0:
74,268,218652,1,0,0:0:0:0:
110,84,218845,6,0,P|113:44|106:4,1,80,2|0,0:0|0:0,0:0:0:0:
157,247,219232,2,0,P|153:286|160:326,1,80,8|0,0:0|0:0,0:0:0:0:
276,148,219619,2,0,P|279:108|272:68,1,80,2|0,0:0|0:0,0:0:0:0:
349,259,220006,1,8,0:0:0:0:
142,169,220200,1,0,0:0:0:0:
136,167,220297,1,0,0:0:0:0:
130,165,220394,5,2,0:0:0:0:
388,151,220587,2,0,L|433:133,2,40,0|0|8,0:0|0:0|0:0,0:0:0:0:
183,308,220974,1,0,0:0:0:0:
179,312,221071,1,0,0:0:0:0:
175,316,221168,1,2,0:0:0:0:
250,58,221361,2,0,L|245:10,2,40,0|0|8,0:0|0:0|0:0,0:0:0:0:
337,299,221749,1,0,0:0:0:0:
339,305,221845,1,0,0:0:0:0:
341,311,221942,6,0,L|351:357,3,40,2|0|0|0,0:0|0:0|0:0|0:0,0:0:0:0:
271,343,222329,2,0,L|281:389,3,40
232,280,222716,6,0,L|227:257,7,20,2|0|0|0|0|0|0|0,3:2|3:0|3:0|3:0|3:0|3:0|3:0|3:0,3:0:0:0:
168,310,223103,2,0,L|163:287,7,20,0|0|0|0|0|0|0|0,3:0|3:0|3:0|3:0|3:0|3:0|3:0|3:0,3:0:0:0:
164,331,223490,5,6,0:0:0:0:
210,32,225039,1,2,0:0:0:0:
394,115,225813,1,2,0:0:0:0:
256,192,226587,5,6,0:0:0:0:
256,192,226684,12,2,227942,0:0:0:0:
256,192,228135,5,6,0:0:0:0:
256,192,228232,12,0,230458,0:0:0:0:
