osu file format v14

[General]
AudioFilename: Shissou Suru Kanashimi no Naka de.mp3
AudioLeadIn: 1500
PreviewTime: 31490
Countdown: 0
SampleSet: Soft
StackLeniency: 0.3
Mode: 0
LetterboxInBreaks: 0
EpilepsyWarning: 1
WidescreenStoryboard: 1

[Editor]
DistanceSpacing: 1.3
BeatDivisor: 4
GridSize: 4
TimelineZoom: 1

[Metadata]
Title:Shissou Suru Kanashimi no Naka de
TitleUnicode:疾走する悲しみの中で
Artist:senya
ArtistUnicode:senya
Creator:-Mo-
Version:Hard
Source:艦隊これくしょん~艦これ~
Tags:Yuuhei Catharsis 幽閉カタルシス In The Midst Of Dashing Grief Kantai Collection~KanColle~ Collection KanColle 艦隊これくしょん 艦これ Kamase-tora かませ虎 HiZuMi ikuo 連合艦隊、西へ Mayumi Morinaga 森永真由美 Korekushon Combined Fleet C88
BeatmapID:772662
BeatmapSetID:347460

[Difficulty]
HPDrainRate:5.5
CircleSize:4
OverallDifficulty:6.3
ApproachRate:8
SliderMultiplier:1.5
SliderTickRate:1

[Events]
//Background and Video events
0,0,"C88Cover.jpg",0,0
//Break Periods
2,81239,86482
2,192722,197966
//Storyboard Layer 0 (Background)
//Storyboard Layer 1 (Fail)
//Storyboard Layer 2 (Pass)
//Storyboard Layer 3 (Foreground)
Sprite,Foreground,Centre,"SB\Ring.png",389,172 S,1,12910,15232,0.3,0.8 F,0,13297,15232,1,0
Sprite,Foreground,Centre,"SB\Ring.png",206,334 S,1,25297,27619,0.3,0.8 F,0,25684,27619,1,0
Sprite,Foreground,Centre,"SB\Ring.png",400,204 S,1,37684,40006,0.3,0.8 F,0,38071,40006,1,0
Sprite,Foreground,Centre,"SB\Ring.png",373,89 S,1,51619,53942,0.3,0.8 F,0,52006,53942,1,0
Sprite,Foreground,Centre,"SB\Ring.png",401,152 S,1,68652,70974,0.3,0.8 F,0,69039,70974,1,0
Sprite,Foreground,Centre,"SB\Ring.png",386,87 S,1,93426,95748,0.3,0.8 F,0,93813,95748,1,0
Sprite,Foreground,Centre,"SB\Ring.png",151,223 S,1,105813,108135,0.3,0.8 F,0,106200,108135,1,0
Sprite,Foreground,Centre,"SB\Ring.png",240,292 S,1,118200,120522,0.3,0.8 F,0,118587,120522,1,0
Sprite,Foreground,Centre,"SB\Ring.png",454,130 S,1,132135,134458,0.3,0.8 F,0,132522,134458,1,0
Sprite,Foreground,Centre,"SB\Ring.png",306,78 S,1,149168,151490,0.3,0.8 F,0,149555,151490,1,0
Sprite,Foreground,Centre,"SB\Ring.png",300,105 S,1,163103,165426,0.3,0.8 F,0,163490,165426,1,0
Sprite,Foreground,Centre,"SB\Ring.png",271,120 S,1,180135,182458,0.3,0.8 F,0,180522,182458,1,0
Sprite,Foreground,Centre,"SB\Ring.png",406,122 S,1,206458,208781,0.3,0.8 F,0,206845,208781,1,0
Sprite,Foreground,Centre,"SB\Ring.png",425,405 S,1,223490,225813,0.3,0.8 F,0,223877,225813,1,0
Sprite,Foreground,Centre,"SB\Ring.png",320,248 S,1,226587,228910,0.3,0.8 F,0,226974,228910,1,0
Sprite,Foreground,Centre,"SB\Glow.png",236,229 F,2,6716,7490,1,0
Sprite,Foreground,Centre,"SB\Glow.png",240,233 F,2,8264,9038,1,0
Sprite,Foreground,Centre,"SB\Glow.png",244,237 F,2,9813,10587,1,0
Sprite,Foreground,Centre,"SB\Glow.png",359,250 F,2,10587,11361,1,0
Sprite,Foreground,Centre,"SB\Glow.png",495,375 F,2,11361,12135,1,0
Sprite,Foreground,Centre,"SB\Glow.png",392,435 F,2,11748,12522,1,0
Sprite,Foreground,Centre,"SB\Glow.png",285,371 F,2,12135,12909,1,0
Sprite,Foreground,Centre,"SB\Glow.png",300,249 F,2,12522,13296,1,0
Sprite,Foreground,Centre,"SB\Glow.png",353,376 F,2,31490,32264,1,0
Sprite,Foreground,Centre,"SB\Glow.png",315,81 F,2,33039,33813,1,0
Sprite,Foreground,Centre,"SB\Glow.png",311,398 F,2,34587,35361,1,0
Sprite,Foreground,Centre,"SB\Glow.png",307,402 F,2,34781,35555,1,0
Sprite,Foreground,Centre,"SB\Glow.png",247,172 F,2,35361,36135,1,0
Sprite,Foreground,Centre,"SB\Glow.png",243,168 F,2,35555,36329,1,0
Sprite,Foreground,Centre,"SB\Glow.png",477,230 F,2,36135,36909,1,0
Sprite,Foreground,Centre,"SB\Glow.png",243,168 F,2,36522,37296,1,0
Sprite,Foreground,Centre,"SB\Glow.png",307,402 F,2,36910,37684,1,0
Sprite,Foreground,Centre,"SB\Glow.png",302,171 F,2,43877,44651,1,0
Sprite,Foreground,Centre,"SB\Glow.png",406,358 F,2,50071,50845,1,0
Sprite,Foreground,Centre,"SB\Glow.png",402,362 F,2,50458,51232,1,0
Sprite,Foreground,Centre,"SB\Glow.png",0,0 F,2,50587,51361,1,0
Sprite,Foreground,Centre,"SB\Glow.png",402,362 F,2,50716,51490,1,0
Sprite,Foreground,Centre,"SB\Glow.png",383,283 F,2,50845,51619,1,0
Sprite,Foreground,Centre,"SB\Glow.png",425,266 F,2,56264,57038,1,0
Sprite,Foreground,Centre,"SB\Glow.png",146,191 F,2,62458,63232,1,0
Sprite,Foreground,Centre,"SB\Glow.png",90,364 F,2,67103,67877,1,0
Sprite,Foreground,Centre,"SB\Glow.png",152,222 F,2,67490,68264,1,0
Sprite,Foreground,Centre,"SB\Glow.png",0,0 S,0,67877,,1 M,0,67877,67974,257,361,292,372 M,0,67974,68071,292,372,327,361 M,0,68071,68264,327,361,406,303 S,2,68071,68652,1,3 M,0,68264,68458,406,303,342,230 M,0,68458,68652,342,230,401,152
Sprite,Foreground,Centre,"SB\Glow.png",241,136 F,2,87232,88006,1,0
Sprite,Foreground,Centre,"SB\Glow.png",287,120 F,2,112006,112780,1,0
Sprite,Foreground,Centre,"SB\Glow.png",310,422 F,2,113555,114329,1,0
Sprite,Foreground,Centre,"SB\Glow.png",329,98 F,2,115103,115877,1,0
Sprite,Foreground,Centre,"SB\Glow.png",333,94 F,2,115297,116071,1,0
Sprite,Foreground,Centre,"SB\Glow.png",401,324 F,2,115877,116651,1,0
Sprite,Foreground,Centre,"SB\Glow.png",397,328 F,2,116071,116845,1,0
Sprite,Foreground,Centre,"SB\Glow.png",163,266 F,2,116652,117426,1,0
Sprite,Foreground,Centre,"SB\Glow.png",397,328 F,2,117039,117813,1,0
Sprite,Foreground,Centre,"SB\Glow.png",333,94 F,2,117426,118200,1,0
Sprite,Foreground,Centre,"SB\Glow.png",330,269 F,2,124393,125167,1,0
Sprite,Foreground,Centre,"SB\Glow.png",231,289 F,2,130587,131361,1,0
Sprite,Foreground,Centre,"SB\Glow.png",227,293 F,2,130974,131748,1,0
Sprite,Foreground,Centre,"SB\Glow.png",178,283 F,2,131103,131877,1,0
Sprite,Foreground,Centre,"SB\Glow.png",227,293 F,2,131232,132006,1,0
Sprite,Foreground,Centre,"SB\Glow.png",290,345 F,2,131361,132135,1,0
Sprite,Foreground,Centre,"SB\Glow.png",358,287 F,2,136781,137555,1,0
Sprite,Foreground,Centre,"SB\Glow.png",169,266 F,2,142974,143748,1,0
Sprite,Foreground,Centre,"SB\Glow.png",0,0 M,0,147619,147716,309,363,283,374 M,0,147716,147813,283,374,255,379 M,0,147813,147910,255,379,227,378 M,0,147910,148006,227,378,200,371 M,0,148006,148103,200,371,175,356 M,0,148103,148200,175,356,155,339 M,0,148200,148297,155,339,138,316 M,0,148297,148393,138,316,127,291 M,0,148393,148490,127,291,121,263 M,0,148490,148587,121,263,122,234 M,0,148587,148684,122,234,129,207 M,0,148684,148781,129,207,142,183 M,0,148781,149168,142,183,306,78 S,2,148877,149168,1,3
Sprite,Foreground,Centre,"SB\Glow.png",286,358 F,2,161555,162329,1,0
Sprite,Foreground,Centre,"SB\Glow.png",281,362 F,2,161942,162716,1,0
Sprite,Foreground,Centre,"SB\Glow.png",286,411 F,2,162071,162845,1,0
Sprite,Foreground,Centre,"SB\Glow.png",281,362 F,2,162200,162974,1,0
Sprite,Foreground,Centre,"SB\Glow.png",307,285 F,2,162329,163103,1,0
Sprite,Foreground,Centre,"SB\Glow.png",221,98 F,2,186329,187103,1,0
Sprite,Foreground,Centre,"SB\Glow.png",410,277 F,2,187877,188651,1,0
Sprite,Foreground,Centre,"SB\Glow.png",432,328 F,2,189426,190200,1,0
Sprite,Foreground,Centre,"SB\Glow.png",428,332 F,2,189619,190393,1,0
Sprite,Foreground,Centre,"SB\Glow.png",270,150 F,2,190200,190974,1,0
Sprite,Foreground,Centre,"SB\Glow.png",264,152 F,2,190393,191168,1,0
Sprite,Foreground,Centre,"SB\Glow.png",192,384 F,2,190974,191748,1,0
Sprite,Foreground,Centre,"SB\Glow.png",264,152 F,2,191361,192135,1,0
Sprite,Foreground,Centre,"SB\Glow.png",428,332 F,2,191748,192522,1,0
Sprite,Foreground,Centre,"SB\Glow.png",190,253 F,2,204910,205684,1,0
Sprite,Foreground,Centre,"SB\Glow.png",185,257 F,2,205297,206071,1,0
Sprite,Foreground,Centre,"SB\Glow.png",183,306 F,2,205426,206200,1,0
Sprite,Foreground,Centre,"SB\Glow.png",185,257 F,2,205555,206329,1,0
Sprite,Foreground,Centre,"SB\Glow.png",205,178 F,2,205684,206458,1,0
Sprite,Foreground,Centre,"SB\Glow.png",136,155 F,2,211103,211877,1,0
Sprite,Foreground,Centre,"SB\Glow.png",394,271 F,2,217297,218071,1,0
Sprite,Foreground,Centre,"SB\Glow.png",425,405 F,0,222716,222813,0,1 F,2,223490,224264,1,0
//Storyboard Sound Samples

[TimingPoints]
523,387.096774193548,4,2,1,40,1,0
523,-200,4,2,1,40,0,0
3232,-200,4,2,1,40,0,0
6716,-133.333333333333,4,2,1,80,0,0
12910,-100,4,2,2,90,0,0
13006,-100,4,2,1,90,0,0
25297,-133.333333333333,4,3,2,90,0,0
25393,-133.333333333333,4,3,1,80,0,0
31490,-100,4,2,1,90,0,0
37297,-100,4,2,1,60,0,0
37490,-100,4,2,1,70,0,0
37587,-100,4,2,1,80,0,0
37684,-100,4,2,2,100,0,1
37781,-100,4,2,1,100,0,1
50071,-100,4,2,1,80,0,0
51619,-100,4,2,2,100,0,1
51716,-100,4,2,1,100,0,1
67103,-100,4,2,1,90,0,0
68652,-100,4,2,2,90,0,0
68748,-100,4,2,1,90,0,0
81039,-100,4,2,1,60,0,0
87232,-133.333333333333,4,2,1,80,0,0
93426,-100,4,2,2,90,0,0
93522,-100,4,2,1,90,0,0
105813,-133.333333333333,4,3,2,90,0,0
105910,-133.333333333333,4,3,1,80,0,0
112006,-100,4,2,1,90,0,0
117813,-100,4,2,1,60,0,0
118006,-100,4,2,1,70,0,0
118103,-100,4,2,1,80,0,0
118200,-100,4,2,2,100,0,1
118297,-100,4,2,1,100,0,1
130587,-100,4,2,1,90,0,0
132135,-100,4,2,2,100,0,1
132232,-100,4,2,1,100,0,1
147619,-133.333333333333,4,2,1,100,0,0
147716,-133.333333333333,4,2,2,100,0,0
149168,-100,4,2,2,90,0,0
149264,-100,4,2,1,90,0,0
150135,-100,4,2,2,90,0,0
150232,-100,4,2,1,90,0,0
154781,-100,4,2,2,90,0,0
154877,-100,4,2,1,90,0,0
161555,-100,4,2,1,80,0,0
163103,-100,4,2,2,90,0,0
163200,-100,4,2,1,90,0,0
178781,-100,4,2,1,70,0,0
178877,-100,4,2,1,90,0,0
179168,-100,4,2,1,70,0,0
179264,-100,4,2,1,90,0,0
179942,-100,4,3,1,90,0,0
180135,-133.333333333333,4,3,2,90,0,0
180232,-133.333333333333,4,3,1,80,0,0
186329,-100,4,2,1,90,0,0
192135,-100,4,2,1,60,0,0
198716,-200,4,2,2,40,0,0
204910,-100,4,2,1,90,0,0
206458,-100,4,2,2,100,0,1
206555,-100,4,2,1,100,0,1
221942,-100,4,2,1,100,0,0
222039,-100,4,2,1,60,0,0
222329,-100,4,2,1,70,0,0
222426,-100,4,2,1,60,0,0
222716,-100,4,2,1,70,0,0
223103,-100,4,2,1,80,0,0
223490,-100,4,2,2,100,0,1
223587,-100,4,2,1,90,0,0
226587,-100,4,2,2,90,0,0
226684,-100,4,2,2,60,0,0
228135,-100,4,2,2,90,0,0
230458,-100,4,2,1,30,0,0

[Colours]
Combo1 : 223,72,0
Combo2 : 0,74,158
Combo3 : 185,0,0
Combo4 : 0,128,191

[HitObjects]
168,56,523,6,0,P|153:90|152:127,1,75,2|0,0:0|0:0,0:0:0:0:
167,239,1297,2,0,P|202:225|238:223,1,75
310,234,1877,1,0,0:0:0:0:
314,238,2071,2,0,L|318:312,2,75,2|0|0,0:0|0:0|0:0,0:0:0:0:
274,132,3232,1,0,0:0:0:0:
204,219,3619,6,0,P|170:235|132:238,1,75,2|0,0:0|0:0,0:0:0:0:
42,171,4393,2,0,P|57:137|82:109,1,75
138,64,4974,1,0,0:0:0:0:
142,60,5168,6,0,P|173:82|209:86,1,75,2|0,0:0|0:0,0:0:0:0:
319,65,5942,2,0,L|338:137,1,75
172,173,6716,5,6,0:0:0:0:
176,177,8264,1,6,0:0:0:0:
180,181,9813,6,0,P|199:233|191:288,1,112.500004291535,6|0,0:0|0:0,0:0:0:0:
295,194,10587,2,0,P|349:180|402:194,1,112.500004291535,6|0,0:0|0:0,0:0:0:0:
446,250,11168,1,0,0:0:0:0:
431,319,11361,6,0,P|417:343|396:362,1,56.2500021457673,6|0,0:0|0:0,0:0:0:0:
328,379,11748,2,0,P|309:358|284:344,1,56.2500021457673,6|0,0:0|0:0,0:0:0:0:
221,315,12135,2,0,P|213:288|214:260,1,56.2500021457673,6|0,0:0|0:0,0:0:0:0:
236,193,12522,1,6,0:0:0:0:
284,245,12716,1,0,0:0:0:0:
325,116,12910,6,0,P|383:73|455:83,1,150,6|8,0:0|0:0,0:0:0:0:
408,169,13490,1,0,0:0:0:0:
478,237,13684,2,0,P|467:310|418:366,1,150,0|8,0:0|0:0,0:0:0:0:
328,330,14264,1,0,0:0:0:0:
238,369,14458,6,0,P|200:368|166:354,1,75,2|0,0:0|0:0,0:0:0:0:
100,282,14845,2,0,P|113:247|114:210,1,75,8|0,0:0|0:0,0:0:0:0:
52,134,15232,1,0,0:0:0:0:
18,226,15426,1,0,0:0:0:0:
40,320,15619,1,8,0:0:0:0:
14,222,15813,1,0,0:0:0:0:
114,210,16006,6,0,P|152:206|188:214,1,75,2|0,0:0|0:0,0:0:0:0:
266,274,16393,2,0,P|303:274|339:263,1,75,8|0,0:0|0:0,0:0:0:0:
401,187,16781,2,0,P|393:132|364:85,1,112.5
356,83,17168,1,8,0:0:0:0:
282,146,17361,1,0,0:0:0:0:
176,56,17555,6,0,P|140:44|103:47,1,75,2|0,0:0|0:0,0:0:0:0:
42,124,17942,2,0,B|38:158|38:158|77:164|108:190,1,112.5,8|0,0:0|0:0,0:0:0:0:
111,197,18329,1,0,0:0:0:0:
189,138,18522,1,0,0:0:0:0:
201,235,18716,1,8,0:0:0:0:
123,294,18910,1,0,0:0:0:0:
38,198,19103,6,0,P|36:160|42:123,1,75,2|0,0:0|0:0,0:0:0:0:
91,39,19490,2,0,P|127:45|165:43,1,75,8|0,0:0|0:0,0:0:0:0:
258,13,19877,2,0,P|291:30|320:54,1,75
364,141,20264,1,8,0:0:0:0:
294,209,20458,1,0,0:0:0:0:
290,213,20555,1,0,0:0:0:0:
286,217,20652,6,0,P|249:224|213:217,1,75,2|0,0:0|0:0,0:0:0:0:
121,179,21039,2,0,P|114:224|121:255,1,75,8|0,0:0|0:0,0:0:0:0:
160,341,21426,2,0,P|195:329|232:330,1,75
321,370,21813,1,8,0:0:0:0:
383,295,22006,1,0,0:0:0:0:
387,291,22103,1,0,0:0:0:0:
391,287,22200,6,0,P|344:230|272:218,1,150,2|8,0:0|0:0,0:0:0:0:
179,250,22781,1,0,0:0:0:0:
200,155,22974,2,0,B|213:114|213:114|270:132|312:93,1,150,0|8,0:0|0:0,0:0:0:0:
247,21,23555,1,0,0:0:0:0:
151,38,23748,6,0,B|119:56|119:56|98:88,1,75,2|0,3:2|3:2,3:2:0:0:
78,184,24135,1,8,3:2:0:0:
171,154,24329,1,0,3:2:0:0:
221,70,24522,2,0,B|248:92|248:92|264:127,1,75,0|0,3:2|3:2,3:2:0:0:
234,221,24910,1,8,3:2:0:0:
150,270,25103,1,8,3:2:0:0:
146,274,25200,1,0,3:2:0:0:
142,278,25297,6,0,P|155:302|173:322,1,56.2500021457673,6|2,0:2|0:0,0:2:0:0:
240,276,25684,2,0,P|233:248|234:220,1,56.2500021457673,8|2,0:2|0:0,0:2:0:0:
318,269,26071,2,0,P|327:324|320:379,1,112.500004291535,2|8,0:0|0:2,0:2:0:0:
182,315,26845,6,0,P|154:294|141:276,1,56.2500021457673,2|2,0:2|0:0,0:0:0:0:
214,241,27232,2,0,P|236:223|251:200,1,56.2500021457673,8|2,0:2|0:0,0:0:0:0:
248,119,27619,2,0,B|218:122|196:139|196:139|171:123|142:125,1,112.500004291535,2|8,0:0|0:2,0:0:0:0:
33,200,28393,6,0,P|47:228|71:248,1,56.2500021457673,2|2,0:2|0:0,0:0:0:0:
134,269,28781,1,8,0:2:0:0:
201,240,28974,1,2,0:0:0:0:
168,335,29168,2,0,P|225:339|274:310,1,112.500004291535,2|8,0:0|0:2,0:0:0:0:
230,140,29942,5,2,0:2:0:0:
158,132,30135,1,2,0:0:0:0:
242,229,30329,1,8,0:2:0:0:
314,237,30522,1,2,0:0:0:0:
170,220,30716,6,0,L|114:227,1,56.2500021457673,2|2,0:2|0:0,0:0:0:0:
302,148,31103,2,0,L|356:139,1,56.2500021457673,8|2,0:2|0:0,0:0:0:0:
289,320,31490,6,0,P|261:346|225:354,1,75,6|0,0:0|0:0,0:0:0:0:
135,320,31877,2,0,P|128:283|104:255,1,75,8|0,0:0|0:0,0:0:0:0:
19,206,32264,2,0,P|12:169|25:134,1,75
94,66,32652,2,0,P|128:78|165:71,1,75,8|0,0:0|0:0,0:0:0:0:
251,25,33039,6,0,P|273:56|285:91,1,75,6|0,0:0|0:0,0:0:0:0:
268,185,33426,2,0,P|301:201|338:207,1,75,8|0,0:0|0:0,0:0:0:0:
410,141,33813,2,0,P|436:210|408:278,1,150,0|8,0:0|0:0,0:0:0:0:
339,207,34393,1,0,0:0:0:0:
247,342,34587,5,6,0:0:0:0:
243,346,34781,1,6,0:0:0:0:
183,116,35361,5,6,0:0:0:0:
179,112,35555,1,6,0:0:0:0:
413,174,36135,5,6,0:0:0:0:
179,112,36522,1,6,0:0:0:0:
243,346,36910,1,6,0:0:0:0:
369,251,37297,5,2,0:0:0:0:
344,156,37490,1,0,3:2:0:0:
340,152,37587,1,0,3:2:0:0:
336,148,37684,6,0,P|283:96|210:83,1,150,6|8,0:0|0:0,0:0:0:0:
146,157,38264,1,0,0:0:0:0:
224,216,38458,2,0,P|234:251|235:289,1,75,2|0,0:0|0:0,0:0:0:0:
164,355,38845,1,8,0:0:0:0:
91,289,39039,1,0,0:0:0:0:
146,157,39232,6,0,B|122:129|122:129|133:90|119:54,2,112.5,2|0|0,0:0|0:0|0:0,0:0:0:0:
225,99,40006,2,0,P|294:75|361:105,1,150,2|8,0:0|0:0,0:0:0:0:
385,200,40587,1,0,0:0:0:0:
290,174,40781,6,0,B|259:189|259:189|246:252|185:268,1,150,2|8,0:0|0:0,0:0:0:0:
163,173,41361,1,0,0:0:0:0:
108,92,41555,2,0,P|51:62|4:75,2,112.5,2|0|0,0:0|0:0|0:0,0:0:0:0:
96,189,42329,2,0,B|79:226|79:226|94:296,2,112.5,2|0|0,0:0|0:0|0:0,0:0:0:0:
163,118,43103,6,0,L|167:80,3,37.5,2|0|2|0,0:0|0:0|0:0|0:0,0:0:0:0:
203,145,43490,2,0,L|207:182,3,37.5,8|0|2|0,0:0|0:0|0:0|0:0,0:0:0:0:
238,115,43877,6,0,B|262:82|262:82|316:104|368:79,1,150,6|8,0:0|0:0,0:0:0:0:
446,20,44458,1,0,0:0:0:0:
457,116,44652,2,0,P|453:154|443:190,1,75,2|0,0:0|0:0,0:0:0:0:
393,274,45039,1,8,0:0:0:0:
347,188,45232,1,0,0:0:0:0:
279,308,45426,6,0,P|242:317|205:311,1,75,2|0,0:0|0:0,0:0:0:0:
163,222,45813,2,0,P|199:213|236:218,1,75,8|0,0:0|0:0,0:0:0:0:
326,254,46200,1,2,0:0:0:0:
330,258,46587,1,8,0:0:0:0:
382,175,46781,1,0,0:0:0:0:
428,304,46974,6,0,P|376:357|303:365,1,150,2|8,0:0|0:0,0:0:0:0:
233,297,47555,1,0,0:0:0:0:
158,359,47748,2,0,B|129:380|129:380|94:360|55:359,2,112.5,2|0|0,0:0|0:0|0:0,0:0:0:0:
233,297,48522,6,0,P|239:260|239:222,1,75,2|0,0:0|0:0,0:0:0:0:
213,129,48909,1,8,0:0:0:0:
144,197,49103,1,0,0:0:0:0:
239,223,49297,2,0,P|277:218|313:209,1,75,2|0,0:0|0:0,0:0:0:0:
395,157,49684,2,0,P|408:193|408:230,1,75,8|0,0:0|0:0,0:0:0:0:
342,302,50071,5,6,0:0:0:0:
338,306,50458,2,0,P|350:330|366:351,2,50,6|6|6,0:0|0:0|0:0,0:0:0:0:
319,227,50845,1,6,0:0:0:0:
408,80,51232,1,2,0:0:0:0:
321,37,51426,1,0,3:0:0:0:
315,35,51522,1,0,3:0:0:0:
309,33,51619,6,0,B|275:18|275:18|246:38|202:35,2,112.5,6|0|0,0:0|0:0|0:0,0:0:0:0:
280,126,52393,2,0,B|272:167|272:167|325:195|324:255,1,150,2|8,0:0|0:0,0:0:0:0:
275,339,52974,1,0,0:0:0:0:
228,253,53168,6,0,P|197:233|161:225,1,75,2|0,0:0|0:0,0:0:0:0:
91,294,53555,2,0,P|70:262|63:226,1,75,8|0,0:0|0:0,0:0:0:0:
83,130,53942,2,0,P|118:141|155:139,1,75,2|0,0:0|0:0,0:0:0:0:
235,82,54329,1,8,0:0:0:0:
292,160,54522,1,0,0:0:0:0:
231,237,54716,2,0,B|216:281|239:320|239:320|226:354,2,112.5,2|0|0,0:0|0:0|0:0,0:0:0:0:
292,160,55490,6,0,L|283:123,3,37.5,2|0|0|0,3:2|3:2|3:2|3:2,3:2:0:0:
332,178,55877,2,0,L|339:141,3,37.5,8|0|0|0,3:2|3:2|3:2|3:2,3:2:0:0:
361,210,56264,6,0,B|384:237|384:237|335:281|351:345,1,150,6|8,0:0|0:0,0:0:0:0:
444,315,56845,1,0,0:0:0:0:
473,223,57039,2,0,P|456:151|399:103,1,150,2|8,0:0|0:0,0:0:0:0:
315,150,57619,1,0,0:0:0:0:
241,85,57813,6,0,P|203:84|169:98,1,75,2|0,0:0|0:0,0:0:0:0:
150,193,58200,2,0,P|187:193|221:180,1,75,8|0,0:0|0:0,0:0:0:0:
304,126,58587,2,0,P|317:160|317:198,1,75,2|0,0:0|0:0,0:0:0:0:
291,292,58974,2,0,P|300:328|322:358,1,75,8|0,0:0|0:0,0:0:0:0:
443,377,59361,6,0,P|470:307|457:234,1,150,2|8,0:0|0:0,0:0:0:0:
399,157,59942,1,0,0:0:0:0:
351,242,60135,2,0,B|330:271|330:271|294:258|255:274,2,112.5,2|0|0,0:0|0:0|0:0,0:0:0:0:
399,157,60910,6,0,P|396:115|381:83,1,75,2|0,0:0|0:0,0:0:0:0:
304,145,61297,1,8,0:0:0:0:
230,81,61490,1,0,0:0:0:0:
151,139,61684,2,0,L|157:175,3,37.5,2|0|0|0,3:2|3:2|3:2|3:2,3:2:0:0:
118,115,62071,2,0,L|124:78,3,37.5,8|0|0|0,3:2|3:2|3:2|3:2,3:2:0:0:
82,135,62458,6,0,B|53:161|53:161|89:211|73:266,1,150,6|8,0:0|0:0,0:0:0:0:
32,354,63039,1,0,0:0:0:0:
128,346,63232,2,0,B|157:363|157:363|236:352,2,112.5,2|0|0,0:0|0:0|0:0,0:0:0:0:
72,266,64006,6,0,P|67:229|75:193,1,75,2|0,0:0|0:0,0:0:0:0:
139,118,64393,2,0,P|170:137|207:144,1,75,8|0,0:0|0:0,0:0:0:0:
298,106,64781,2,0,P|334:113|366:132,1,75,2|0,0:0|0:0,0:0:0:0:
402,223,65168,1,8,0:0:0:0:
342,300,65361,1,0,0:0:0:0:
338,304,65458,1,0,0:0:0:0:
334,308,65555,5,2,0:0:0:0:
283,207,65748,2,0,L|288:169,2,37.5,0|0|8,0:0|0:0|0:0,0:0:0:0:
188,268,66135,2,0,L|193:305,2,37.5,0|0|2,0:0|0:0|0:0,0:0:0:0:
94,203,66522,2,0,L|88:165,2,37.5,0|0|8,0:0|0:0|0:0,0:0:0:0:
34,300,66910,1,0,0:0:0:0:
30,304,67006,1,0,0:0:0:0:
26,308,67103,5,6,0:0:0:0:
88,166,67490,1,6,0:0:0:0:
193,305,67877,2,0,P|228:316|263:305,1,75,6|0,0:0|0:0,0:0:0:0:
342,247,68264,1,0,0:0:0:0:
278,174,68458,1,0,0:0:0:0:
337,96,68652,6,0,B|360:89|360:89|374:109|374:109|424:87|473:118,1,150,6|8,0:0|0:0,0:0:0:0:
415,196,69232,1,0,0:0:0:0:
471,275,69426,2,0,B|464:315|464:315|430:320|406:354,2,112.5,2|0|0,0:0|0:0|0:0,0:0:0:0:
482,163,70200,6,0,L|506:134,2,37.5,2|0|0,0:0|0:0|0:0,0:0:0:0:
405,223,70587,2,0,B|373:203|373:203|336:198,1,75,8|0,0:0|0:0,0:0:0:0:
240,216,70974,2,0,B|238:199|226:182|226:182|243:168|243:168|234:152|234:152|248:126|236:81,1,150,2|8,0:0|0:0,0:0:0:0:
161,19,71555,1,0,0:0:0:0:
144,115,71748,6,0,B|132:150|132:150|137:188,2,75,2|0|8,0:0|0:0|0:0,0:0:0:0:
236,80,72329,1,0,0:0:0:0:
327,114,72522,2,0,L|345:80,2,37.5,2|0|0,0:0|0:0|0:0,0:0:0:0:
281,200,72910,2,0,B|270:235|270:235|280:273,1,75,8|0,0:0|0:0,0:0:0:0:
318,362,73297,6,0,B|372:353|372:353|416:312,2,112.5,2|0|0,0:0|0:0|0:0,0:0:0:0:
194,308,74071,2,0,B|139:316|139:316|95:357,2,112.5,2|0|0,0:0|0:0|0:0,0:0:0:0:
318,362,74845,5,2,0:0:0:0:
386,292,75039,2,0,B|421:303|421:303|444:331,2,75,0|8|0,0:0|0:0|0:0,0:0:0:0:
292,266,75619,2,0,B|275:232|275:232|278:196,1,75,2|0,0:0|0:0,0:0:0:0:
302,100,76006,1,8,0:0:0:0:
371,169,76200,1,0,0:0:0:0:
440,101,76393,6,0,B|473:84|473:84|509:87,2,75,2|0|8,0:0|0:0|0:0,0:0:0:0:
371,169,76974,1,0,0:0:0:0:
320,47,77168,1,2,0:0:0:0:
251,115,77361,1,0,0:0:0:0:
278,208,77555,2,0,B|260:240|260:240|222:252,1,75,8|0,0:0|0:0,0:0:0:0:
147,191,77942,6,0,B|117:168|117:168|68:200|10:167,1,150,2|8,0:0|0:0,0:0:0:0:
66,87,78522,1,0,0:0:0:0:
161,105,78716,2,0,L|189:34,1,75,2|0,0:0|0:0,0:0:0:0:
242,128,79103,2,0,L|270:199,1,75,8|0,0:0|0:0,0:0:0:0:
355,125,79490,5,2,0:0:0:0:
405,41,79684,1,0,0:0:0:0:
451,126,79877,2,0,L|498:136,3,37.5,10|0|0|0,0:0|0:0|0:0|0:0,0:0:0:0:
454,173,80264,2,0,L|489:205,3,37.5,2|0|2|0,0:0|0:0|0:0|0:0,0:0:0:0:
433,215,80652,2,0,L|447:260,4,37.5,8|0|2|0|2,0:0|0:0|0:0|0:0|0:0,0:0:0:0:
177,80,87232,6,0,P|150:128|143:183,1,112.500004291535,6|8,0:0|0:0,0:0:0:0:
164,254,87813,1,0,0:0:0:0:
230,224,88006,2,0,B|259:207|259:207|293:237|335:224,1,112.500004291535,0|8,0:0|0:0,0:0:0:0:
311,154,88587,1,0,0:0:0:0:
275,90,88781,6,0,P|250:78|222:76,1,56.2500021457673,2|0,0:0|0:0,0:0:0:0:
151,95,89168,2,0,P|148:122|136:148,1,56.2500021457673,8|0,0:0|0:0,0:0:0:0:
81,197,89555,2,0,P|68:222|66:250,1,56.2500021457673
89,319,89942,2,0,P|115:309|143:310,1,56.2500021457673,8|0,0:0|0:0,0:0:0:0:
210,339,90329,6,0,P|237:339|264:330,1,56.2500021457673,2|0,0:0|0:0,0:0:0:0:
309,272,90716,1,8,0:0:0:0:
337,340,90910,1,0,0:0:0:0:
305,268,91103,2,0,P|297:213|308:157,1,112.500004291535,0|8,0:0|0:0,0:0:0:0:
351,98,91684,1,0,0:0:0:0:
322,31,91877,5,2,0:0:0:0:
322,31,93426,6,0,P|253:3|180:17,1,150,6|8,0:0|0:0,0:0:0:0:
97,67,94006,1,0,0:0:0:0:
158,143,94200,2,0,B|163:177|163:177|105:206|104:269,1,150,0|8,0:0|0:0,0:0:0:0:
154,353,94781,1,0,0:0:0:0:
201,267,94974,6,0,P|237:273|269:293,1,75,2|0,0:0|0:0,0:0:0:0:
334,367,95361,2,0,P|358:335|367:300,1,75,8|0,0:0|0:0,0:0:0:0:
348,206,95748,1,0,0:0:0:0:
309,118,95941,1,0,0:0:0:0:
251,196,96135,1,8,0:0:0:0:
348,206,96329,1,0,0:0:0:0:
405,127,96522,6,0,P|430:154|443:189,1,75,2|0,0:0|0:0,0:0:0:0:
395,275,96910,2,0,P|356:287|318:285,1,75,8|0,0:0|0:0,0:0:0:0:
250,220,97297,2,0,P|220:154|149:139,1,150,0|8,0:0|0:0,0:0:0:0:
268,90,97877,1,0,0:0:0:0:
169,220,98071,6,0,P|156:254|155:291,1,75,2|0,0:0|0:0,0:0:0:0:
225,362,98458,2,0,B|251:338|251:338|226:297|238:258,1,112.5,8|0,0:0|0:0,0:0:0:0:
238,257,98845,1,0,0:0:0:0:
319,204,99038,1,0,0:0:0:0:
409,243,99232,1,8,0:0:0:0:
440,335,99425,1,0,0:0:0:0:
475,167,99619,6,0,P|438:147|400:142,1,75,2|0,0:0|0:0,0:0:0:0:
321,191,100006,2,0,P|284:184|251:165,1,75,8|0,0:0|0:0,0:0:0:0:
179,100,100393,2,0,P|146:118|122:147,1,75
102,243,100781,1,8,0:0:0:0:
175,306,100974,1,0,0:0:0:0:
181,308,101071,1,0,0:0:0:0:
187,310,101168,6,0,P|225:308|257:290,1,75,2|0,0:0|0:0,0:0:0:0:
294,200,101555,2,0,P|276:167|274:130,1,75,8|0,0:0|0:0,0:0:0:0:
307,38,101942,2,0,P|344:38|377:55,1,75
418,144,102329,1,8,0:0:0:0:
365,226,102522,1,0,0:0:0:0:
361,230,102619,1,0,0:0:0:0:
357,234,102716,6,0,B|336:265|336:265|279:232|226:267,1,150,2|8,0:0|0:0,0:0:0:0:
283,347,103297,1,0,0:0:0:0:
378,353,103490,2,0,P|441:316|452:244,1,150,0|8,0:0|0:0,0:0:0:0:
406,159,104071,1,0,0:0:0:0:
339,88,104264,6,0,B|301:88|301:88|268:105,1,75,2|0,3:2|3:2,3:2:0:0:
190,165,104652,1,8,3:2:0:0:
279,201,104845,1,0,3:2:0:0:
282,298,105039,2,0,B|248:314|248:314|211:315,1,75,0|0,3:2|3:2,3:2:0:0:
123,271,105426,1,8,3:2:0:0:
91,179,105619,1,8,3:2:0:0:
89,173,105716,1,0,3:2:0:0:
87,167,105813,6,0,P|81:139|83:111,1,56.2500021457673,6|2,0:2|0:0,0:0:0:0:
161,63,106200,2,0,P|167:91|165:119,1,56.2500021457673,8|2,0:2|0:0,0:0:0:0:
172,231,106587,2,0,P|204:185|250:154,1,112.500004291535,2|8,0:0|0:2,0:0:0:0:
391,112,107361,6,0,P|417:121|438:139,1,56.2500021457673,2|2,0:2|0:0,0:0:0:0:
375,246,107748,2,0,P|373:219|375:191,1,56.2500021457673,8|2,0:2|0:0,0:0:0:0:
446,286,108135,2,0,P|403:323|348:323,1,112.500004291535,2|8,0:0|0:2,0:0:0:0:
227,227,108910,6,0,P|200:220|172:220,1,56.2500021457673,2|2,0:2|0:0,0:0:0:0:
101,236,109297,1,8,0:2:0:0:
150,290,109490,1,2,0:0:0:0:
198,147,109684,2,0,P|165:104|111:99,1,112.500004291535,2|8,0:0|0:2,0:0:0:0:
282,244,110458,5,2,0:2:0:0:
354,252,110651,1,2,0:0:0:0:
270,155,110845,1,8,0:2:0:0:
198,147,111038,1,2,0:0:0:0:
342,164,111232,6,0,L|397:156,1,56.2500021457673,2|0,0:2|0:0,0:0:0:0:
210,236,111619,2,0,L|155:244,1,56.2500021457673,8|2,0:2|0:0,0:0:0:0:
223,64,112006,6,0,P|251:38|287:30,1,75,6|0,0:0|0:0,0:0:0:0:
377,64,112393,2,0,P|384:101|408:129,1,75,8|0,0:0|0:0,0:0:0:0:
493,178,112780,2,0,P|500:215|487:250,1,75
418,318,113168,2,0,P|384:306|347:313,1,75,8|0,0:0|0:0,0:0:0:0:
246,366,113555,6,0,P|224:335|212:300,1,75,6|0,0:0|0:0,0:0:0:0:
235,189,113942,2,0,P|202:173|165:167,1,75,8|0,0:0|0:0,0:0:0:0:
74,235,114329,2,0,P|53:152|78:97,1,150,0|8,0:0|0:0,0:0:0:0:
165,167,114909,1,0,0:0:0:0:
265,42,115103,5,6,0:0:0:0:
269,38,115297,1,6,0:0:0:0:
394,188,115684,1,0,0:0:0:0:
337,268,115877,5,6,0:0:0:0:
333,272,116071,1,6,0:0:0:0:
140,299,116458,1,0,0:0:0:0:
99,210,116652,5,6,0:0:0:0:
333,272,117039,1,6,0:0:0:0:
269,38,117426,1,6,0:0:0:0:
143,131,117813,5,2,0:0:0:0:
172,224,118006,1,0,3:2:0:0:
174,230,118103,1,0,3:2:0:0:
176,236,118200,6,0,P|225:295|308:299,1,150,6|8,0:0|0:0,0:0:0:0:
270,208,118781,1,0,0:0:0:0:
232,118,118974,2,0,P|193:105|156:107,1,75,2|0,0:0|0:0,0:0:0:0:
74,154,119361,1,8,0:0:0:0:
125,237,119555,1,0,0:0:0:0:
45,333,119748,6,0,P|9:282|1:231,2,112.5,2|0|0,0:0|0:0|0:0,0:0:0:0:
139,306,120522,2,0,P|204:272|277:283,1,150,2|8,0:0|0:0,0:0:0:0:
353,345,121103,1,0,0:0:0:0:
333,190,121297,6,0,B|336:166|325:146|325:146|358:100|338:47,1,150,2|8,0:0|0:0,0:0:0:0:
249,85,121877,1,0,0:0:0:0:
251,183,122071,2,0,B|251:227|218:258|218:258|241:278,2,112.5,2|0|0,0:0|0:0|0:0,0:0:0:0:
153,184,122845,2,0,B|131:193|131:193|107:152|63:139,2,112.5,2|0|0,0:0|0:0|0:0,0:0:0:0:
229,123,123619,6,0,L|266:117,3,37.5,2|0|2|0,0:0|0:0|0:0|0:0,0:0:0:0:
249,164,124006,2,0,L|286:168,3,37.5,8|0|2|0,0:0|0:0|0:0|0:0,0:0:0:0:
266,213,124393,6,0,P|270:288|238:355,1,150,6|8,0:0|0:0,0:0:0:0:
162,293,124974,1,0,0:0:0:0:
86,355,125168,2,0,P|47:291|43:217,1,150,2|8,0:0|0:0,0:0:0:0:
102,140,125748,1,0,0:0:0:0:
206,234,125942,6,0,P|243:237|280:228,1,75,2|0,0:0|0:0,0:0:0:0:
347,158,126329,2,0,P|342:120|326:86,1,75,8|0,0:0|0:0,0:0:0:0:
232,111,126716,2,0,B|196:121|196:121|180:59|121:44,1,150,2|8,0:0|0:0,0:0:0:0:
102,140,127297,1,0,0:0:0:0:
126,233,127490,6,0,P|184:280|257:292,1,150,2|8,0:0|0:0,0:0:0:0:
332,229,128071,1,0,0:0:0:0:
379,314,128264,2,0,B|391:340|391:340|439:342|464:375,2,112.5,2|0|0,0:0|0:0|0:0,0:0:0:0:
332,229,129039,6,0,P|330:192|336:155,1,75,2|0,0:0|0:0,0:0:0:0:
381,68,129426,1,8,0:0:0:0:
432,150,129619,1,0,0:0:0:0:
336,155,129813,2,0,P|299:146|265:129,1,75,2|0,0:0|0:0,0:0:0:0:
192,66,130200,2,0,P|174:98|169:136,1,75,8|0,0:0|0:0,0:0:0:0:
167,233,130587,5,6,0:0:0:0:
163,237,130974,2,0,P|138:230|114:227,2,50,6|6|6,0:0|0:0|0:0,0:0:0:0:
226,289,131361,1,6,0:0:0:0:
284,103,131748,1,2,0:0:0:0:
378,78,131942,1,0,3:0:0:0:
384,76,132039,1,0,3:0:0:0:
390,74,132135,6,0,B|417:85|417:85|407:129|438:167,2,112.5,6|0|0,0:0|0:0|0:0,0:0:0:0:
313,134,132910,2,0,P|241:153|169:132,1,150,2|8,0:0|0:0,0:0:0:0:
115,52,133490,1,0,0:0:0:0:
72,140,133684,6,0,P|61:175|65:211,1,75,2|0,0:0|0:0,0:0:0:0:
91,308,134071,2,0,P|128:308|162:294,1,75,8|0,0:0|0:0,0:0:0:0:
216,212,134458,2,0,P|250:198|287:198,1,75,2|0,0:0|0:0,0:0:0:0:
362,263,134845,1,8,0:0:0:0:
269,293,135039,1,0,0:0:0:0:
216,212,135232,2,0,B|208:168|240:139|240:139|224:111,2,112.5,2|0|0,0:0|0:0|0:0,0:0:0:0:
249,303,136006,6,0,L|254:340,3,37.5,2|0|0|0,3:2|3:2|3:2|3:2,3:2:0:0:
280,272,136393,2,0,L|300:303,3,37.5,8|0|0|0,3:2|3:2|3:2|3:2,3:2:0:0:
294,231,136781,6,0,P|303:171|244:91,1,150,6|8,0:0|0:0,0:0:0:0:
172,52,137361,1,0,0:0:0:0:
105,123,137555,2,0,B|94:161|94:161|145:195|198:186,1,150,2|8,0:0|0:0,0:0:0:0:
288,150,138135,1,0,0:0:0:0:
334,277,138329,6,0,P|308:303|274:317,1,75,2|0,0:0|0:0,0:0:0:0:
189,268,138716,2,0,P|152:262|116:272,1,75,8|0,0:0|0:0,0:0:0:0:
28,315,139103,2,0,P|18:279|23:242,1,75,2|0,0:0|0:0,0:0:0:0:
53,149,139490,2,0,P|89:142|120:121,1,75,8|0,0:0|0:0,0:0:0:0:
170,37,139877,6,0,B|194:10|194:10|238:46|301:35,1,150,2|8,0:0|0:0,0:0:0:0:
396,12,140458,1,0,0:0:0:0:
369,106,140652,2,0,B|350:130|350:130|306:126|276:158,2,112.5,2|0|0,0:0|0:0|0:0,0:0:0:0:
453,57,141426,6,0,P|465:93|459:149,1,75,2|0,0:0|0:0,0:0:0:0:
426,219,141813,1,8,0:0:0:0:
457,310,142006,1,0,0:0:0:0:
360,289,142200,2,0,P|324:284|287:289,1,75,2|0,0:0|0:0,0:0:0:0:
206,344,142587,2,0,P|168:349|132:343,1,75,8|0,0:0|0:0,0:0:0:0:
105,211,142974,6,0,B|97:192|101:169|101:169|158:161|184:108,1,150,6|8,0:0|0:0,0:0:0:0:
94,70,143555,1,0,0:0:0:0:
26,140,143748,2,0,P|21:196|34:251,2,112.5,2|0|0,0:0|0:0|0:0,0:0:0:0:
94,70,144522,6,0,P|130:81|168:78,1,75,2|0,0:0|0:0,0:0:0:0:
255,35,144910,2,0,P|292:32|328:42,1,75,8|0,0:0|0:0,0:0:0:0:
388,119,145297,2,0,P|390:156|380:192,1,75,2|0,0:0|0:0,0:0:0:0:
294,238,145684,1,8,0:0:0:0:
272,143,145877,1,0,0:0:0:0:
270,137,145974,1,0,0:0:0:0:
268,131,146071,5,2,0:0:0:0:
336,41,146264,2,0,L|384:31,2,37.5,0|0|8,0:0|0:0|0:0,0:0:0:0:
268,131,146652,2,0,L|232:124,2,37.5,0|0|2,0:0|0:0|0:0,0:0:0:0:
335,222,147039,2,0,L|383:212,2,37.5,0|0|8,0:0|0:0|0:0,0:0:0:0:
253,299,147426,1,0,0:0:0:0:
249,303,147522,1,0,0:0:0:0:
245,307,147619,6,0,P|91:283|78:127,1,337.500012874604,6|0,0:0|0:0,0:0:0:0:
242,22,149168,6,0,B|279:22|279:22|313:36,1,75,6|0,0:0|0:0,0:0:0:0:
259,117,149555,1,8,0:0:0:0:
255,121,149652,1,0,0:0:0:0:
251,125,149748,2,0,B|247:146|229:161|229:161|253:177|253:177|229:214|233:250|233:250|262:274|259:318,1,225,0|8,0:0|0:0,0:0:0:0:
341,372,150522,1,0,0:0:0:0:
423,319,150716,6,0,B|431:282|431:282|422:241,1,75,2|0,0:0|0:0,0:0:0:0:
397,151,151103,1,8,0:0:0:0:
395,145,151200,1,0,0:0:0:0:
393,139,151297,2,0,B|356:147|356:147|319:138,1,75,2|0,0:0|0:0,0:0:0:0:
236,86,151684,2,0,B|245:51|245:51|234:15,2,75,2|8|0,0:0|0:0|0:0,0:0:0:0:
109,81,152264,6,0,B|74:90|74:90|47:119,2,75,2|0|8,0:0|0:0|0:0,0:0:0:0:
168,194,152845,2,0,B|193:219|193:219|231:228,2,75,2|0|2,0:0|0:0|0:0,0:0:0:0:
236,86,153426,2,0,B|273:94|273:94|299:120,1,75,8|0,0:0|0:0,0:0:0:0:
366,49,153813,5,2,0:0:0:0:
392,142,154006,1,0,0:0:0:0:
486,167,154200,1,8,0:0:0:0:
460,261,154393,2,0,B|386:296|328:264|328:264|312:282|312:282|246:244|179:276,1,300,2|0,0:0|0:0,0:0:0:0:
88,311,155361,6,0,B|87:298|72:278|72:278|86:261|86:261|54:218|75:174|75:174|93:138|72:103,1,225,2|0,0:0|0:0,0:0:0:0:
162,146,156135,2,0,B|216:155|216:155|274:130,2,112.5,2|0|0,0:0|0:0|0:0,0:0:0:0:
120,57,156910,2,0,B|65:47|65:47|13:70,2,112.5,2|0|0,0:0|0:0|0:0,0:0:0:0:
211,92,157684,2,0,B|257:79|257:79|295:36|295:36|337:24,1,150,2|8,0:0|0:0,0:0:0:0:
409,90,158264,1,0,0:0:0:0:
375,181,158458,6,0,L|383:217,3,37.5,2|0|0|0,0:0|0:0|0:0|0:0,0:0:0:0:
334,161,158845,2,0,L|342:124,3,37.5,8|0|0|0,0:0|0:0|0:0|0:0,0:0:0:0:
292,173,159232,2,0,B|256:182|256:182|219:175,1,75,2|0,0:0|0:0,0:0:0:0:
153,102,159619,2,0,B|168:68|168:68|196:43,2,75,8|2|0,0:0|0:0|0:0,0:0:0:0:
146,198,160200,6,0,B|152:271|152:271|230:306,1,150,2|0,0:0|0:0,0:0:0:0:
323,251,160781,2,0,B|378:242|378:242|434:258,2,112.5,2|0|0,0:0|0:0|0:0,0:0:0:0:
222,302,161555,5,6,0:0:0:0:
217,306,161942,2,0,P|216:330|222:355,2,50,6|6|6,0:0|0:0|0:0,0:0:0:0:
243,229,162329,1,6,0:0:0:0:
343,80,162716,1,2,0:0:0:0:
248,53,162910,1,0,0:0:0:0:
242,51,163006,1,0,0:0:0:0:
236,49,163103,6,0,B|210:33|210:33|185:44|185:44|147:18|97:43,1,150,6|8,0:0|0:0,0:0:0:0:
51,129,163684,1,0,0:0:0:0:
49,135,163781,1,0,0:0:0:0:
47,141,163877,2,0,B|34:175|34:175|51:249,2,112.5,2|0|0,0:0|0:0|0:0,0:0:0:0:
136,182,164652,6,0,B|209:199|209:199|244:185,2,112.5,2|0|0,0:0|0:0|0:0,0:0:0:0:
117,86,165426,2,0,B|144:59|144:59|180:49,1,75,2|0,0:0|0:0,0:0:0:0:
253,112,165813,2,0,B|289:121|289:121|326:111,1,75,8|0,0:0|0:0,0:0:0:0:
417,78,166200,6,0,B|432:128|405:165|405:165|423:177|423:177|409:201|409:201|427:239|412:286,1,225,2|0,0:0|0:0,0:0:0:0:
323,246,166974,2,0,B|272:227|272:227|216:238,2,112.5,2|0|0,0:0|0:0|0:0,0:0:0:0:
316,344,167748,6,0,B|260:355|260:355|208:335,1,112.5,2|0,0:0|0:0,0:0:0:0:
201,332,168135,1,8,0:0:0:0:
141,254,168329,2,0,B|119:283|119:283|80:292,1,75,2|0,0:0|0:0,0:0:0:0:
2,234,168716,1,2,0:0:0:0:
34,142,168910,1,10,0:0:0:0:
112,84,169103,1,2,0:0:0:0:
209,80,169297,6,0,L|244:91,3,37.5,2|0|0|0,0:0|0:0|0:0|0:0,0:0:0:0:
272,116,169684,2,0,L|297:143,3,37.5,8|0|0|0,0:0|0:0|0:0|0:0,0:0:0:0:
302,180,170071,2,0,L|296:217,3,37.5,2|0|0|0,0:0|0:0|0:0|0:0,0:0:0:0:
295,254,170458,2,0,L|318:282,3,37.5,8|0|0|0,0:0|0:0|0:0|0:0,0:0:0:0:
270,288,170845,6,0,L|285:322,3,37.5,2|0|0|0,0:0|0:0|0:0|0:0,0:0:0:0:
236,315,171232,2,0,L|241:351,3,37.5,8|0|0|0,0:0|0:0|0:0|0:0,0:0:0:0:
195,335,171619,2,0,L|190:371,3,37.5,2|0|2|0,0:0|0:0|0:0|0:0,0:0:0:0:
154,337,172006,2,0,L|139:370,3,37.5,8|0|0|0,0:0|0:0|0:0|0:0,0:0:0:0:
107,334,172393,5,2,0:0:0:0:
75,210,172587,2,0,B|42:191|42:191|5:190,2,75,0|8|0,0:0|0:0|0:0,0:0:0:0:
163,304,173168,1,2,0:0:0:0:
268,232,173361,2,0,B|304:241|304:241|331:267,2,75,0|8|0,0:0|0:0|0:0,0:0:0:0:
170,240,173942,6,0,B|145:212|145:212|133:176,2,75,2|0|8,0:0|0:0|0:0,0:0:0:0:
248,182,174522,1,0,0:0:0:0:
326,240,174716,2,0,B|343:207|343:207|345:169,1,75,2|0,0:0|0:0,0:0:0:0:
248,182,175103,2,0,B|250:144|250:144|267:111,1,75,8|0,0:0|0:0,0:0:0:0:
330,36,175490,6,0,B|365:45|365:45|393:70,1,75,2|2,0:0|0:0,0:0:0:0:
456,146,175877,1,10,0:0:0:0:
359,162,176071,2,0,B|333:189|333:189|324:225,1,75,2|0,0:0|0:0,0:0:0:0:
355,318,176458,2,0,B|392:316|392:316|424:298,2,75,2|10|2,0:0|0:0|0:0,0:0:0:0:
265,275,177039,6,0,B|234:263|234:263|214:187,2,112.5,2|0|0,0:0|0:0|0:0,0:0:0:0:
373,209,177813,2,0,B|404:221|404:221|424:297,2,112.5,2|0|0,0:0|0:0|0:0,0:0:0:0:
253,225,178587,6,0,L|216:234,3,37.5,2|0|2|0,0:0|0:0|0:0|0:0,0:0:0:0:
272,177,178974,2,0,L|309:186,3,37.5,2|0|2|0,0:0|0:0|0:0|0:0,0:0:0:0:
225,161,179361,2,0,P|151:156|103:102,1,150,2|0,0:0|0:0,0:0:0:0:
195,69,179942,1,0,0:0:0:0:
201,67,180039,1,0,0:0:0:0:
207,64,180135,6,0,P|234:62|261:70,1,56.2500021457673,6|2,0:2|0:0,0:0:0:0:
279,167,180522,2,0,P|252:169|225:161,1,56.2500021457673,8|2,0:2|0:0,0:0:0:0:
342,91,180910,2,0,P|372:137|373:193,1,112.500004291535,2|8,0:0|0:2,0:0:0:0:
281,306,181684,6,0,P|253:313|225:312,1,56.2500021457673,2|2,0:2|0:0,0:0:0:0:
133,293,182071,2,0,P|147:269|154:242,1,56.2500021457673,8|2,0:2|0:0,0:0:0:0:
125,145,182458,2,0,P|178:159|232:147,1,112.500004291535,2|8,0:0|0:2,0:0:0:0:
318,28,183232,6,0,P|344:20|372:20,1,56.2500021457673,2|2,0:2|0:0,0:0:0:0:
440,49,183619,1,8,0:2:0:0:
470,116,183813,1,2,0:0:0:0:
361,128,184006,2,0,P|355:73|373:20,1,112.500004291535,2|8,0:0|0:2,0:0:0:0:
286,219,184781,5,2,0:2:0:0:
273,289,184974,1,2,0:0:0:0:
205,181,185168,1,8,0:2:0:0:
218,109,185361,1,2,0:0:0:0:
192,252,185555,6,0,L|168:303,1,56.2500021457673,2|0,0:2|0:0,0:0:0:0:
299,147,185942,2,0,L|322:97,1,56.2500021457673,8|2,0:2|0:0,0:0:0:0:
157,42,186329,6,0,P|121:53|92:76,1,75,6|0,0:0|0:0,0:0:0:0:
65,170,186716,2,0,P|88:199|100:235,1,75,8|0,0:0|0:0,0:0:0:0:
38,310,187103,2,0,P|14:280|3:244,1,75
139,296,187490,2,0,P|175:303|212:298,1,75,8|0,0:0|0:0,0:0:0:0:
346,221,187877,6,0,P|380:234|408:259,1,75,6|0,0:0|0:0,0:0:0:0:
384,369,188264,2,0,P|349:355|321:330,1,75,8|0,0:0|0:0,0:0:0:0:
260,209,188652,2,0,P|273:174|298:146,1,75
414,78,189039,2,0,P|429:112|430:149,1,75,8|0,0:0|0:0,0:0:0:0:
368,272,189426,5,6,0:0:0:0:
364,276,189620,1,6,0:0:0:0:
304,92,190006,1,0,0:0:0:0:
206,94,190200,5,6,0:0:0:0:
200,96,190394,1,6,0:0:0:0:
75,246,190781,1,0,0:0:0:0:
128,328,190974,5,6,0:0:0:0:
200,96,191361,1,6,0:0:0:0:
364,276,191749,1,6,0:0:0:0:
191,364,192135,5,2,0:0:0:0:
127,290,192329,2,0,L|90:297,2,37.5,0|0|2,3:0|3:0|0:0,0:0:0:0:
100,248,198716,6,0,B|142:203|203:207|203:207|246:254|310:235,1,225,2|0,0:0|0:0,0:0:0:0:
276,143,200264,2,0,B|268:101|287:70|287:70|328:81|360:66,1,150,2|0,0:0|0:0,0:0:0:0:
451,32,201426,2,0,L|444:68,1,37.5
441,118,201813,6,0,B|441:188|490:222|490:222|478:275|423:300,1,225,2|0,0:0|0:0,0:0:0:0:
348,240,203361,2,0,B|314:217|277:218|277:218|246:247|209:246,1,150,2|0,0:0|0:0,0:0:0:0:
211,149,204523,1,0,0:0:0:0:
126,197,204910,5,6,0:0:0:0:
121,201,205297,2,0,P|117:225|119:250,2,50,6|6|6,0:0|0:0|0:0,0:0:0:0:
141,122,205684,1,6,0:0:0:0:
342,66,206458,6,0,B|378:78|378:78|388:117|425:134,2,112.5,6|0|0,0:0|0:0|0:0,0:0:0:0:
247,42,207232,2,0,P|211:107|231:180,1,150,2|8,0:0|0:0,0:0:0:0:
306,236,207813,1,0,0:0:0:0:
375,142,208006,6,0,P|343:124|306:118,1,75,2|0,0:0|0:0,0:0:0:0:
229,177,208393,2,0,P|194:190|157:190,1,75,8|0,0:0|0:0,0:0:0:0:
66,151,208781,2,0,P|39:177|24:211,1,75,2|0,0:0|0:0,0:0:0:0:
28,308,209168,2,0,P|64:298|94:276,1,75,8|0,0:0|0:0,0:0:0:0:
168,212,209555,2,0,B|197:232|197:232|179:269|193:307,2,112.5,2|0|0,0:0|0:0|0:0,0:0:0:0:
72,191,210329,6,0,L|36:203,3,37.5,2|0|2|0,0:0|0:0|0:0|0:0,0:0:0:0:
88,145,210716,2,0,L|123:157,3,37.5,8|0|2|0,0:0|0:0|0:0|0:0,0:0:0:0:
72,99,211103,6,0,P|104:33|175:18,1,150,6|8,0:0|0:0,0:0:0:0:
226,102,211684,1,0,0:0:0:0:
313,59,211877,2,0,B|351:73|351:73|321:122|337:179,1,150,2|8,0:0|0:0,0:0:0:0:
384,263,212458,1,0,0:0:0:0:
332,345,212652,6,0,P|293:357|258:352,1,75,2|0,0:0|0:0,0:0:0:0:
214,265,213039,2,0,P|249:254|286:258,1,75,8|0,0:0|0:0,0:0:0:0:
384,263,213426,2,0,P|388:225|377:190,1,75,2|0,0:0|0:0,0:0:0:0:
311,118,213813,2,0,P|282:147|250:160,1,75,8|0,0:0|0:0,0:0:0:0:
157,132,214200,6,0,P|94:170|75:241,1,150,2|8,0:0|0:0,0:0:0:0:
103,335,214781,1,0,0:0:0:0:
186,282,214974,2,0,B|212:266|212:266|243:294|287:288,2,112.5,2|0|0,0:0|0:0|0:0,0:0:0:0:
103,335,215748,6,0,P|89:300|89:263,1,75,2|0,0:0|0:0,0:0:0:0:
129,174,216135,1,8,0:0:0:0:
94,83,216329,1,0,0:0:0:0:
190,98,216522,2,0,P|226:104|263:95,1,75,2|0,0:0|0:0,0:0:0:0:
322,17,216910,2,0,P|347:44|360:79,1,75,8|0,0:0|0:0,0:0:0:0:
330,215,217297,6,0,B|323:255|323:255|383:248|419:293,1,150,6|8,0:0|0:0,0:0:0:0:
343,352,217877,1,0,0:0:0:0:
257,304,218071,2,0,B|215:295|182:321|182:321|159:296,2,112.5,2|0|0,0:0|0:0|0:0,0:0:0:0:
342,352,218845,6,0,P|371:327|388:294,1,75,2|0,0:0|0:0,0:0:0:0:
417,201,219232,2,0,P|450:217|474:246,1,75,8|0,0:0|0:0,0:0:0:0:
345,232,219619,2,0,P|312:214|287:186,1,75,2|0,0:0|0:0,0:0:0:0:
362,82,220006,1,8,0:0:0:0:
236,58,220200,1,0,0:0:0:0:
230,56,220297,1,0,0:0:0:0:
224,54,220393,5,2,0:0:0:0:
149,138,220587,2,0,L|111:132,2,37.5,0|0|8,0:0|0:0|0:0,0:0:0:0:
224,221,220974,2,0,L|261:215,2,37.5,0|0|2,0:0|0:0|0:0,0:0:0:0:
143,299,221361,2,0,L|105:293,2,37.5,0|0|8,0:0|0:0|0:0,0:0:0:0:
248,337,221748,1,0,0:0:0:0:
252,341,221845,1,0,0:0:0:0:
256,345,221942,6,0,L|265:381,3,37.5,2|0|0|0,0:0|0:0|0:0|0:0,0:0:0:0:
311,298,222329,2,0,L|320:261,3,37.5
361,349,222716,6,0,L|365:368,16,18.75,2|0|0|0|0|0|0|0|0|0|0|0|0|0|0|0|6,3:2|3:2|3:2|3:2|3:2|3:2|3:2|3:2|3:2|3:2|3:2|3:2|3:2|3:2|3:2|3:2|3:2,3:2:0:0:
281,47,225039,1,2,0:0:0:0:
136,118,225813,1,2,0:0:0:0:
256,192,226587,5,6,0:0:0:0:
256,192,226684,12,6,228135,0:0:0:0:
256,192,228329,12,0,230458,0:0:0:0:
