osu file format v14

[General]
AudioFilename: Shissou Suru Kanashimi no Naka de.mp3
AudioLeadIn: 1500
PreviewTime: 31490
Countdown: 0
SampleSet: Soft
StackLeniency: 0.3
Mode: 0
LetterboxInBreaks: 0
EpilepsyWarning: 1
WidescreenStoryboard: 1

[Editor]
DistanceSpacing: 1.25
BeatDivisor: 4
GridSize: 4
TimelineZoom: 1

[Metadata]
Title:Shissou Suru Kanashimi no Naka de
TitleUnicode:疾走する悲しみの中で
Artist:senya
ArtistUnicode:senya
Creator:-Mo-
Version:Advanced
Source:艦隊これくしょん~艦これ~
Tags:Yuuhei Catharsis 幽閉カタルシス In The Midst Of Dashing Grief Kantai Collection~KanColle~ Collection KanColle 艦隊これくしょん 艦これ Kamase-tora かませ虎 HiZuMi ikuo 連合艦隊、西へ Mayumi Morinaga 森永真由美 Korekushon Combined Fleet C88
BeatmapID:795981
BeatmapSetID:347460

[Difficulty]
HPDrainRate:5
CircleSize:3.7
OverallDifficulty:5
ApproachRate:6.5
SliderMultiplier:1.2
SliderTickRate:1

[Events]
//Background and Video events
0,0,"C88Cover.jpg",0,0
//Break Periods
2,81239,86257
2,192722,197741
//Storyboard Layer 0 (Background)
//Storyboard Layer 1 (Fail)
//Storyboard Layer 2 (Pass)
//Storyboard Layer 3 (Foreground)
Sprite,Foreground,Centre,"SB\Ring.png",115,100 S,1,12910,15232,0.3,0.8 F,0,13297,15232,1,0
Sprite,Foreground,Centre,"SB\Ring.png",319,220 S,1,25297,27619,0.3,0.8 F,0,25684,27619,1,0
Sprite,Foreground,Centre,"SB\Ring.png",341,166 S,1,37684,40006,0.3,0.8 F,0,38071,40006,1,0
Sprite,Foreground,Centre,"SB\Ring.png",405,311 S,1,51619,53942,0.3,0.8 F,0,52006,53942,1,0
Sprite,Foreground,Centre,"SB\Ring.png",339,332 S,1,68652,70974,0.3,0.8 F,0,69039,70974,1,0
Sprite,Foreground,Centre,"SB\Ring.png",222,224 S,1,93426,95748,0.3,0.8 F,0,93813,95748,1,0
Sprite,Foreground,Centre,"SB\Ring.png",195,311 S,1,105813,108135,0.3,0.8 F,0,106200,108135,1,0
Sprite,Foreground,Centre,"SB\Ring.png",300,202 S,1,118200,120522,0.3,0.8 F,0,118587,120522,1,0
Sprite,Foreground,Centre,"SB\Ring.png",239,305 S,1,132135,134458,0.3,0.8 F,0,132522,134458,1,0
Sprite,Foreground,Centre,"SB\Ring.png",263,284 S,1,149168,151490,0.3,0.8 F,0,149555,151490,1,0
Sprite,Foreground,Centre,"SB\Ring.png",490,247 S,1,163103,165426,0.3,0.8 F,0,163490,165426,1,0
Sprite,Foreground,Centre,"SB\Ring.png",275,266 S,1,180135,182458,0.3,0.8 F,0,180522,182458,1,0
Sprite,Foreground,Centre,"SB\Ring.png",419,304 S,1,206458,208781,0.3,0.8 F,0,206845,208781,1,0
Sprite,Foreground,Centre,"SB\Ring.png",320,251 S,1,223490,225813,0.3,0.8 F,0,223877,225813,1,0
Sprite,Foreground,Centre,"SB\Ring.png",320,132 S,1,226587,228910,0.3,0.8 F,0,226974,228910,1,0
Sprite,Foreground,Centre,"SB\Glow.png",363,186 F,2,6716,7490,1,0
Sprite,Foreground,Centre,"SB\Glow.png",367,190 F,2,8264,9038,1,0
Sprite,Foreground,Centre,"SB\Glow.png",371,194 F,2,9813,10587,1,0
Sprite,Foreground,Centre,"SB\Glow.png",460,80 F,2,10587,11361,1,0
Sprite,Foreground,Centre,"SB\Glow.png",227,148 F,2,11361,12135,1,0
Sprite,Foreground,Centre,"SB\Glow.png",100,112 F,2,11748,12522,1,0
Sprite,Foreground,Centre,"SB\Glow.png",110,231 F,2,12135,12909,1,0
Sprite,Foreground,Centre,"SB\Glow.png",110,231 F,2,12522,13297,1,0
Sprite,Foreground,Centre,"SB\Glow.png",392,361 F,2,31490,32264,1,0
Sprite,Foreground,Centre,"SB\Glow.png",174,96 F,2,33039,33813,1,0
Sprite,Foreground,Centre,"SB\Glow.png",383,302 F,2,34587,35361,1,0
Sprite,Foreground,Centre,"SB\Glow.png",425,344 F,2,34781,35555,1,0
Sprite,Foreground,Centre,"SB\Glow.png",257,194 F,2,35361,36135,1,0
Sprite,Foreground,Centre,"SB\Glow.png",215,152 F,2,35555,36329,1,0
Sprite,Foreground,Centre,"SB\Glow.png",300,359 F,2,36135,36910,1,0
Sprite,Foreground,Centre,"SB\Glow.png",375,347 F,2,36522,37297,1,0
Sprite,Foreground,Centre,"SB\Glow.png",300,359 F,2,36910,37684,1,0
Sprite,Foreground,Centre,"SB\Glow.png",196,188 F,2,43877,44651,1,0
Sprite,Foreground,Centre,"SB\Glow.png",151,158 F,2,50071,50845,1,0
Sprite,Foreground,Centre,"SB\Glow.png",273,244 F,2,50458,51232,1,0
Sprite,Foreground,Centre,"SB\Glow.png",151,302 F,2,50845,51619,1,0
Sprite,Foreground,Centre,"SB\Glow.png",184,115 F,2,56264,57038,1,0
Sprite,Foreground,Centre,"SB\Glow.png",227,365 F,2,62458,63232,1,0
Sprite,Foreground,Centre,"SB\Glow.png",117,191 F,2,67103,67877,1,0
Sprite,Foreground,Centre,"SB\Glow.png",209,72 F,2,67490,68264,1,0
Sprite,Foreground,Centre,"SB\Glow.png",0,0 S,0,67877,,1 M,0,67877,67974,298,191,316,215 M,0,67974,68071,316,215,343,202 M,0,68071,68168,343,202,372,195 S,2,68071,68652,1,3 M,0,68168,68264,372,195,401,195 M,0,68264,68652,401,195,339,332
Sprite,Foreground,Centre,"SB\Glow.png",189,342 F,2,87232,88006,1,0
Sprite,Foreground,Centre,"SB\Glow.png",352,286 F,2,112006,112780,1,0
Sprite,Foreground,Centre,"SB\Glow.png",493,118 F,2,113555,114329,1,0
Sprite,Foreground,Centre,"SB\Glow.png",287,283 F,2,115103,115877,1,0
Sprite,Foreground,Centre,"SB\Glow.png",245,325 F,2,115297,116071,1,0
Sprite,Foreground,Centre,"SB\Glow.png",353,213 F,2,115877,116652,1,0
Sprite,Foreground,Centre,"SB\Glow.png",395,171 F,2,116071,116845,1,0
Sprite,Foreground,Centre,"SB\Glow.png",327,379 F,2,116652,117426,1,0
Sprite,Foreground,Centre,"SB\Glow.png",251,370 F,2,117039,117813,1,0
Sprite,Foreground,Centre,"SB\Glow.png",327,379 F,2,117426,118200,1,0
Sprite,Foreground,Centre,"SB\Glow.png",459,381 F,2,124393,125167,1,0
Sprite,Foreground,Centre,"SB\Glow.png",489,158 F,2,130587,131361,1,0
Sprite,Foreground,Centre,"SB\Glow.png",367,244 F,2,130974,131748,1,0
Sprite,Foreground,Centre,"SB\Glow.png",489,302 F,2,131361,132135,1,0
Sprite,Foreground,Centre,"SB\Glow.png",555,190 F,2,136781,137555,1,0
Sprite,Foreground,Centre,"SB\Glow.png",369,259 F,2,142974,143748,1,0
Sprite,Foreground,Centre,"SB\Glow.png",0,0 M,0,147619,147716,113,331,101,304 M,0,147716,147813,101,304,96,274 M,0,147813,147910,96,274,96,244 M,0,147910,148006,96,244,105,216 M,0,148006,148103,105,216,134,205 M,0,148103,148200,134,205,163,201 M,0,148200,148297,163,201,193,205 M,0,148297,148393,193,205,221,216 M,0,148393,148490,221,216,249,207 M,0,148490,148587,249,207,273,189 M,0,148587,148684,273,189,291,165 M,0,148684,148781,291,165,304,139 M,0,148781,149168,304,139,263,284 S,2,148877,149168,1,3
Sprite,Foreground,Centre,"SB\Glow.png",232,87 F,2,161555,162329,1,0
Sprite,Foreground,Centre,"SB\Glow.png",366,153 F,2,161942,162716,1,0
Sprite,Foreground,Centre,"SB\Glow.png",232,221 F,2,162329,163103,1,0
Sprite,Foreground,Centre,"SB\Glow.png",243,256 F,2,186329,187103,1,0
Sprite,Foreground,Centre,"SB\Glow.png",196,386 F,2,187877,188651,1,0
Sprite,Foreground,Centre,"SB\Glow.png",355,281 F,2,189426,190200,1,0
Sprite,Foreground,Centre,"SB\Glow.png",397,323 F,2,189619,190393,1,0
Sprite,Foreground,Centre,"SB\Glow.png",285,215 F,2,190200,190974,1,0
Sprite,Foreground,Centre,"SB\Glow.png",243,173 F,2,190393,191168,1,0
Sprite,Foreground,Centre,"SB\Glow.png",291,391 F,2,190974,191748,1,0
Sprite,Foreground,Centre,"SB\Glow.png",366,379 F,2,191361,192135,1,0
Sprite,Foreground,Centre,"SB\Glow.png",291,391 F,2,191748,192522,1,0
Sprite,Foreground,Centre,"SB\Glow.png",419,160 F,2,204910,205684,1,0
Sprite,Foreground,Centre,"SB\Glow.png",297,246 F,2,205297,206071,1,0
Sprite,Foreground,Centre,"SB\Glow.png",419,304 F,2,205684,206458,1,0
Sprite,Foreground,Centre,"SB\Glow.png",567,119 F,2,211103,211877,1,0
Sprite,Foreground,Centre,"SB\Glow.png",175,412 F,2,217297,218071,1,0
Sprite,Foreground,Centre,"SB\Glow.png",268,336 F,0,222716,223877,1,0
Sprite,Foreground,Centre,"SB\Glow.png",414,368 F,2,223103,223877,1,0
//Storyboard Sound Samples

[TimingPoints]
523,387.096774193548,4,2,1,40,1,0
6716,-100,4,2,1,80,0,0
12910,-100,4,2,2,90,0,0
13006,-100,4,2,1,90,0,0
25297,-100,4,3,2,90,0,0
25393,-100,4,3,1,80,0,0
31490,-100,4,2,1,90,0,0
37297,-100,4,2,1,60,0,0
37684,-100,4,2,2,100,0,1
37781,-100,4,2,1,100,0,1
50071,-100,4,2,1,80,0,0
51619,-100,4,2,2,100,0,1
51716,-100,4,2,1,100,0,1
67103,-100,4,2,1,90,0,0
68652,-100,4,2,2,90,0,0
68748,-100,4,2,1,90,0,0
81039,-100,4,2,1,60,0,0
87232,-100,4,2,1,80,0,0
93426,-100,4,2,2,90,0,0
93522,-100,4,2,1,90,0,0
105813,-100,4,3,2,90,0,0
105910,-100,4,3,1,80,0,0
112006,-100,4,2,1,90,0,0
117813,-100,4,2,1,60,0,0
118200,-100,4,2,2,100,0,1
118297,-100,4,2,1,100,0,1
130587,-100,4,2,1,90,0,0
132135,-100,4,2,2,100,0,1
132232,-100,4,2,1,100,0,1
147619,-100,4,2,1,100,0,0
147716,-100,4,2,2,100,0,0
149168,-100,4,2,2,90,0,0
149264,-100,4,2,1,90,0,0
160587,-100,4,2,2,90,0,0
160684,-100,4,2,1,90,0,0
161555,-100,4,2,1,80,0,0
163103,-100,4,2,2,90,0,0
163200,-100,4,2,1,90,0,0
178974,-100,4,2,2,90,0,0
180135,-100,4,3,2,90,0,0
180232,-100,4,3,1,80,0,0
186329,-100,4,2,1,90,0,0
192135,-100,4,2,1,60,0,0
198716,-100,4,2,2,40,0,0
204910,-100,4,2,1,90,0,0
206458,-100,4,2,2,100,0,1
206555,-100,4,2,1,100,0,1
221942,-100,4,2,1,100,0,0
222329,-100,4,2,2,70,0,0
223103,-100,4,2,1,80,0,0
223490,-100,4,2,2,100,0,1
223587,-100,4,2,1,90,0,0
226587,-100,4,2,2,90,0,0
226781,-100,4,2,2,60,0,0
228135,-100,4,2,2,90,0,0
230458,-100,4,2,1,30,0,0

[Colours]
Combo1 : 223,72,0
Combo2 : 0,74,158
Combo3 : 185,0,0
Combo4 : 0,128,191

[HitObjects]
217,84,523,6,0,B|194:117|205:163|205:163|172:182,1,120,2|0,0:0|0:0,0:0:0:0:
47,264,1297,2,0,B|45:295|45:295|71:333|121:333,1,120
192,313,1877,1,0,0:0:0:0:
255,273,2071,2,0,B|277:310|257:351|257:351|294:369,2,120,2|0|0,0:0|0:0|0:0,0:0:0:0:
119,208,3232,1,0,0:0:0:0:
199,81,3619,6,0,B|231:61|231:61|270:82|309:81,1,120,2|0,0:0|0:0,0:0:0:0:
450,30,4393,2,0,B|483:24|483:24|501:63|488:109,1,120
453,175,4974,1,0,0:0:0:0:
491,239,5168,2,0,B|502:274|502:274|467:297|457:343,1,120,2|0,0:0|0:0,0:0:0:0:
325,269,5942,2,0,B|284:261|245:289|245:289|225:260,1,120
299,130,6716,5,6,0:0:0:0:
303,134,8264,1,6,0:0:0:0:
307,138,9813,6,0,B|333:133|333:133|362:173|413:173,1,120,6|0,0:0|0:0,0:0:0:0:
396,24,10587,2,0,B|361:21|338:38|338:38|317:18|283:13,1,120,6|0,0:0|0:0,0:0:0:0:
214,37,11168,1,0,0:0:0:0:
163,92,11361,6,0,P|133:85|109:68,1,60,6|0,0:0|0:0,0:0:0:0:
36,56,11748,2,0,P|18:79|12:109,1,60,6|0,0:0|0:0,0:0:0:0:
46,175,12135,2,0,P|29:199|5:217,2,60,6|0|6,0:0|0:0|0:0,0:0:0:0:
86,111,12716,1,0,0:0:0:0:
51,44,12910,6,0,B|76:22|76:22|112:51|157:47,1,120,6|8,0:0|0:0,0:0:0:0:
229,28,13490,1,0,0:0:0:0:
301,49,13684,2,0,B|336:64|336:64|307:103|316:148,1,120,0|8,0:0|0:0,0:0:0:0:
341,211,14264,1,0,0:0:0:0:
393,265,14458,2,0,B|421:281|421:281|467:268|483:223,2,120,2|8|0,0:0|0:0|0:0,0:0:0:0:
341,211,15426,1,0,0:0:0:0:
289,157,15619,2,0,P|261:144|232:141,1,60,8|0,0:0|0:0,0:0:0:0:
161,165,16006,6,0,P|133:177|104:181,1,60,2|0,0:0|0:0,0:0:0:0:
29,172,16393,2,0,P|16:199|12:228,1,60,8|0,0:0|0:0,0:0:0:0:
40,299,16781,2,0,B|63:324|63:324|98:292|140:288,1,120,0|8,0:0|0:0,0:0:0:0:
207,320,17361,1,0,0:0:0:0:
277,292,17555,2,0,P|285:264|288:234,1,60,2|0,0:0|0:0,0:0:0:0:
267,162,17942,2,0,B|247:151|209:162|209:162|202:198|174:209,1,120,8|0,0:0|0:0,0:0:0:0:
102,225,18522,1,0,0:0:0:0:
85,152,18716,2,0,P|88:122|98:94,1,60,8|0,0:0|0:0,0:0:0:0:
152,42,19103,6,0,B|185:27|185:27|216:63|257:62,2,120,2|8|0,0:0|0:0|0:0,0:0:0:0:
98,94,20071,1,0,0:0:0:0:
141,155,20264,2,0,P|157:180|165:209,1,60,8|0,0:0|0:0,0:0:0:0:
150,283,20652,2,0,B|106:293|71:273|71:273|53:307,2,120,2|8|0,0:0|0:0|0:0,0:0:0:0:
220,256,21619,1,0,0:0:0:0:
275,205,21813,2,0,P|275:175|263:147,1,60,8|0,0:0|0:0,0:0:0:0:
242,76,22200,6,0,B|251:37|251:37|289:57|328:48,1,120,2|8,0:0|0:0,0:0:0:0:
400,25,22781,1,0,0:0:0:0:
458,72,22974,2,0,B|461:107|461:107|420:123|407:167,1,120,0|8,0:0|0:0,0:0:0:0:
415,243,23555,1,0,0:0:0:0:
452,308,23748,2,0,P|441:336|424:361,1,60,2|0,0:0|0:0,0:0:0:0:
352,382,24135,1,8,0:0:0:0:
285,348,24329,1,0,0:0:0:0:
213,371,24522,2,0,P|188:352|169:329,1,60
159,255,24910,2,0,P|186:242|209:224,1,60,8|0,0:0|0:0,0:0:0:0:
255,164,25297,5,6,0:2:0:0:
155,53,25684,1,8,0:2:0:0:
85,185,26071,2,0,B|83:216|83:216|108:256|183:257,1,120,2|8,0:0|0:2,0:0:0:0:
229,228,26652,1,2,0:0:0:0:
291,270,26845,2,0,B|320:290|320:290|364:266|402:284,2,120,2|8|2,0:2|0:2|0:0,0:0:0:0:
191,157,28006,1,8,0:2:0:0:
281,37,28393,6,0,P|310:35|340:42,1,60,2|2,0:2|0:0,0:0:0:0:
408,75,28781,2,0,P|429:54|446:29,2,60,8|2|2,0:2|0:0|0:0,0:0:0:0:
297,175,29555,1,8,0:2:0:0:
366,308,29942,2,0,P|396:315|426:314,1,60,2|2,0:2|0:0,0:0:0:0:
492,279,30329,2,0,P|492:250|498:220,1,60,8|2,0:2|0:0,0:0:0:0:
475,148,30716,2,0,B|453:126|453:126|408:126|373:162,1,120,2|8,0:2|0:2,0:0:0:0:
328,305,31490,6,0,B|305:333|305:333|270:300|228:302,1,120,6|8,0:0|0:0,0:0:0:0:
160,331,32071,1,0,0:0:0:0:
94,296,32264,2,0,P|85:267|88:237,1,60
123,171,32652,2,0,P|132:142|129:112,1,60,8|0,0:0|0:0,0:0:0:0:
110,40,33039,2,0,B|128:19|155:20|155:20|185:40|220:41,1,120,6|8,0:0|0:0,0:0:0:0:
293,28,33619,1,0,0:0:0:0:
366,46,33813,2,0,B|395:65|395:65|401:113|373:144,1,120,0|8,0:0|0:0,0:0:0:0:
303,173,34393,1,0,0:0:0:0:
319,246,34587,6,0,L|361:288,1,60,6|6,0:0|0:0,0:0:0:0:
193,138,35361,2,0,L|151:96,1,60,6|6,0:0|0:0,0:0:0:0:
236,303,36135,2,0,B|279:343|279:343|311:291,2,120,6|6|6,0:0|0:0|0:0,0:0:0:0:
161,172,37297,2,0,P|180:149|205:133,1,60,2|0,0:0|0:0,0:0:0:0:
277,110,37684,6,0,B|294:138|322:147|322:147|351:131|380:141,1,120,6|8,0:0|0:0,0:0:0:0:
447,175,38264,1,0,0:0:0:0:
468,247,38458,2,0,P|466:277|455:305,1,60,2|0,0:0|0:0,0:0:0:0:
391,343,38845,2,0,P|363:332|333:330,1,60,8|0,0:0|0:0,0:0:0:0:
260,341,39232,2,0,B|241:355|241:355|209:341|175:350,2,90,2|0|0,0:0|0:0|0:0,0:0:0:0:
290,272,40006,2,0,B|299:233|299:233|276:190|286:155,1,120,2|8,0:0|0:0,0:0:0:0:
344,108,40587,1,0,0:0:0:0:
361,181,40781,6,0,B|376:210|376:210|419:229|457:194,1,120,2|8,0:0|0:0,0:0:0:0:
503,136,41361,1,0,0:0:0:0:
478,65,41555,2,0,B|445:51|418:60|418:60|404:34|373:19,1,120,2|8,0:0|0:0,0:0:0:0:
306,47,42135,1,0,0:0:0:0:
236,19,42329,2,0,B|208:9|208:9|184:27|150:23,2,90,2|0|0,0:0|0:0|0:0,0:0:0:0:
306,47,43103,2,0,B|323:75|323:75|320:121|277:145,1,120,2|8,0:0|0:0,0:0:0:0:
203,155,43684,1,0,0:0:0:0:
132,132,43877,6,0,B|99:126|99:126|110:169|81:208,1,120,6|8,0:0|0:0,0:0:0:0:
30,262,44458,1,0,0:0:0:0:
69,326,44652,2,0,P|97:335|127:338,1,60,2|0,0:0|0:0,0:0:0:0:
194,303,45039,2,0,P|220:290|250:283,1,60,8|0,0:0|0:0,0:0:0:0:
325,288,45426,2,0,B|323:327|323:327|367:343|377:382,2,120,2|8|2,0:0|0:0|0:0,0:0:0:0:
331,138,46587,2,0,P|355:120|382:108,1,60,8|0,0:0|0:0,0:0:0:0:
457,104,46974,6,0,B|477:128|471:158|471:158|440:171|429:201,1,120,2|8,0:0|0:0,0:0:0:0:
442,275,47555,1,0,0:0:0:0:
421,347,47748,2,0,B|413:372|413:372|379:356|351:364,2,90,2|0|0,0:0|0:0|0:0,0:0:0:0:
442,275,48522,2,0,B|457:211|425:160|425:160|359:180|310:144,1,240,2|2,0:0|0:0,0:0:0:0:
202,42,49684,2,0,P|172:43|143:52,1,60,8|0,0:0|0:0,0:0:0:0:
87,102,50071,5,6,0:0:0:0:
209,188,50458,2,0,L|155:214,1,60,6|0,0:0|0:0,0:0:0:0:
87,246,50845,1,6,0:0:0:0:
224,306,51232,2,0,P|253:309|283:303,1,60,2|0,0:0|0:0,0:0:0:0:
341,255,51619,6,0,B|352:226|352:226|334:200|334:170,2,90,6|0|0,0:0|0:0|0:0,0:0:0:0:
349,330,52393,2,0,B|354:356|354:356|404:370|442:339,1,120,2|8,0:0|0:0,0:0:0:0:
466,268,52974,1,0,0:0:0:0:
438,198,53168,6,0,B|428:152|454:118|454:118|434:88,2,120,2|8|2,0:0|0:0|0:0,0:0:0:0:
466,268,54135,1,0,0:0:0:0:
442,339,54329,2,0,P|413:339|383:332,1,60,8|0,0:0|0:0,0:0:0:0:
315,300,54716,2,0,B|285:285|285:285|246:315|203:299,1,120,2|8,0:0|0:0,0:0:0:0:
159,238,55297,1,0,0:0:0:0:
233,225,55490,2,0,B|254:210|254:210|264:160|241:118,1,120,2|8,0:0|0:0,0:0:0:0:
195,59,56071,1,0,0:0:0:0:
120,59,56264,6,0,B|89:87|89:87|110:123|100:163,1,120,6|8,0:0|0:0,0:0:0:0:
67,230,56845,1,0,0:0:0:0:
89,302,57039,2,0,B|124:326|172:323|172:323|188:295,1,120,2|8,0:0|0:0,0:0:0:0:
194,221,57619,1,0,0:0:0:0:
215,149,57813,2,0,B|198:120|198:120|154:135|115:113,2,120,2|8|2,0:0|0:0|0:0,0:0:0:0:
267,203,58781,1,0,0:0:0:0:
341,191,58974,2,0,P|370:184|395:168,1,60,8|0,0:0|0:0,0:0:0:0:
429,101,59361,6,0,B|427:61|427:61|384:64|351:40,1,120,2|8,0:0|0:0,0:0:0:0:
287,1,59942,1,0,0:0:0:0:
216,25,60135,2,0,B|195:41|195:41|190:94|225:126,1,120,2|8,0:0|0:0,0:0:0:0:
285,172,60716,1,0,0:0:0:0:
268,245,60910,2,0,P|244:264|218:278,1,60,2|0,0:0|0:0,0:0:0:0:
148,252,61297,2,0,P|119:243|89:240,1,60,8|0,0:0|0:0,0:0:0:0:
18,263,61684,2,0,B|5:297|5:297|21:339|58:359,1,120,2|8,0:0|0:0,0:0:0:0:
131,377,62264,1,0,0:0:0:0:
163,309,62458,6,0,B|173:282|208:271|208:271|224:297|254:307,1,120,6|8,0:0|0:0,0:0:0:0:
327,321,63039,1,0,0:0:0:0:
384,273,63232,2,0,B|382:226|343:199|343:199|351:168,1,120,2|8,0:0|0:0,0:0:0:0:
406,116,63813,1,0,0:0:0:0:
471,79,64006,2,0,P|481:108|478:138,1,60,2|0,0:0|0:0,0:0:0:0:
457,209,64393,2,0,P|454:238|464:266,1,60,8|0,0:0|0:0,0:0:0:0:
494,336,64781,2,0,B|458:363|411:358|411:358|398:328,1,120,2|8,0:0|0:0,0:0:0:0:
384,255,65361,1,0,0:0:0:0:
350,188,65555,6,0,B|315:134|250:130|250:130|250:200|196:230,1,240,2|2,0:0|0:0,0:0:0:0:
135,273,66522,1,0,0:0:0:0:
62,259,66716,2,0,P|42:236|34:207,1,60,8|0,0:0|0:0,0:0:0:0:
53,135,67103,5,6,0:0:0:0:
145,16,67490,1,6,0:0:0:0:
234,135,67877,2,0,B|252:159|252:159|296:131|337:139,1,120,6|0,0:0|0:0,0:0:0:0:
275,276,68652,6,0,B|250:300|255:344|255:344|233:354|209:351,1,120,6|8,0:0|0:0,0:0:0:0:
139,326,69232,1,0,0:0:0:0:
65,338,69426,2,0,B|35:324|35:324|24:283|46:239,1,120,2|8,0:0|0:0,0:0:0:0:
93,182,70006,1,0,0:0:0:0:
120,252,70200,2,0,B|147:265|147:265|177:269,1,60,2|0,0:0|0:0,0:0:0:0:
247,243,70587,2,0,B|265:273|265:273|308:263|345:298,2,120,8|2|8,0:0|0:0|0:0,0:0:0:0:
219,174,71555,1,0,0:0:0:0:
192,104,71748,6,0,B|161:102|161:102|131:108,1,60,2|0,0:0|0:0,0:0:0:0:
78,159,72135,2,0,B|74:188|74:188|63:216,1,60,8|0,0:0|0:0,0:0:0:0:
12,272,72522,1,2,0:0:0:0:
74,315,72716,1,0,0:0:0:0:
124,259,72910,2,0,B|153:262|153:262|181:273,1,60,8|0,0:0|0:0,0:0:0:0:
241,319,73297,2,0,B|270:324|287:288|287:288|317:314|342:297,1,120,2|8,0:0|0:0,0:0:0:0:
395,246,73877,1,0,0:0:0:0:
357,181,74071,2,0,B|345:147|358:123|358:123|334:135|300:124,1,120,2|8,0:0|0:0,0:0:0:0:
236,85,74652,1,0,0:0:0:0:
170,120,74845,6,0,B|114:153|59:113|59:113|18:168|42:228,1,240,2|2,0:0|0:0,0:0:0:0:
82,291,75813,1,0,0:0:0:0:
152,264,76006,2,0,B|181:258|181:258|210:263,1,60,8|0,0:0|0:0,0:0:0:0:
279,295,76393,2,0,B|304:305|304:305|324:264|378:256,1,120,2|8,0:0|0:0,0:0:0:0:
452,273,76974,1,0,0:0:0:0:
466,199,77168,2,0,B|464:169|464:169|456:140,2,60,2|0|8,0:0|0:0|0:0,0:0:0:0:
452,273,77748,1,0,0:0:0:0:
395,322,77942,6,0,B|339:340|278:309|278:309|330:268|325:204,1,240,2|2,0:0|0:0,0:0:0:0:
308,132,78910,1,0,0:0:0:0:
269,68,79103,2,0,B|239:62|239:62|209:61,1,60,8|0,0:0|0:0,0:0:0:0:
136,75,79490,2,0,B|116:97|110:128|110:128|142:145|150:171,1,120,2|8,0:0|0:0,0:0:0:0:
139,245,80071,1,0,0:0:0:0:
176,310,80264,2,0,B|203:298|203:298|227:280,1,60,2|0,0:0|0:0,0:0:0:0:
250,208,80652,2,0,B|254:178|254:178|265:150,1,60,8|0,0:0|0:0,0:0:0:0:
309,90,81039,5,2,0:0:0:0:
125,286,87232,6,0,B|147:262|147:262|130:224|147:166,1,120,6|8,0:0|0:0,0:0:0:0:
194,120,87813,1,0,0:0:0:0:
249,171,88006,2,0,B|271:186|271:186|318:171|335:123,1,120,0|8,0:0|0:0,0:0:0:0:
328,48,88587,1,0,0:0:0:0:
258,75,88781,2,0,B|213:85|175:56|175:56|148:75,2,120,2|8|0,0:0|0:0|0:0,0:0:0:0:
328,48,89748,1,0,0:0:0:0:
398,75,89942,2,0,P|408:102|409:132,1,60,8|0,0:0|0:0,0:0:0:0:
380,202,90329,6,0,B|361:222|361:222|390:256|379:310,1,120,2|8,0:0|0:0,0:0:0:0:
327,363,90910,1,0,0:0:0:0:
261,328,91103,2,0,B|219:316|174:340|174:340|154:298,1,120,0|8,0:0|0:0,0:0:0:0:
179,240,91684,1,0,0:0:0:0:
158,168,91877,5,2,0:0:0:0:
158,168,93426,6,0,B|170:140|170:140|215:159|256:138,1,120,6|8,0:0|0:0,0:0:0:0:
317,94,94006,1,0,0:0:0:0:
389,116,94200,2,0,B|415:137|415:137|395:170|401:220,1,120,0|8,0:0|0:0,0:0:0:0:
424,292,94780,1,0,0:0:0:0:
375,349,94974,2,0,B|347:365|347:365|301:352|285:307,2,120,2|8|0,0:0|0:0|0:0,0:0:0:0:
424,292,95942,1,0,0:0:0:0:
404,220,96135,2,0,P|376:207|347:204,1,60,8|0,0:0|0:0,0:0:0:0:
273,218,96522,6,0,B|246:211|246:211|254:158|236:120,1,120,2|8,0:0|0:0,0:0:0:0:
181,70,97103,1,0,0:0:0:0:
107,84,97297,2,0,B|78:100|67:127|67:127|80:152|69:185,1,120,0|8,0:0|0:0,0:0:0:0:
38,253,97877,1,0,0:0:0:0:
79,316,98071,2,0,P|108:312|136:300,1,60,2|0,0:0|0:0,0:0:0:0:
197,257,98458,2,0,B|226:290|272:286|272:286|295:258,1,120,8|0,0:0|0:0,0:0:0:0:
328,191,99038,1,0,0:0:0:0:
370,253,99232,2,0,P|374:283|372:312,1,60,8|0,0:0|0:0,0:0:0:0:
321,367,99619,6,0,B|291:377|291:377|244:356|204:373,2,120,2|8|0,0:0|0:0|0:0,0:0:0:0:
372,312,100587,1,0,0:0:0:0:
343,243,100780,2,0,P|338:213|344:184,1,60,8|0,0:0|0:0,0:0:0:0:
390,124,101168,2,0,B|436:135|469:102|469:102|492:126,2,120,2|8|0,0:0|0:0|0:0,0:0:0:0:
316,114,102135,1,0,0:0:0:0:
248,82,102329,2,0,P|218:76|185:83,1,60,8|0,0:0|0:0,0:0:0:0:
142,140,102716,6,0,B|131:166|131:166|175:187|187:234,1,120,2|8,0:0|0:0,0:0:0:0:
163,306,103297,1,0,0:0:0:0:
118,366,103490,2,0,B|61:372|32:342|32:342|43:317,1,120,0|8,0:0|0:0,0:0:0:0:
99,267,104071,1,0,0:0:0:0:
163,306,104264,2,0,P|188:288|206:265,1,60,2|0,0:0|0:0,0:0:0:0:
232,194,104652,1,8,0:0:0:0:
285,141,104845,1,0,0:0:0:0:
325,205,105039,2,0,P|325:234|315:263,1,60
251,303,105426,2,0,P|231:280|205:265,1,60,8|0,0:0|0:0,0:0:0:0:
131,255,105813,5,6,0:2:0:0:
207,126,106200,1,8,0:2:0:0:
338,198,106587,2,0,B|390:231|430:221|430:221|425:192,1,120,2|8,0:0|0:2,0:0:0:0:
404,127,107168,1,2,0:0:0:0:
329,125,107361,2,0,B|293:117|293:117|297:75|269:39,2,120,2|8|2,0:2|0:2|0:0,0:0:0:0:
477,147,108522,1,8,0:2:0:0:
384,264,108909,6,0,P|363:287|338:303,1,60,2|2,0:2|0:0,0:0:0:0:
264,304,109297,2,0,P|263:334|269:364,2,60,8|2|2,0:2|0:0|0:0,0:0:0:0:
319,164,110071,1,8,0:2:0:0:
224,49,110458,2,0,P|194:42|164:43,1,60,2|2,0:2|0:0,0:0:0:0:
98,77,110845,2,0,P|98:106|92:136,1,60,8|2,0:2|0:0,0:0:0:0:
62,205,111232,2,0,B|62:236|62:236|94:267|144:266,1,120,2|8,0:2|0:2,0:0:0:0:
288,230,112006,6,0,B|304:261|288:310|288:310|314:337,1,120,6|8,0:0|0:0,0:0:0:0:
385,364,112587,1,0,0:0:0:0:
446,321,112780,2,0,P|448:291|442:262,1,60
412,193,113168,2,0,P|405:163|408:134,1,60,8|0,0:0|0:0,0:0:0:0:
429,62,113555,2,0,B|406:43|376:36|376:36|359:62|327:67,1,120,6|8,0:0|0:0,0:0:0:0:
255,42,114135,1,0,0:0:0:0:
186,72,114329,2,0,B|156:91|156:91|143:135|175:168,1,120,0|8,0:0|0:0,0:0:0:0:
227,223,114909,1,0,0:0:0:0:
223,227,115103,6,0,L|181:269,1,60,6|6,0:0|0:0,0:0:0:0:
285,161,115684,1,0,0:0:0:0:
289,157,115878,2,0,L|331:115,1,60,6|6,0:0|0:0,0:0:0:0:
307,262,116458,1,0,0:0:0:0:
263,323,116651,2,0,B|222:365|222:365|187:314,2,120,6|6|6,0:0|0:0|0:0,0:0:0:0:
354,203,117813,2,0,P|334:179|309:163,1,60,2|0,0:0|0:0,0:0:0:0:
236,146,118200,6,0,B|229:177|245:203|245:203|236:231|201:241,1,120,6|8,0:0|0:0,0:0:0:0:
127,232,118780,1,0,0:0:0:0:
56,257,118974,2,0,P|61:286|74:313,1,60,2|0,0:0|0:0,0:0:0:0:
142,345,119361,2,0,P|171:341|201:345,1,60,8|0,0:0|0:0,0:0:0:0:
272,320,119748,2,0,B|290:305|290:305|282:272|301:241,2,90,2|0|0,0:0|0:0|0:0,0:0:0:0:
201,345,120522,2,0,B|170:343|170:343|145:300|158:257,1,120,2|8,0:0|0:0,0:0:0:0:
204,198,121103,1,0,0:0:0:0:
255,143,121297,6,0,B|266:111|266:111|221:117|182:94,1,120,2|8,0:0|0:0,0:0:0:0:
120,55,121877,1,0,0:0:0:0:
76,116,122071,2,0,B|76:150|76:150|121:165|130:211,1,120,2|8,0:0|0:0,0:0:0:0:
120,285,122651,1,0,0:0:0:0:
86,352,122845,2,0,B|54:358|54:358|33:340|0:341,2,90,2|0|0,0:0|0:0|0:0,0:0:0:0:
161,348,123619,2,0,B|208:373|252:342|252:342|288:353,1,120,2|8,0:0|0:0,0:0:0:0:
343,379,124200,1,0,0:0:0:0:
395,325,124393,6,0,B|392:289|370:272|370:272|397:273|423:249,1,120,6|8,0:0|0:0,0:0:0:0:
478,197,124974,1,0,0:0:0:0:
433,137,125168,2,0,P|404:127|374:124,1,60,2|0,0:0|0:0,0:0:0:0:
306,155,125555,2,0,P|300:184|288:212,1,60,8|0,0:0|0:0,0:0:0:0:
236,266,125942,2,0,B|203:272|177:250|177:250|184:223|176:194,1,120,2|8,0:0|0:0,0:0:0:0:
142,128,126522,1,0,0:0:0:0:
169,58,126716,2,0,B|180:31|180:31|229:22|280:53,1,120,2|8,0:0|0:0,0:0:0:0:
333,84,127297,1,0,0:0:0:0:
378,144,127490,6,0,B|375:183|375:183|336:194|318:236,1,120,2|8,0:0|0:0,0:0:0:0:
292,307,128071,1,0,0:0:0:0:
304,381,128264,2,0,B|326:384|326:384|350:360|390:363,2,90,2|0|0,0:0|0:0|0:0,0:0:0:0:
233,357,129038,2,0,B|176:313|174:256|174:256|242:250|268:191,1,240,2|2,0:0|0:0,0:0:0:0:
311,60,130200,2,0,P|339:50|369:52,1,60,8|0,0:0|0:0,0:0:0:0:
425,102,130587,5,6,0:0:0:0:
303,188,130974,2,0,L|357:214,1,60,6|0,0:0|0:0,0:0:0:0:
425,246,131361,1,6,0:0:0:0:
287,306,131748,2,0,P|258:309|228:303,1,60,2|0,0:0|0:0,0:0:0:0:
175,249,132135,6,0,B|173:229|173:229|199:202|194:164,2,90,6|0|0,0:0|0:0|0:0,0:0:0:0:
156,322,132909,2,0,B|138:345|138:345|91:360|55:322,1,120,2|8,0:0|0:0,0:0:0:0:
32,251,133490,1,0,0:0:0:0:
68,185,133684,6,0,B|75:139|46:107|46:107|55:72,2,120,2|8|2,0:0|0:0|0:0,0:0:0:0:
32,251,134652,1,0,0:0:0:0:
63,319,134845,2,0,P|92:319|122:312,1,60,8|0,0:0|0:0,0:0:0:0:
187,274,135232,2,0,B|204:247|204:247|173:210|191:164,1,120,2|8,0:0|0:0,0:0:0:0:
236,104,135813,1,0,0:0:0:0:
299,65,136006,2,0,B|330:68|345:98|345:98|376:109|403:98,1,120,2|8,0:0|0:0,0:0:0:0:
470,62,136587,1,0,0:0:0:0:
491,134,136780,6,0,B|495:165|495:165|449:174|428:219,1,120,6|8,0:0|0:0,0:0:0:0:
429,294,137361,1,0,0:0:0:0:
407,366,137555,2,0,B|376:374|376:374|340:342|335:297,1,120,2|8,0:0|0:0,0:0:0:0:
345,224,138135,1,0,0:0:0:0:
326,151,138329,2,0,B|298:118|258:113|258:113|271:71,2,120,2|8|2,0:0|0:0|0:0,0:0:0:0:
345,224,139297,1,0,0:0:0:0:
312,291,139490,2,0,P|284:300|254:299,1,60,8|0,0:0|0:0,0:0:0:0:
182,277,139877,6,0,B|149:256|149:256|173:220|168:180,1,120,2|8,0:0|0:0,0:0:0:0:
141,109,140458,1,0,0:0:0:0:
72,80,140651,2,0,B|41:77|41:77|19:124|30:163,1,120,2|8,0:0|0:0,0:0:0:0:
54,235,141232,1,0,0:0:0:0:
108,287,141426,2,0,P|137:291|167:284,1,60,2|0,0:0|0:0,0:0:0:0:
226,238,141813,2,0,P|255:231|284:235,1,60,8|0,0:0|0:0,0:0:0:0:
349,272,142200,2,0,B|370:296|370:296|395:253|387:211,1,120,2|8,0:0|0:0,0:0:0:0:
353,145,142780,1,0,0:0:0:0:
305,203,142974,6,0,B|290:213|282:226|282:226|247:195|200:207,1,120,6|8,0:0|0:0,0:0:0:0:
139,250,143555,1,0,0:0:0:0:
74,287,143748,2,0,B|39:275|39:275|57:229|52:193,1,120,2|8,0:0|0:0,0:0:0:0:
28,123,144329,1,0,0:0:0:0:
71,62,144522,2,0,P|100:55|129:58,1,60,2|0,0:0|0:0,0:0:0:0:
188,107,144909,2,0,P|218:115|247:112,1,60,8|0,0:0|0:0,0:0:0:0:
303,62,145297,2,0,B|325:38|325:38|369:41|402:73,1,120,2|8,0:0|0:0,0:0:0:0:
437,140,145877,1,0,0:0:0:0:
423,214,146071,6,0,B|409:270|348:302|348:302|321:236|258:231,1,240,2|2,0:0|0:0,0:0:0:0:
196,272,147038,1,0,0:0:0:0:
155,335,147232,2,0,P|125:340|96:333,1,60,8|0,0:0|0:0,0:0:0:0:
49,275,147619,6,0,B|17:214|41:160|41:160|101:129|157:160|157:160|215:150|240:83,1,360,6|0,0:0|0:0,0:0:0:0:
199,228,149168,6,0,B|185:279|225:340|225:340|255:278|319:276,1,240,6|2,0:0|0:0,0:0:0:0:
390,303,150135,1,0,0:0:0:0:
442,249,150329,2,0,B|432:221|432:221|413:197,1,60,8|0,0:0|0:0,0:0:0:0:
345,166,150716,2,0,B|327:135|327:135|348:98|334:53,2,120,2|8|2,0:0|0:0|0:0,0:0:0:0:
387,228,151684,2,0,B|446:233,2,60,2|8|0,0:0|0:0|0:0,0:0:0:0:
317,254,152264,6,0,B|317:318|257:350|257:350|230:288|161:289,1,240,2|2,0:0|0:0,0:0:0:0:
95,322,153232,1,0,0:0:0:0:
28,287,153426,2,0,B|21:257|21:257|21:227,1,60,8|0,0:0|0:0,0:0:0:0:
49,158,153813,2,0,B|69:137|69:137|100:151,1,60,2|0,0:0|0:0,0:0:0:0:
166,180,154200,1,8,0:0:0:0:
230,140,154393,2,0,B|253:139|278:152|278:152|307:122|354:128,1,120,2|2,0:0|0:0,0:0:0:0:
415,135,154974,2,0,B|430:162|430:162|435:191,1,60,8|0,0:0|0:0,0:0:0:0:
417,264,155361,6,0,B|421:279|429:291|429:291|388:311|340:281,1,120,2|8,0:0|0:0,0:0:0:0:
288,232,155942,1,0,0:0:0:0:
335,174,156135,2,0,B|351:143|351:143|310:121|301:77,1,120,2|8,0:0|0:0,0:0:0:0:
294,3,156716,1,0,0:0:0:0:
229,39,156910,2,0,B|205:56|205:56|176:64,1,60,2|0,0:0|0:0,0:0:0:0:
103,83,157297,2,0,B|92:110|92:110|88:140,1,60,8|0,0:0|0:0,0:0:0:0:
98,215,157684,2,0,B|108:244|108:244|125:201|174:170,1,120,2|8,0:0|0:0,0:0:0:0:
233,147,158264,1,0,0:0:0:0:
303,172,158458,6,0,B|324:192|324:192|308:218,1,60,2|0,0:0|0:0,0:0:0:0:
262,277,158845,2,0,B|246:302|246:302|267:323,1,60,8|0,0:0|0:0,0:0:0:0:
335,291,159232,2,0,B|367:273|367:273|393:312|434:317,2,120,2|8|2,0:0|0:0|0:0,0:0:0:0:
267,323,160200,2,0,B|244:351|244:351|253:262|200:221,1,180,2|2,0:0|0:0,0:0:0:0:
127,202,160974,1,0,0:0:0:0:
91,136,161168,2,0,B|97:106|97:106|110:79,1,60,8|0,0:0|0:0,0:0:0:0:
168,31,161555,5,6,0:0:0:0:
302,97,161942,1,6,0:0:0:0:
168,165,162329,1,6,0:0:0:0:
302,231,162716,2,0,B|332:234|332:234|362:228,1,60,2|0,0:0|0:0,0:0:0:0:
426,191,163103,6,0,B|439:200|450:212|450:212|474:188|457:119,1,120,6|8,0:0|0:0,0:0:0:0:
428,59,163684,1,0,0:0:0:0:
358,86,163877,2,0,B|325:75|312:51|312:51|308:79|278:99,1,120,2|8,0:0|0:0,0:0:0:0:
203,94,164458,1,0,0:0:0:0:
161,156,164652,2,0,B|140:178|140:178|102:144|57:151,2,120,2|8|2,0:0|0:0|0:0,0:0:0:0:
203,94,165619,1,0,0:0:0:0:
269,130,165813,2,0,B|280:157|280:157|280:187,1,60,8|0,0:0|0:0,0:0:0:0:
228,242,166200,6,0,B|210:262|210:262|249:292|246:344,1,120,2|8,0:0|0:0,0:0:0:0:
100,379,166974,2,0,B|67:357|62:312|62:312|88:280,1,120,2|8,0:0|0:0,0:0:0:0:
115,211,167555,1,0,0:0:0:0:
84,143,167748,2,0,B|80:108|80:108|121:116|162:93,1,120,2|8,0:0|0:0,0:0:0:0:
233,69,168329,2,0,B|247:107|247:107|286:111|314:145,1,120,2|0,0:0|0:0,0:0:0:0:
345,214,168910,2,0,B|373:223|373:223|402:222,1,60,10|2,0:0|0:0,0:0:0:0:
469,186,169297,6,0,B|463:156|463:156|449:130,2,60,2|0|8,0:0|0:0|0:0,0:0:0:0:
471,261,169877,1,0,0:0:0:0:
411,306,170071,2,0,B|416:335|416:335|432:363,2,60,2|0|8,0:0|0:0|0:0,0:0:0:0:
403,231,170652,1,0,0:0:0:0:
343,186,170845,2,0,B|313:188|313:188|284:197,1,60,2|0,0:0|0:0,0:0:0:0:
231,250,171232,2,0,B|202:259|202:259|172:261,1,60,8|0,0:0|0:0,0:0:0:0:
105,228,171619,2,0,B|112:199|112:199|127:173,2,60,2|2|8,0:0|0:0|0:0,0:0:0:0:
110,303,172200,1,0,0:0:0:0:
158,360,172393,6,0,B|192:369|192:369|202:328|238:300,1,120,2|8,0:0|0:0,0:0:0:0:
309,274,172974,1,0,0:0:0:0:
290,201,173168,2,0,B|291:172|320:150|320:150|348:178|368:184,1,120,2|8,0:0|0:0,0:0:0:0:
442,178,173748,1,0,0:0:0:0:
493,123,173942,2,0,B|510:99|510:99|486:55|507:10,2,120,2|8|2,0:0|0:0|0:0,0:0:0:0:
442,178,174910,1,0,0:0:0:0:
378,139,175103,2,0,B|348:133|348:133|318:136,1,60,8|0,0:0|0:0,0:0:0:0:
249,163,175490,6,0,B|247:192|247:192|239:221,1,60,2|2,0:0|0:0,0:0:0:0:
190,279,175877,1,10,0:0:0:0:
146,218,176071,2,0,B|132:195|132:195|97:237|95:279,1,120,2|2,0:0|0:0,0:0:0:0:
120,350,176652,2,0,B|148:360|148:360|177:364,1,60,10|0,0:0|0:0,0:0:0:0:
247,335,177039,2,0,B|272:353|272:353|308:338|330:346,2,90,2|0|0,0:0|0:0|0:0,0:0:0:0:
265,262,177813,2,0,B|240:244|240:244|204:259|181:250,2,90,2|0|0,0:0|0:0|0:0,0:0:0:0:
307,200,178587,6,0,B|337:169|337:169|386:187|423:150|423:150|463:166,2,180,2|2|0,0:0|0:0|0:0,0:0:0:0:
265,262,179942,1,0,0:0:0:0:
211,210,180135,5,6,0:2:0:0:
118,328,180522,1,8,0:2:0:0:
49,195,180909,2,0,B|40:147|72:103|72:103|95:105,1,120,2|8,0:0|0:2,0:0:0:0:
150,155,181490,1,2,0:0:0:0:
208,108,181683,2,0,B|237:88|237:88|281:112|319:94,2,120,2|8|2,0:2|0:2|0:0,0:0:0:0:
145,244,182844,1,8,0:2:0:0:
279,308,183232,6,0,P|309:314|339:312,1,60,2|2,0:2|0:0,0:0:0:0:
400,269,183619,2,0,P|418:292|431:320,2,60,8|2|2,0:2|0:0|0:0,0:0:0:0:
272,190,184393,1,8,0:2:0:0:
170,300,184780,2,0,P|140:307|110:306,1,60,2|2,0:2|0:0,0:0:0:0:
45,270,185167,2,0,P|45:241|39:211,1,60,8|2,0:2|0:0,0:0:0:0:
4,144,185555,2,0,B|4:113|4:113|36:82|86:83,1,120,2|8,0:2|0:2,0:0:0:0:
179,200,186328,6,0,B|212:218|212:218|255:190|291:198,1,120,6|8,0:0|0:0,0:0:0:0:
352,240,186909,1,0,0:0:0:0:
363,314,187103,2,0,P|347:339|324:358,1,60
251,379,187490,2,0,P|231:356|206:340,1,60,8|0,0:0|0:0,0:0:0:0:
132,330,187877,2,0,B|106:307|106:307|104:260|143:234,1,120,6|8,0:0|0:0,0:0:0:0:
216,219,188457,1,0,0:0:0:0:
248,151,188651,2,0,P|273:136|302:127,1,60
378,130,189039,2,0,P|371:158|353:183,1,60,8|0,0:0|0:0,0:0:0:0:
291,225,189426,6,0,L|333:267,1,60,6|6,0:0|0:0,0:0:0:0:
225,163,190006,1,0,0:0:0:0:
221,159,190200,2,0,L|179:117,1,60,6|6,0:0|0:0,0:0:0:0:
201,265,190781,1,0,0:0:0:0:
227,335,190974,2,0,B|270:375|270:375|302:323,2,120,6|6|6,0:0|0:0|0:0,0:0:0:0:
180,192,192136,2,0,P|199:169|224:153,1,60,2|0,0:0|0:0,0:0:0:0:
296,131,192522,5,2,0:0:0:0:
169,226,198716,6,0,B|168:292|216:330|216:330|244:256|299:253|299:253|336:308|409:310,1,360,2|0,0:0|0:0,0:0:0:0:
401,189,200264,2,0,B|402:124|447:81|447:81|393:43|334:67,1,240,2|0,0:0|0:0,0:0:0:0:
239,140,201426,1,0,0:0:0:0:
320,228,201813,6,0,B|344:284|313:344|313:344|269:289|207:303|207:303|172:360|106:364,1,360,2|0,0:0|0:0,0:0:0:0:
104,244,203361,2,0,B|96:173|134:131|134:131|177:175|245:163,1,240,2|0,0:0|0:0,0:0:0:0:
217,46,204522,1,0,0:0:0:0:
355,104,204910,5,6,0:0:0:0:
233,190,205297,2,0,L|287:216,1,60,6|0,0:0|0:0,0:0:0:0:
355,248,205684,1,6,0:0:0:0:
355,248,206458,6,0,B|354:270|354:270|381:294|375:331,2,90,6|0|0,0:0|0:0|0:0,0:0:0:0:
379,177,207232,2,0,B|386:149|386:149|347:123|298:134,1,120,2|8,0:0|0:0,0:0:0:0:
231,167,207813,1,0,0:0:0:0:
162,137,208007,6,0,B|159:93|186:60|186:60|165:29,2,120,2|8|2,0:0|0:0|0:0,0:0:0:0:
171,211,208974,1,0,0:0:0:0:
229,259,209168,2,0,P|258:259|288:252,1,60,8|0,0:0|0:0,0:0:0:0:
356,220,209555,2,0,B|391:235|391:235|381:278|403:313,1,120,2|8,0:0|0:0,0:0:0:0:
451,372,210136,1,0,0:0:0:0:
498,314,210329,2,0,B|508:284|499:255|499:255|472:238|465:206,1,120,2|8,0:0|0:0,0:0:0:0:
477,133,210910,1,0,0:0:0:0:
503,63,211103,6,0,B|475:32|475:32|439:53|399:43,1,120,6|8,0:0|0:0,0:0:0:0:
330,14,211684,1,0,0:0:0:0:
255,13,211878,2,0,B|213:21|181:57|181:57|189:88,1,120,2|8,0:0|0:0,0:0:0:0:
238,145,212458,1,0,0:0:0:0:
204,212,212652,2,0,B|190:247|190:247|210:290|192:326,2,120,2|8|2,0:0|0:0|0:0,0:0:0:0:
238,145,213619,1,0,0:0:0:0:
309,169,213813,2,0,P|338:171|368:166,1,60,8|0,0:0|0:0,0:0:0:0:
438,137,214200,6,0,B|470:147|470:147|449:185|451:230,1,120,2|8,0:0|0:0,0:0:0:0:
466,304,214781,1,0,0:0:0:0:
409,352,214974,2,0,B|371:373|329:357|329:357|331:320,1,120,2|8,0:0|0:0,0:0:0:0:
350,247,215555,1,0,0:0:0:0:
311,183,215749,2,0,P|282:174|252:175,1,60,2|0,0:0|0:0,0:0:0:0:
189,214,216135,2,0,P|159:215|130:206,1,60,8|0,0:0|0:0,0:0:0:0:
70,161,216523,2,0,B|38:164|38:164|13:193|18:247,1,120,2|8,0:0|0:0,0:0:0:0:
47,316,217103,1,0,0:0:0:0:
111,356,217297,6,0,B|140:356|165:334|165:334|150:307|151:275,1,120,6|8,0:0|0:0,0:0:0:0:
173,204,217878,1,0,0:0:0:0:
247,192,218071,2,0,B|276:203|276:203|254:245|262:289,1,120,2|8,0:0|0:0,0:0:0:0:
305,351,218652,1,0,0:0:0:0:
379,339,218845,2,0,P|396:314|404:286,1,60,2|0,0:0|0:0,0:0:0:0:
391,211,219232,2,0,P|399:182|416:157,1,60,8|0,0:0|0:0,0:0:0:0:
475,110,219620,2,0,B|488:74|488:74|462:38|420:30,1,120,2|8,0:0|0:0,0:0:0:0:
349,51,220200,1,0,0:0:0:0:
285,91,220394,6,0,B|222:95|193:29|193:29|133:0|80:44,1,240,2|2,0:0|0:0,0:0:0:0:
28,97,221361,1,0,0:0:0:0:
60,165,221555,2,0,P|66:194|65:224,1,60,8|0,0:0|0:0,0:0:0:0:
35,293,221942,6,0,B|59:358|121:361|121:361|138:297|204:280,1,240,2|2,0:0|0:0,0:0:0:0:
350,312,223103,1,0,0:0:0:0:
256,195,223490,5,6,0:0:0:0:
256,76,225039,5,2,0:0:0:0:
256,255,225813,1,2,0:0:0:0:
256,76,226587,5,6,0:0:0:0:
256,192,226781,12,6,228135,0:0:0:0:
256,192,228329,12,0,230458,0:0:0:0:
