osu file format v14

[General]
AudioFilename: audio.mp3
AudioLeadIn: 0
PreviewTime: 55330
Countdown: 0
SampleSet: Soft
StackLeniency: 0.7
Mode: 0
LetterboxInBreaks: 1
WidescreenStoryboard: 1

[Editor]
Bookmarks: 92975,103814,173491,185879,223040
DistanceSpacing: 1.4
BeatDivisor: 4
GridSize: 16
TimelineZoom: 1.8

[Metadata]
Title:Shinrabanshou ni Furete
TitleUnicode:森羅万象に触れて
Artist:senya
ArtistUnicode:senya
Creator:Sellenite
Version:Lunatic
Source:
Tags:
BeatmapID:1420733
BeatmapSetID:672040

[Difficulty]
HPDrainRate:6
CircleSize:4
OverallDifficulty:7
ApproachRate:9
SliderMultiplier:1.8
SliderTickRate:1

[Events]
//Background and Video events
0,0,"bg.jpg",0,0
//Break Periods
2,93175,103214
//Storyboard Layer 0 (Background)
//Storyboard Layer 1 (Fail)
//Storyboard Layer 2 (Pass)
//Storyboard Layer 3 (Foreground)
//Storyboard Sound Samples

[TimingPoints]
1621,387.096774193548,4,2,1,40,1,0
1621,-133.333333333333,4,2,1,40,0,0
7814,-100,4,2,1,70,0,0
14007,-100,4,2,1,80,0,0
26394,-133.333333333333,4,2,1,50,0,0
40330,-100,4,2,1,70,0,0
55814,-100,4,2,1,85,0,1
80588,-100,4,2,1,70,0,0
122395,-100,4,2,1,85,0,1
147169,-100,4,2,1,70,0,0

[HitObjects]
351,355,1621,5,2,0:0:0:0:
380,258,1814,1,0,0:0:0:0:
470,211,2008,1,0,0:0:0:0:
395,142,2201,2,0,P|409:76|421:9,1,135.000005149842,2|2,0:0|0:0,0:0:0:0:
505,67,2782,2,0,L|510:134,1,67.5000025749208,0|2,0:0|0:0,0:0:0:0:
483,231,3169,6,0,L|352:264,1,135.000005149842,2|0,0:0|0:0,0:0:0:0:
171,356,3943,2,0,L|40:322,1,135.000005149842
7,226,4524,1,2,0:0:0:0:
139,89,4717,6,0,L|150:155,1,67.5000025749208,0|2,0:0|0:0,0:0:0:0:
234,198,5104,1,0,0:0:0:0:
432,100,5298,2,0,L|367:85,1,67.5000025749208,2|0,0:0|0:0,0:0:0:0:
366,182,5620,5,2,0:0:0:0:
366,182,5750,2,0,L|411:176,3,45.0000017166138,2|0|0|0,0:0|0:0|0:0|0:0,0:0:0:0:
293,240,6266,6,0,L|227:248,1,67.5000025749208,2|0,0:0|0:0,0:0:0:0:
84,96,6653,2,0,L|92:28,1,67.5000025749208,2|0,0:0|0:0,0:0:0:0:
153,159,7040,5,2,0:0:0:0:
137,174,7137,1,0,0:0:0:0:
119,184,7233,1,0,0:0:0:0:
99,190,7330,1,0,0:0:0:0:
78,191,7427,1,2,0:0:0:0:
57,188,7524,1,0,0:0:0:0:
38,179,7621,1,0,0:0:0:0:
21,167,7717,1,0,0:0:0:0:
7,151,7814,5,4,1:0:0:0:
249,78,8008,1,0,0:0:0:0:
260,111,8104,1,0,0:0:0:0:
272,145,8201,2,0,L|242:244,1,90
295,347,8588,2,0,L|427:323,1,135,2|0,0:0|0:0,0:0:0:0:
493,275,8975,2,0,P|504:231|501:187,1,90,2|0,0:0|0:0,0:0:0:0:
331,8,9362,6,0,P|319:51|322:95,1,90,4|0,1:0|0:0,0:0:0:0:
500,186,9750,2,0,P|468:154|429:134,1,90
261,243,10137,2,0,P|304:231|340:207,1,90,2|0,0:0|0:0,0:0:0:0:
348,93,10427,1,0,0:0:0:0:
322,95,10524,2,0,P|278:106|242:130,1,90,2|0,0:0|0:0,0:0:0:0:
176,338,10911,5,4,1:0:0:0:
247,234,11104,1,0,0:0:0:0:
77,278,11298,1,2,0:0:0:0:
295,375,11491,1,2,0:0:0:0:
252,82,11685,5,4,0:1:0:0:
205,220,11879,1,0,0:0:0:0:
327,189,12072,1,2,0:0:0:0:
92,32,12266,1,2,0:0:0:0:
109,249,12459,5,4,0:1:0:0:
176,123,12653,1,2,0:0:0:0:
81,151,12846,1,0,0:0:0:0:
205,220,13040,1,2,0:0:0:0:
310,2,13233,5,4,0:1:0:0:
143,179,13427,1,2,0:0:0:0:
131,214,13524,1,0,0:0:0:0:
137,250,13621,1,2,0:0:0:0:
160,279,13717,1,2,0:0:0:0:
194,293,13814,1,2,0:0:0:0:
231,288,13911,1,2,0:0:0:0:
260,266,14008,5,4,1:0:0:0:
81,151,14201,1,0,0:0:0:0:
81,151,14298,1,0,0:0:0:0:
81,150,14395,2,0,P|67:192|71:237,1,90,8|0,0:0|0:0,0:0:0:0:
141,341,14782,2,0,L|224:374,1,90,2|2,0:0|0:0,0:0:0:0:
350,363,15169,1,8,0:0:0:0:
276,262,15362,6,0,P|278:172|262:83,1,180,2|2,0:0|0:0,0:0:0:0:
149,27,15943,2,0,L|115:111,1,90,8|2,0:0|0:0,0:0:0:0:
45,283,16330,1,4,0:0:0:0:
161,330,16524,1,0,0:0:0:0:
195,319,16621,1,0,0:0:0:0:
229,308,16717,1,4,0:0:0:0:
390,336,16911,1,2,0:0:0:0:
402,303,17008,1,2,0:0:0:0:
432,283,17104,6,0,L|444:193,1,90,4|0,0:0|0:0,0:0:0:0:
458,114,17395,1,0,0:0:0:0:
458,114,17491,1,8,0:0:0:0:
263,297,17685,1,0,0:0:0:0:
263,297,17782,1,0,0:0:0:0:
263,297,17879,2,0,L|251:207,1,90,4|0,0:0|0:0,0:0:0:0:
186,158,18169,1,0,0:0:0:0:
186,158,18266,2,0,L|174:68,1,90,8|0,0:0|0:0,0:0:0:0:
107,181,18653,5,2,0:0:0:0:
251,207,18846,1,0,0:0:0:0:
202,70,19040,1,8,0:0:0:0:
110,215,19233,1,2,0:0:0:0:
280,151,19427,1,2,0:0:0:0:
168,16,19621,5,0,0:0:0:0:
155,59,19717,1,0,0:0:0:0:
161,103,19814,1,0,0:0:0:0:
185,141,19911,1,0,0:0:0:0:
209,177,20008,1,0,0:0:0:0:
214,222,20104,1,0,0:0:0:0:
200,264,20201,5,4,0:0:0:0:
340,124,20395,1,0,0:0:0:0:
340,124,20491,1,0,0:0:0:0:
340,124,20588,2,0,P|404:131|434:189,1,135,4|0,0:0|0:0,0:0:0:0:
426,270,20975,2,0,L|399:364,1,90,2|2,0:0|0:0,0:0:0:0:
434,189,21362,1,8,0:0:0:0:
258,247,21556,6,0,P|199:183|225:101,1,180,2|2,0:0|0:0,0:0:0:0:
334,163,22137,1,2,0:0:0:0:
289,167,22233,1,0,0:0:0:0:
245,161,22330,1,2,0:0:0:0:
200,159,22427,1,0,0:0:0:0:
158,173,22524,2,0,P|113:167|70:153,1,90,4|0,0:0|0:0,0:0:0:0:
163,304,22911,2,0,P|206:290|251:285,1,90,4|0,0:0|0:0,0:0:0:0:
331,302,23201,1,0,0:0:0:0:
331,302,23298,5,4,0:0:0:0:
450,263,23491,1,0,0:0:0:0:
481,140,23685,1,8,0:0:0:0:
352,341,23879,1,2,0:0:0:0:
352,341,23975,1,0,0:0:0:0:
352,341,24072,5,0,0:0:0:0:
450,263,24266,1,2,0:0:0:0:
403,36,24459,1,8,0:0:0:0:
377,159,24653,1,2,0:0:0:0:
483,232,24846,5,4,0:0:0:0:
322,11,25040,1,2,0:0:0:0:
223,148,25233,1,8,0:0:0:0:
322,284,25427,1,2,0:0:0:0:
483,63,25621,5,4,0:0:0:0:
29,321,26008,1,4,0:0:0:0:
125,239,26201,1,0,0:0:0:0:
125,239,26298,1,0,0:0:0:0:
124,239,26395,6,0,P|142:267|152:300,1,67.5000025749208,0|2,0:0|0:0,0:0:0:0:
221,364,26782,2,0,P|268:319|334:323,1,135.000005149842,2|0,0:0|0:0,0:0:0:0:
421,358,27362,1,2,0:0:0:0:
485,288,27556,2,0,L|468:211,1,67.5000025749208,2|0,0:0|0:0,0:0:0:0:
477,127,27943,2,0,L|346:161,2,135.000005149842,2|0|0,0:0|0:0|0:0,0:0:0:0:
466,33,28911,2,0,L|398:26,1,67.5000025749208,2|0,0:0|0:0,0:0:0:0:
309,58,29298,1,2,0:0:0:0:
169,165,29491,6,0,P|102:170|49:131,1,135.000005149842,0|2,0:0|0:0,0:0:0:0:
218,85,30072,1,2,0:0:0:0:
305,239,30266,2,0,P|371:243|424:204,1,135.000005149842,0|2,0:0|0:0,0:0:0:0:
256,158,30846,1,2,0:0:0:0:
169,254,31040,2,0,L|165:321,1,67.5000025749208,2|0,0:0|0:0,0:0:0:0:
72,297,31427,2,0,L|68:229,1,67.5000025749208,2|0,0:0|0:0,0:0:0:0:
233,111,31814,2,0,L|229:178,1,67.5000025749208,0|2,0:0|0:0,0:0:0:0:
136,154,32201,2,0,L|132:86,1,67.5000025749208,0|2,0:0|0:0,0:0:0:0:
326,2,32588,6,0,P|324:105|319:136,1,135.000005149842
261,210,33169,1,0,0:0:0:0:
341,260,33362,2,0,L|408:268,2,67.5000025749208,0|2|0,0:0|0:0|0:0,0:0:0:0:
311,170,33943,1,2,0:0:0:0:
448,53,34137,2,0,L|453:121,1,67.5000025749208
260,289,34524,2,0,L|264:221,1,67.5000025749208
473,357,34911,2,0,L|338:342,1,135.000005149842
248,370,35491,1,2,0:0:0:0:
157,343,35685,6,0,L|154:265,1,67.5000025749208,2|0,0:0|0:0,0:0:0:0:
105,124,36072,2,0,L|108:192,1,67.5000025749208
284,274,36459,2,0,L|300:209,1,67.5000025749208,2|0,0:0|0:0,0:0:0:0:
120,58,36846,2,0,L|105:124,1,67.5000025749208
129,215,37233,6,0,L|196:208,1,67.5000025749208,0|0,3:0|0:0,0:0:0:0:
349,252,37621,2,0,L|282:246,1,67.5000025749208
38,250,38008,2,0,L|105:256,1,67.5000025749208
426,196,38395,2,0,L|359:203,1,67.5000025749208
256,192,38782,12,4,40331,1:0:0:0:
98,309,40717,5,8,0:0:0:0:
270,349,40911,2,0,L|444:306,1,180,0|0,1:0|1:0,0:0:0:0:
396,175,41491,2,0,P|441:183|486:186,1,90,8|0,0:0|0:0,0:0:0:0:
185,96,41879,6,0,P|246:38|326:70,1,180,0|8,1:0|0:0,0:0:0:0:
383,340,42459,2,0,P|390:278|411:163,1,180,0|0,1:0|1:0,0:0:0:0:
262,119,43040,2,0,L|274:215,1,90,8|0,0:0|1:0,0:0:0:0:
40,308,43427,6,0,B|110:317|110:317|144:312|144:312|176:322|219:322,2,180,4|8|0,1:0|0:0|1:0,0:0:0:0:
342,294,44395,1,2,0:0:0:0:
245,211,44588,2,0,P|235:167|240:122,1,90,8|2,0:0|0:0,0:0:0:0:
469,0,44975,6,0,P|478:43|473:88,1,90,4|0,1:0|0:0,0:0:0:0:
388,181,45362,1,8,0:0:0:0:
388,181,45459,1,0,0:0:0:0:
388,181,45556,1,8,0:0:0:0:
480,312,45750,2,0,L|505:226,1,90,0|8,0:0|0:0,0:0:0:0:
324,65,46137,2,0,L|273:237,1,180,8|4,0:0|1:0,0:0:0:0:
118,33,46717,5,0,0:0:0:0:
118,33,46814,1,0,0:0:0:0:
118,33,46911,2,0,L|207:15,1,90,8|0,0:0|0:0,0:0:0:0:
393,112,47298,2,0,L|304:130,1,90,2|0,0:0|0:0,0:0:0:0:
237,176,47588,1,0,0:0:0:0:
237,176,47685,2,0,L|226:280,1,90,8|0,0:0|0:0,0:0:0:0:
5,206,48072,6,0,L|22:26,1,180,4|8,1:0|0:0,0:0:0:0:
145,5,48653,1,0,0:0:0:0:
166,129,48846,2,0,P|209:119|246:93,1,90
357,35,49233,2,0,L|372:123,1,90,8|2,0:0|0:0,0:0:0:0:
312,278,49621,5,4,0:0:0:0:
191,246,49814,1,0,0:0:0:0:
223,125,50008,1,8,0:0:0:0:
344,157,50201,1,0,0:0:0:0:
323,295,50395,5,4,0:0:0:0:
178,256,50588,1,0,0:0:0:0:
216,111,50782,1,8,0:0:0:0:
361,150,50975,1,2,0:0:0:0:
338,351,51169,6,0,L|248:342,1,90,4|0,0:0|0:0,0:0:0:0:
229,331,51459,2,0,L|222:236,1,90,4|0,0:0|0:0,0:0:0:0:
220,219,51750,1,4,0:0:0:0:
470,124,51943,2,0,L|453:258,1,135,4|0,0:0|0:0,0:0:0:0:
210,364,52524,1,0,0:0:0:0:
254,246,52717,6,0,L|344:255,1,90,4|0,0:0|0:0,0:0:0:0:
363,266,53008,2,0,L|370:361,1,90,4|0,0:0|0:0,0:0:0:0:
372,378,53298,1,4,0:0:0:0:
42,260,53491,2,0,L|60:127,1,135,4|0,0:0|0:0,0:0:0:0:
256,192,53879,12,0,55040,0:0:0:0:
40,328,55427,6,0,L|50:193,1,135,2|0,0:0|0:0,0:0:0:0:
105,133,55814,6,0,L|194:130,1,90,4|0,1:0|0:0,0:0:0:0:
113,33,56201,1,8,0:0:0:0:
275,187,56395,1,0,0:0:0:0:
275,187,56491,1,0,0:0:0:0:
275,187,56588,2,0,P|291:145|288:100,1,90,2|0,0:0|0:0,0:0:0:0:
194,15,56975,1,8,0:0:0:0:
79,161,57169,1,0,0:0:0:0:
79,161,57266,1,0,0:0:0:0:
79,161,57362,6,0,L|79:250,1,90,2|0,0:0|0:0,0:0:0:0:
111,326,57653,1,0,0:0:0:0:
111,326,57750,1,8,0:0:0:0:
279,266,57943,1,0,0:0:0:0:
279,266,58040,1,0,0:0:0:0:
279,266,58137,1,2,0:0:0:0:
224,379,58330,1,0,0:0:0:0:
224,379,58427,1,0,0:0:0:0:
224,379,58524,1,8,0:0:0:0:
166,213,58717,1,2,0:0:0:0:
367,20,58911,6,0,L|377:154,1,135,4|0,0:0|0:0,0:0:0:0:
399,233,59298,2,0,L|291:265,1,90,8|2,0:0|0:0,0:0:0:0:
217,175,59685,1,4,0:0:0:0:
91,185,59879,1,0,0:0:0:0:
269,91,60072,1,8,0:0:0:0:
291,360,60266,1,2,0:0:0:0:
190,35,60459,5,4,0:0:0:0:
377,154,60653,1,0,0:0:0:0:
377,154,60750,1,0,0:0:0:0:
377,154,60846,2,0,P|376:198|365:242,1,90,8|2,0:0|0:0,0:0:0:0:
16,342,61233,5,2,0:0:0:0:
59,329,61330,1,0,0:0:0:0:
103,325,61427,1,0,0:0:0:0:
148,332,61524,1,0,0:0:0:0:
190,346,61621,5,8,0:0:0:0:
232,362,61717,1,0,0:0:0:0:
277,369,61814,1,8,0:0:0:0:
321,366,61911,1,8,0:0:0:0:
365,354,62008,5,4,1:0:0:0:
454,265,62201,1,0,0:0:0:0:
454,265,62298,1,0,0:0:0:0:
454,265,62395,2,0,P|462:220|461:176,1,90,8|2,0:0|0:0,0:0:0:0:
428,34,62782,2,0,L|383:42,1,45,2|0,0:0|0:0,0:0:0:0:
482,87,62975,2,0,P|502:47|495:3,1,90,2|0,0:0|0:0,0:0:0:0:
291,65,63362,6,0,B|300:118|300:118|301:182|301:182|311:243,1,180,2|0,0:0|0:0,0:0:0:0:
194,194,63943,1,8,0:0:0:0:
399,152,64137,1,0,0:0:0:0:
399,152,64233,1,0,0:0:0:0:
399,152,64330,1,2,0:0:0:0:
149,59,64524,1,0,0:0:0:0:
149,59,64620,1,0,0:0:0:0:
149,59,64717,2,0,L|147:164,1,90,8|2,0:0|0:0,0:0:0:0:
315,363,65104,5,4,0:0:0:0:
397,267,65298,1,0,0:0:0:0:
397,267,65395,1,0,0:0:0:0:
397,267,65491,1,8,0:0:0:0:
315,363,65685,1,2,0:0:0:0:
488,280,65879,5,4,0:0:0:0:
280,177,66072,1,0,0:0:0:0:
280,177,66169,1,0,0:0:0:0:
280,177,66266,1,8,0:0:0:0:
488,280,66459,1,2,0:0:0:0:
227,334,66653,5,4,0:0:0:0:
343,68,66846,1,0,0:0:0:0:
343,68,66943,1,0,0:0:0:0:
343,68,67040,1,8,0:0:0:0:
227,334,67233,1,2,0:0:0:0:
505,9,67427,5,4,0:0:0:0:
7,375,67814,1,4,0:0:0:0:
320,57,68201,6,0,P|404:78|444:155,1,180,4|8,1:0|0:0,0:0:0:0:
377,262,68782,2,0,L|197:246,1,180,0|0,1:0|1:0,0:0:0:0:
120,345,69362,2,0,L|209:338,1,90,8|2,0:0|0:0,0:0:0:0:
11,279,69750,6,0,L|38:101,1,180,0|8,1:0|0:0,0:0:0:0:
176,12,70330,2,0,P|218:65|221:131,1,135,0|0,1:0|1:0,0:0:0:0:
221,131,70717,2,0,L|310:125,2,90,0|8|0,3:0|0:0|0:0,0:0:0:0:
58,246,71298,6,0,L|238:256,1,180,0|8,1:0|0:0,0:0:0:0:
357,369,71879,2,0,P|444:363|501:296,1,180,0|0,1:0|1:0,0:0:0:0:
360,153,72459,5,8,0:0:0:0:
360,153,72588,2,0,L|366:227,1,60,2|2,0:0|0:0,0:0:0:0:
472,182,72846,6,0,L|458:2,2,180,0|8|2,1:0|0:0|1:2,0:0:0:0:
93,25,74008,1,8,0:0:0:0:
28,133,74201,1,8,0:0:0:0:
28,133,74298,1,8,0:0:0:0:
27,132,74395,6,0,P|67:153|111:162,1,90,4|0,1:0|0:0,0:0:0:0:
255,133,74685,1,0,0:0:0:0:
255,133,74782,2,0,P|217:157|188:191,1,90,8|0,0:0|0:0,0:0:0:0:
140,329,75072,1,0,0:0:0:0:
140,329,75169,2,0,P|138:284|124:242,1,90,2|0,0:0|0:0,0:0:0:0:
111,162,75459,5,0,0:0:0:0:
111,162,75556,2,0,P|158:206|218:183,1,135,8|0,0:0|0:0,0:0:0:0:
287,116,75943,6,0,L|295:26,1,90,4|0,1:0|0:0,0:0:0:0:
345,214,76233,1,0,0:0:0:0:
345,214,76330,2,0,L|387:124,1,90,8|0,0:0|0:0,0:0:0:0:
365,325,76620,1,0,0:0:0:0:
365,325,76717,2,0,L|435:254,1,90,2|0,0:0|0:0,0:0:0:0:
268,376,77104,5,8,0:0:0:0:
223,381,77200,1,8,0:0:0:0:
182,364,77297,1,8,0:0:0:0:
156,329,77394,1,0,0:0:0:0:
151,284,77491,6,0,L|163:171,1,90,4|0,1:0|1:0,0:0:0:0:
351,195,77879,2,0,L|360:284,1,90,8|0,0:0|1:0,0:0:0:0:
21,225,78266,2,0,L|32:111,1,90,4|0,1:0|1:0,0:0:0:0:
482,135,78653,2,0,L|491:225,1,90,8|0,0:0|1:0,0:0:0:0:
111,381,79040,5,4,1:0:0:0:
151,262,79233,1,0,1:0:0:0:
389,342,79427,5,8,0:0:0:0:
270,302,79620,1,0,1:0:0:0:
350,64,79814,5,4,1:0:0:0:
310,183,80008,1,0,1:0:0:0:
72,103,80201,5,8,0:0:0:0:
191,143,80395,1,0,1:0:0:0:
111,381,80588,5,4,1:0:0:0:
151,262,80782,1,0,0:0:0:0:
151,262,80879,1,0,0:0:0:0:
151,262,80975,1,8,0:0:0:0:
263,319,81169,1,0,0:0:0:0:
70,297,81362,2,0,L|67:207,1,90,2|2,0:0|0:0,0:0:0:0:
63,80,81750,1,8,0:0:0:0:
340,131,81943,6,0,L|161:157,1,180,2|2,0:0|0:0,0:0:0:0:
380,11,82524,2,0,P|460:45|491:127,1,180,2|4,0:0|0:0,0:0:0:0:
459,248,83104,1,0,0:0:0:0:
459,248,83201,1,0,0:0:0:0:
459,248,83298,2,0,L|361:274,1,90,4|0,0:0|0:0,0:0:0:0:
268,343,83685,5,2,0:0:0:0:
264,321,83782,1,0,0:0:0:0:
260,299,83879,2,0,L|270:250,1,45
373,182,84072,5,8,0:0:0:0:
377,204,84169,1,0,0:0:0:0:
381,226,84265,2,0,L|372:270,1,45
268,254,84459,5,2,0:0:0:0:
267,231,84555,1,0,0:0:0:0:
267,209,84652,1,0,0:0:0:0:
267,186,84749,1,0,0:0:0:0:
266,164,84846,1,8,0:0:0:0:
266,141,84942,1,0,0:0:0:0:
266,118,85040,6,0,L|364:144,2,90,8|2|2,0:0|0:0|0:0,0:0:0:0:
174,31,85620,2,0,L|87:7,1,90,8|2,0:0|0:0,0:0:0:0:
17,212,86008,1,4,0:0:0:0:
266,118,86201,1,2,0:0:0:0:
87,7,86395,1,4,0:0:0:0:
256,319,86588,1,4,0:0:0:0:
468,202,86782,6,0,L|473:112,1,90,4|0,0:0|0:0,0:0:0:0:
341,18,87169,2,0,L|347:108,1,90,8|0,0:0|0:0,0:0:0:0:
244,225,87556,2,0,L|334:233,1,90,2|2,0:0|0:0,0:0:0:0:
415,240,87846,1,0,0:0:0:0:
415,240,87943,1,8,0:0:0:0:
342,63,88137,6,0,L|162:77,1,180,2|2,0:0|0:0,0:0:0:0:
98,126,88620,1,0,0:0:0:0:
98,126,88717,2,0,L|105:222,1,90,8|0,0:0|0:0,0:0:0:0:
204,329,89104,2,0,L|209:285,3,45,4|0|0|0,0:0|0:0|0:0|0:0,0:0:0:0:
211,262,89491,1,4,0:0:0:0:
210,239,89587,1,0,0:0:0:0:
210,217,89684,1,0,0:0:0:0:
209,194,89781,1,0,0:0:0:0:
208,172,89879,6,0,B|261:178|261:178|297:175,1,90,4|2,0:0|0:0,0:0:0:0:
479,263,90266,2,0,B|426:257|426:257|390:260,1,90,8|2,0:0|0:0,0:0:0:0:
252,371,90653,2,0,L|265:282,1,90,2|0,0:0|0:0,0:0:0:0:
347,186,91040,2,0,L|334:96,1,90,8|2,0:0|0:0,0:0:0:0:
80,79,91427,5,2,0:0:0:0:
99,91,91523,1,0,0:0:0:0:
120,98,91620,1,0,0:0:0:0:
142,100,91717,1,0,0:0:0:0:
164,96,91814,1,8,0:0:0:0:
185,87,91910,1,0,0:0:0:0:
202,73,92007,1,0,0:0:0:0:
215,54,92104,1,0,0:0:0:0:
224,33,92201,5,4,0:0:0:0:
209,76,92297,1,0,0:0:0:0:
205,121,92394,1,2,0:0:0:0:
210,165,92491,1,2,0:0:0:0:
223,208,92588,5,8,0:0:0:0:
236,251,92684,1,8,0:0:0:0:
242,296,92781,1,8,0:0:0:0:
235,340,92878,1,8,0:0:0:0:
217,381,92975,5,4,1:0:0:0:
256,192,103814,12,0,106524,0:0:0:0:
26,383,106911,6,0,L|17:248,1,135,4|0,1:0|0:0,0:0:0:0:
57,178,107298,2,0,L|161:178,1,90,8|0,0:0|1:0,0:0:0:0:
327,288,107685,1,2,0:0:0:0:
205,317,107879,1,0,1:0:0:0:
125,107,108072,1,8,0:0:0:0:
247,78,108266,1,2,0:0:0:0:
57,178,108459,6,0,P|33:116|46:51,1,135,0|0,1:0|0:0,0:0:0:0:
117,11,108846,2,0,L|207:2,1,90,8|0,0:0|1:0,0:0:0:0:
309,235,109233,1,2,0:0:0:0:
125,107,109427,1,0,1:0:0:0:
291,125,109620,1,8,0:0:0:0:
143,217,109814,1,2,0:0:0:0:
387,10,110008,6,0,L|396:144,1,135,4|0,1:0|0:0,0:0:0:0:
446,209,110395,2,0,L|433:310,1,90,8|0,0:0|1:0,0:0:0:0:
195,259,110782,1,2,0:0:0:0:
229,380,110975,1,0,1:0:0:0:
307,150,111169,1,8,0:0:0:0:
22,214,111362,1,2,0:0:0:0:
76,328,111556,6,0,L|186:354,1,90,4|0,1:0|0:0,0:0:0:0:
436,56,111943,1,8,0:0:0:0:
436,56,112040,1,0,0:0:0:0:
436,56,112137,2,0,L|326:30,1,90,0|2,1:0|0:0,0:0:0:0:
226,5,112524,1,0,1:0:0:0:
311,170,112717,2,0,L|398:191,1,90,8|0,0:0|0:0,0:0:0:0:
232,194,113008,1,0,0:0:0:0:
232,194,113104,6,0,L|207:108,1,90,4|0,1:0|0:0,0:0:0:0:
293,249,113395,1,0,0:0:0:0:
293,249,113491,2,0,L|232:313,1,90,8|0,0:0|0:0,0:0:0:0:
50,354,113879,1,2,0:0:0:0:
26,315,113975,1,0,0:0:0:0:
14,272,114072,1,0,0:0:0:0:
15,227,114169,1,0,0:0:0:0:
29,185,114266,1,8,0:0:0:0:
111,89,114459,1,2,0:0:0:0:
289,243,114653,6,0,B|238:251|238:251|164:234|164:234|112:242,1,180,4|8,1:0|0:0,0:0:0:0:
242,126,115233,1,0,0:0:0:0:
343,332,115427,1,2,0:0:0:0:
298,339,115523,1,0,0:0:0:0:
254,346,115620,1,0,0:0:0:0:
209,354,115717,1,0,0:0:0:0:
165,361,115814,1,8,0:0:0:0:
2,230,116008,1,2,0:0:0:0:
231,93,116201,5,4,0:0:0:0:
332,232,116395,1,0,0:0:0:0:
306,38,116588,1,8,0:0:0:0:
155,246,116782,1,0,0:0:0:0:
378,313,116975,5,4,0:0:0:0:
253,175,117169,1,0,0:0:0:0:
206,346,117362,1,8,0:0:0:0:
425,142,117556,1,0,0:0:0:0:
128,22,117750,6,0,L|38:31,1,90,4|0,0:0|0:0,0:0:0:0:
19,42,118040,2,0,L|12:137,1,90,4|0,0:0|0:0,0:0:0:0:
10,154,118331,1,4,0:0:0:0:
266,282,118524,2,0,L|249:148,1,135,4|0,0:0|0:0,0:0:0:0:
77,331,119105,1,0,0:0:0:0:
232,380,119298,6,0,L|322:371,1,90,4|0,0:0|0:0,0:0:0:0:
341,360,119589,2,0,L|348:265,1,90,4|0,0:0|0:0,0:0:0:0:
350,248,119879,1,4,0:0:0:0:
82,57,120072,2,0,L|100:190,1,135,4|0,0:0|3:0,0:0:0:0:
116,232,120459,1,0,3:0:0:0:
155,253,120555,1,0,3:0:0:0:
199,255,120652,1,0,3:0:0:0:
241,238,120749,1,0,3:0:0:0:
271,205,120846,6,0,L|283:115,1,90,4|0,0:0|0:0,0:0:0:0:
160,42,121137,2,0,L|172:132,1,90,4|0,0:0|0:0,0:0:0:0:
141,284,121427,2,0,L|196:280,1,45,4|0,0:0|0:0,0:0:0:0:
450,189,121620,2,0,L|270:205,1,180,4|0,0:0|0:0,0:0:0:0:
185,280,122201,1,0,0:0:0:0:
407,384,122395,6,0,L|394:294,1,90,4|0,1:0|0:0,0:0:0:0:
197,190,122782,2,0,L|184:280,1,90,8|0,0:0|0:0,0:0:0:0:
394,294,123169,1,2,0:0:0:0:
394,294,123266,1,0,0:0:0:0:
394,294,123362,1,0,0:0:0:0:
348,176,123556,1,8,0:0:0:0:
223,370,123750,6,0,P|136:367|84:298,1,180,2|0,0:0|0:0,0:0:0:0:
106,222,124233,1,0,0:0:0:0:
106,222,124330,1,8,0:0:0:0:
380,185,124524,1,0,0:0:0:0:
460,88,124717,2,0,P|454:43|431:5,1,90,2|0,0:0|0:0,0:0:0:0:
257,181,125104,2,0,P|262:226|285:264,1,90,8|2,0:0|0:0,0:0:0:0:
407,292,125491,5,4,0:0:0:0:
357,108,125685,1,0,0:0:0:0:
125,198,125879,1,8,0:0:0:0:
189,275,126072,1,2,0:0:0:0:
421,185,126265,5,4,0:0:0:0:
246,147,126459,1,0,0:0:0:0:
345,297,126652,1,8,0:0:0:0:
322,35,126846,1,2,0:0:0:0:
221,360,127039,5,4,0:0:0:0:
504,206,127233,1,0,0:0:0:0:
504,206,127330,1,0,0:0:0:0:
504,206,127426,2,0,P|502:161|491:117,1,90,8|2,0:0|0:0,0:0:0:0:
147,251,127814,5,2,0:0:0:0:
190,264,127911,1,0,0:0:0:0:
234,268,128008,1,0,0:0:0:0:
279,261,128105,1,0,0:0:0:0:
321,247,128202,5,8,0:0:0:0:
363,231,128298,1,0,0:0:0:0:
408,224,128395,1,8,0:0:0:0:
452,227,128492,1,8,0:0:0:0:
496,239,128589,5,4,1:0:0:0:
321,247,128782,1,0,0:0:0:0:
321,247,128879,1,0,0:0:0:0:
321,247,128975,2,0,L|330:140,1,90,8|2,0:0|0:0,0:0:0:0:
227,22,129362,2,0,L|240:66,1,45,2|0,0:0|0:0,0:0:0:0:
153,172,129556,2,0,L|241:153,1,90,2|0,0:0|0:0,0:0:0:0:
416,92,129943,6,0,B|409:145|409:145|412:209|412:209|405:270,1,180,2|0,0:0|0:0,0:0:0:0:
341,379,130524,1,8,0:0:0:0:
512,348,130717,1,0,0:0:0:0:
512,348,130814,1,0,0:0:0:0:
512,348,130911,2,0,L|505:258,1,90,2|0,0:0|0:0,0:0:0:0:
313,124,131298,2,0,L|306:213,1,90,8|2,0:0|0:0,0:0:0:0:
97,238,131685,5,4,0:0:0:0:
76,113,131879,1,0,0:0:0:0:
76,113,131976,1,0,0:0:0:0:
76,113,132072,1,8,0:0:0:0:
97,238,132266,1,2,0:0:0:0:
247,58,132460,5,4,0:0:0:0:
222,288,132653,1,0,0:0:0:0:
222,288,132750,1,0,0:0:0:0:
222,288,132847,1,8,0:0:0:0:
257,58,133040,1,2,0:0:0:0:
431,299,133234,5,4,0:0:0:0:
398,10,133427,1,0,0:0:0:0:
398,10,133524,1,0,0:0:0:0:
398,10,133621,1,8,0:0:0:0:
431,299,133814,1,2,0:0:0:0:
7,9,134008,5,4,0:0:0:0:
505,375,134395,1,4,0:0:0:0:
192,57,134782,6,0,P|108:78|68:155,1,180,4|8,1:0|0:0,0:0:0:0:
135,262,135363,2,0,L|315:246,1,180,0|0,1:0|1:0,0:0:0:0:
392,345,135943,2,0,L|303:338,1,90,8|2,0:0|0:0,0:0:0:0:
67,156,136330,6,0,L|201:146,1,135,0|0,1:0|0:0,0:0:0:0:
259,204,136717,2,0,L|244:298,1,90,8|0,0:0|1:0,0:0:0:0:
130,346,137104,1,0,0:0:0:0:
130,346,137201,1,0,1:0:0:0:
130,346,137298,1,0,3:0:0:0:
348,243,137491,1,8,0:0:0:0:
115,103,137685,1,0,0:0:0:0:
115,103,137782,1,0,0:0:0:0:
115,103,137879,6,0,L|129:191,1,90,0|0,1:0|0:0,0:0:0:0:
215,284,138266,1,8,0:0:0:0:
400,187,138459,2,0,P|419:104|353:49,1,180,0|0,1:0|1:0,0:0:0:0:
299,276,139040,5,8,0:0:0:0:
299,276,139169,2,0,L|373:270,1,60,2|2,0:0|0:0,0:0:0:0:
345,132,139427,5,0,1:0:0:0:
325,142,139523,1,0,0:0:0:0:
304,150,139620,1,0,0:0:0:0:
282,154,139717,1,0,0:0:0:0:
259,154,139814,1,8,0:0:0:0:
237,150,139910,1,0,0:0:0:0:
216,143,140008,1,0,1:0:0:0:
196,132,140104,1,0,0:0:0:0:
179,118,140201,5,2,0:0:0:0:
136,105,140297,1,0,0:0:0:0:
91,109,140394,1,0,1:0:0:0:
52,130,140491,1,0,0:0:0:0:
24,165,140588,1,8,0:0:0:0:
12,208,140684,1,8,0:0:0:0:
18,253,140781,1,8,0:0:0:0:
40,291,140878,1,8,0:0:0:0:
76,318,140975,5,4,1:0:0:0:
197,351,141169,1,0,0:0:0:0:
197,351,141266,1,0,0:0:0:0:
197,351,141362,2,0,L|299:326,1,90,8|0,0:0|0:0,0:0:0:0:
488,356,141750,1,2,0:0:0:0:
505,314,141846,1,0,0:0:0:0:
504,270,141943,1,0,0:0:0:0:
484,230,142040,1,0,0:0:0:0:
450,201,142137,1,8,0:0:0:0:
328,168,142330,1,8,0:0:0:0:
325,295,142524,6,0,L|413:273,1,90,4|0,1:0|0:0,0:0:0:0:
449,201,142814,1,0,0:0:0:0:
449,201,142911,2,0,L|442:111,1,90,8|0,0:0|0:0,0:0:0:0:
203,10,143298,1,2,0:0:0:0:
199,54,143394,1,0,0:0:0:0:
196,99,143491,1,0,0:0:0:0:
192,144,143588,1,0,0:0:0:0:
189,189,143685,1,8,0:0:0:0:
241,304,143879,1,8,0:0:0:0:
420,234,144072,6,0,L|332:218,1,90,4|0,1:0|1:0,0:0:0:0:
10,129,144459,2,0,L|98:112,1,90,8|0,0:0|1:0,0:0:0:0:
410,316,144846,2,0,L|321:299,1,90,4|0,1:0|1:0,0:0:0:0:
0,48,145233,2,0,L|88:31,1,90,8|0,0:0|1:0,0:0:0:0:
430,152,145620,5,4,1:0:0:0:
242,209,145814,1,0,1:0:0:0:
306,55,146008,5,4,1:0:0:0:
363,243,146202,1,0,1:0:0:0:
145,333,146395,5,4,1:0:0:0:
88,145,146589,1,0,1:0:0:0:
242,209,146783,5,4,1:0:0:0:
54,266,146977,1,0,1:0:0:0:
146,11,147169,5,4,1:0:0:0:
