osu file format v14

[General]
AudioFilename: audio.mp3
AudioLeadIn: 0
PreviewTime: 137577
Countdown: 0
SampleSet: Soft
StackLeniency: 0.7
Mode: 0
LetterboxInBreaks: 0
WidescreenStoryboard: 0

[Editor]
DistanceSpacing: 1.7
BeatDivisor: 4
GridSize: 32
TimelineZoom: 3.199999

[Metadata]
Title:Sasayaku, Kiekaketa Kouishou ga.
TitleUnicode:ささやく、消えかけた後遺症が。
Artist:senya
ArtistUnicode:senya
Creator:Satellite
Version:ponpokorin's Lunatic
Source:東方地霊殿 ~ Subterranean Animism.
Tags:yuuhei 幽閉サテライト touhou project 東方プロジェクト 東方名華祭13 ラストリモート last remote ハルトマンの妖怪少女 hartmann's youkai girl かませ虎 kamase-tora HiZuMi 神奈森ユウ video game japanese Affirmation Neoskylove Morinaga Dailycare pyrowar56 ponpokorin vikala toybot dagger-gazel
BeatmapID:2201687
BeatmapSetID:1053613

[Difficulty]
HPDrainRate:6
CircleSize:4
OverallDifficulty:7
ApproachRate:9
SliderMultiplier:1.6
SliderTickRate:2

[Events]
//Background and Video events
0,0,"bgggg.jpg",0,0
//Break Periods
//Storyboard Layer 0 (Background)
//Storyboard Layer 1 (Fail)
//Storyboard Layer 2 (Pass)
//Storyboard Layer 3 (Foreground)
//Storyboard Layer 4 (Overlay)
//Storyboard Sound Samples

[TimingPoints]
1546,375,4,2,1,60,1,0
1546,-111.111111111111,4,2,1,60,0,0
2296,-111.111111111111,4,2,1,40,0,0
2671,-111.111111111111,4,2,1,50,0,0
2858,-111.111111111111,4,2,1,65,0,0
3046,-111.111111111111,4,2,1,60,0,0
3796,-111.111111111111,4,2,1,40,0,0
4546,-111.111111111111,4,2,1,60,0,0
5296,-111.111111111111,4,2,1,40,0,0
5577,-111.111111111111,4,2,1,50,0,0
6046,-111.111111111111,4,2,1,60,0,0
7546,-100,4,2,1,70,0,0
9046,-100,4,2,1,60,0,0
10546,-100,4,2,1,60,0,0
12608,-100,4,2,1,50,0,0
12702,-100,4,2,1,55,0,0
12796,-100,4,2,1,60,0,0
12983,-100,4,2,1,65,0,0
13171,-100,4,2,1,70,0,0
13358,-100,4,2,1,75,0,0
13546,-100,4,2,1,75,0,0
13921,-100,4,2,1,70,0,0
17858,-100,4,2,1,60,0,0
18046,-100,4,2,1,70,0,0
26671,-100,4,2,1,60,0,0
27046,-111.111111111111,4,2,1,50,0,0
27233,-111.111111111111,4,2,1,60,0,0
33046,-111.111111111111,4,2,1,50,0,0
33233,-111.111111111111,4,2,1,60,0,0
34546,-111.111111111111,4,2,1,50,0,0
34733,-111.111111111111,4,2,1,60,0,0
35108,-111.111111111111,4,2,1,70,0,0
35296,-111.111111111111,4,2,1,60,0,0
35671,-111.111111111111,4,2,1,55,0,0
35858,-111.111111111111,4,2,1,50,0,0
36046,-111.111111111111,4,2,1,60,0,0
36421,-111.111111111111,4,2,1,50,0,0
36796,-111.111111111111,4,2,1,60,0,0
36983,-111.111111111111,4,2,1,40,0,0
37171,-111.111111111111,4,2,1,60,0,0
37358,-111.111111111111,4,2,1,40,0,0
37546,-100,4,2,1,60,0,0
37733,-100,4,2,1,50,0,0
37921,-100,4,2,1,60,0,0
38108,-100,4,2,1,70,0,0
38296,-100,4,2,1,60,0,0
38483,-100,4,2,1,50,0,0
38671,-100,4,2,1,60,0,0
38858,-100,4,2,1,70,0,0
39046,-100,4,2,1,60,0,0
44296,-100,4,2,1,65,0,0
44389,-100,4,2,1,55,0,0
44483,-100,4,2,1,65,0,0
45046,-100,4,2,1,60,0,0
49546,-100,4,2,1,50,0,0
49921,-100,4,2,1,60,0,0
50296,-100,4,2,1,65,0,0
50483,-100,4,2,1,70,0,0
50671,-100,4,2,1,60,0,0
51046,-100,4,2,1,60,0,0
52921,-100,4,2,1,50,0,0
53108,-100,4,2,1,60,0,0
56296,-100,4,2,1,50,0,0
56671,-100,4,2,1,60,0,0
57046,-100,4,2,1,70,0,0
61546,-100,4,2,1,75,0,0
61921,-100,4,2,1,65,0,0
62296,-100,4,2,1,60,0,0
62671,-100,4,2,1,70,0,0
63046,-200,4,2,1,60,0,0
63069,-200,4,2,1,5,0,0
63608,-200,4,2,1,40,0,0
63796,-200,4,2,1,60,0,0
63983,-200,4,2,1,65,0,0
64171,-200,4,2,1,70,0,0
64358,-200,4,2,1,80,0,0
64546,-100,4,2,1,70,0,1
64921,-100,4,2,1,60,0,0
65296,-100,4,2,1,70,0,0
69233,-100,4,2,1,80,0,0
69796,-100,4,2,1,70,0,0
70358,-100,4,2,1,60,0,0
70546,-100,4,2,1,70,0,0
75046,-100,4,2,1,80,0,0
75233,-100,4,2,1,75,0,0
75421,-100,4,2,1,70,0,0
75608,-100,4,2,1,65,0,0
75796,-100,4,2,1,60,0,0
75983,-100,4,2,1,65,0,0
76171,-100,4,2,1,70,0,0
76358,-100,4,2,1,75,0,0
76546,-100,4,2,1,80,0,1
76921,-100,4,2,1,60,0,0
77296,-100,4,2,1,70,0,0
81796,-100,4,2,1,60,0,0
81983,-100,4,2,1,70,0,0
82546,-100,4,2,1,80,0,0
82921,-100,4,2,1,70,0,0
83671,-100,4,2,1,60,0,0
83858,-100,4,2,1,70,0,0
84046,-100,4,2,1,80,0,0
84233,-100,4,2,1,60,0,0
84421,-100,4,2,1,70,0,0
84608,-100,4,2,1,80,0,0
84983,-100,4,2,1,70,0,0
85358,-100,4,2,1,60,0,0
85546,-100,4,2,1,80,0,0
86296,-100,4,2,1,60,0,0
86483,-100,4,2,1,70,0,0
86671,-100,4,2,1,80,0,0
86858,-100,4,2,1,70,0,0
87046,-100,4,2,1,80,0,0
87233,-100,4,2,1,75,0,0
87421,-100,4,2,1,80,0,0
87608,-100,4,2,1,85,0,0
87796,-100,4,2,1,80,0,0
88921,-100,4,2,1,70,0,0
97733,-100,4,2,1,80,0,0
97921,-100,4,2,1,70,0,0
98108,-100,4,2,1,80,0,0
98296,-100,4,2,1,70,0,0
98389,-100,4,2,1,67,0,0
98483,-100,4,2,1,64,0,0
98577,-100,4,2,1,61,0,0
98671,-100,4,2,1,58,0,0
98764,-100,4,2,1,55,0,0
98858,-100,4,2,1,58,0,0
98952,-100,4,2,1,62,0,0
99046,-100,4,2,1,70,0,0
99233,-100,4,2,1,80,0,0
99421,-100,4,2,1,70,0,0
99608,-100,4,2,1,80,0,0
99796,-100,4,2,1,70,0,0
99983,-100,4,2,1,75,0,0
100171,-100,4,2,1,65,0,0
100546,-100,4,2,1,60,0,0
100921,-100,4,2,1,40,0,0
101296,-100,4,2,1,50,0,0
102046,-100,4,2,1,60,0,0
106546,-100,4,2,1,70,0,0
106733,-100,4,2,1,60,0,0
106921,-100,4,2,1,70,0,0
107108,-100,4,2,1,60,0,0
107296,-100,4,2,1,70,0,0
107483,-100,4,2,1,60,0,0
107671,-100,4,2,1,70,0,0
107858,-100,4,2,1,60,0,0
108796,-100,4,2,1,70,0,0
108983,-100,4,2,1,60,0,0
110108,-100,4,2,1,80,0,0
110296,-100,4,2,1,60,0,0
110483,-100,4,2,1,80,0,0
110671,-100,4,2,1,70,0,0
110858,-100,4,2,1,80,0,0
111046,-100,4,2,1,60,0,0
111608,-100,4,2,1,70,0,0
111796,-100,4,2,1,60,0,0
112171,-100,4,2,1,50,0,0
112546,-100,4,2,1,80,0,0
112639,-100,4,2,1,70,0,0
112733,-100,4,2,1,60,0,0
112827,-100,4,2,1,80,0,0
112921,-100,4,2,1,70,0,0
113014,-100,4,2,1,60,0,0
113108,-100,4,2,1,80,0,0
113202,-100,4,2,1,70,0,0
113296,-100,4,2,1,60,0,0
113483,-100,4,2,1,70,0,0
113671,-100,4,2,1,60,0,0
113858,-100,4,2,1,70,0,0
114046,-100,4,2,1,60,0,0
118358,-100,4,2,1,50,0,0
118733,-100,4,2,1,70,0,0
118921,-100,4,2,1,60,0,0
119108,-100,4,2,1,50,0,0
119671,-100,4,2,1,60,0,0
122108,-100,4,2,1,70,0,0
122202,-100,4,2,1,50,0,0
122296,-100,4,2,1,60,0,0
122483,-100,4,2,1,70,0,0
122671,-100,4,2,1,60,0,0
122858,-100,4,2,1,70,0,0
123046,-100,4,2,1,60,0,0
124546,-100,4,2,1,80,0,0
124639,-100,4,2,1,77,0,0
124733,-100,4,2,1,74,0,0
124827,-100,4,2,1,71,0,0
124921,-100,4,2,1,68,0,0
125014,-100,4,2,1,65,0,0
125108,-100,4,2,1,62,0,0
125202,-100,4,2,1,59,0,0
125296,-100,4,2,1,60,0,0
125483,-100,4,2,1,70,0,0
126046,-100,4,2,1,60,0,0
128296,-100,4,2,1,50,0,0
128483,-100,4,2,1,60,0,0
131296,-100,4,2,1,40,0,0
131389,-100,4,2,1,43,0,0
131483,-100,4,2,1,46,0,0
131577,-100,4,2,1,49,0,0
131671,-100,4,2,1,52,0,0
131764,-100,4,2,1,55,0,0
131858,-100,4,2,1,58,0,0
131952,-100,4,2,1,60,0,0
132046,-100,4,2,1,70,0,0
135046,-100,4,2,1,60,0,0
135327,-100,4,2,1,65,0,0
135608,-100,4,2,1,70,0,0
135796,-100,4,2,1,65,0,0
136077,-100,4,2,1,70,0,0
136358,-100,4,2,1,75,0,0
136546,-100,4,2,1,55,0,0
137296,-125,4,2,2,40,0,0
137671,-125,4,2,1,50,0,0
138046,-100,4,2,1,70,0,1
138421,-100,4,2,1,60,0,0
138796,-100,4,2,1,70,0,0
142733,-100,4,2,1,80,0,0
142921,-100,4,2,1,70,0,0
143108,-100,4,2,1,80,0,0
143296,-100,4,2,1,70,0,0
143483,-100,4,2,1,80,0,0
143858,-100,4,2,1,80,0,0
144046,-100,4,2,1,70,0,0
144796,-100,4,2,1,50,0,0
144983,-100,4,2,1,70,0,0
147046,-100,4,2,1,60,0,0
147608,-100,4,2,1,70,0,0
147796,-100,4,2,1,60,0,0
148546,-100,4,2,1,80,0,0
148827,-100,4,2,1,75,0,0
149108,-100,4,2,1,70,0,0
149296,-100,4,2,1,85,0,0
149577,-100,4,2,1,80,0,0
149858,-100,4,2,1,75,0,0
150046,-100,4,2,1,70,0,1
150421,-100,4,2,1,60,0,0
150796,-100,4,2,1,70,0,0
152296,-100,4,2,1,80,0,0
152671,-100,4,2,1,70,0,0
154546,-142.857142857143,4,2,1,50,0,0
155108,-142.857142857143,4,2,1,60,0,0
155483,-142.857142857143,4,2,1,60,0,0
155577,-142.857142857143,4,2,1,63,0,0
155671,-142.857142857143,4,2,1,66,0,0
155764,-142.857142857143,4,2,1,69,0,0
155858,-142.857142857143,4,2,1,72,0,0
155952,-142.857142857143,4,2,1,75,0,0
156046,-100,4,2,1,80,0,0
156421,-100,4,2,1,70,0,0
156983,-100,4,2,1,60,0,0
157358,-100,4,2,1,70,0,0
157546,-100,4,2,1,80,0,0
157733,-100,4,2,1,70,0,0
158108,-100,4,2,1,80,0,0
158483,-100,4,2,1,70,0,0
159046,-100,4,2,1,80,0,0
159327,-100,4,2,1,85,0,0
159608,-100,4,2,1,90,0,0
159796,-100,4,2,1,70,0,0
160171,-100,4,2,1,80,0,0
160358,-100,4,2,1,90,0,0
160546,-100,4,2,1,80,0,0
160733,-100,4,2,1,70,0,0
160921,-100,4,2,1,60,0,0
161108,-100,4,2,1,70,0,0
161296,-100,4,2,1,80,0,0
161483,-100,4,2,1,70,0,0
161671,-100,4,2,1,60,0,0
161858,-100,4,2,1,50,0,0
162046,-100,4,2,1,60,0,0
162327,-100,4,2,1,70,0,0
166733,-100,4,2,1,80,0,0
166921,-100,4,2,1,70,0,0
167108,-100,4,2,1,80,0,0
167296,-100,4,2,1,70,0,0
167483,-100,4,2,1,80,0,0
167671,-100,4,2,1,70,0,0
167858,-100,4,2,1,75,0,0
168046,-100,4,2,1,70,0,0
171233,-100,4,2,1,80,0,0
171421,-100,4,2,1,70,0,0
171608,-100,4,2,1,80,0,0
171796,-100,4,2,1,70,0,0
172546,-100,4,2,1,80,0,0
172733,-100,4,2,1,90,0,0
172921,-100,4,2,1,80,0,0
173296,-100,4,2,1,70,0,0
173858,-100,4,2,1,80,0,0
174046,-100,4,2,1,90,0,1
174233,-100,4,2,1,70,0,0
174796,-100,4,2,1,90,0,0
174889,-100,4,2,1,80,0,0
174983,-100,4,2,1,70,0,0
175546,-100,4,2,1,80,0,0
175733,-100,4,2,1,70,0,0
177046,-100,4,2,1,80,0,0
177796,-100,4,2,1,90,0,0
178546,-100,4,2,1,80,0,0
180046,-100,4,2,1,90,0,0
180421,-100,4,2,1,80,0,0
183046,-100,4,2,1,90,0,0
184733,-100,4,2,1,80,0,0
184921,-100,4,2,1,75,0,0
185108,-100,4,2,1,70,0,0
185296,-100,4,2,1,65,0,0
185483,-100,4,2,1,60,0,0
185671,-100,4,2,1,55,0,0
185858,-100,4,2,1,50,0,0
187546,-200,4,2,1,60,0,0
187921,-200,4,2,1,50,0,0
189046,-200,4,2,1,60,0,0
189421,-200,4,2,1,45,0,0
189608,-200,4,2,1,55,0,0
190358,-200,4,2,1,45,0,0
190546,-200,4,2,1,60,0,0
191108,-200,4,2,1,55,0,0
191858,-200,4,2,1,50,0,0
192046,-200,4,2,1,60,0,0
192796,-200,4,2,1,50,0,0
192889,-200,4,2,1,53,0,0
192983,-200,4,2,1,56,0,0
193077,-200,4,2,1,59,0,0
193171,-200,4,2,1,62,0,0
193264,-200,4,2,1,65,0,0
193358,-200,4,2,1,68,0,0
193452,-200,4,2,1,71,0,0
193546,-100,4,2,1,70,0,0
194858,-100,4,2,1,80,0,0
194952,-100,4,2,1,70,0,0
195046,-100,4,2,1,80,0,0
195421,-100,4,2,1,70,0,0
195608,-100,4,2,1,80,0,0
196171,-100,4,2,1,70,0,0
196358,-100,4,2,1,80,0,0
196546,-100,4,2,1,90,0,0
196921,-100,4,2,1,80,0,0
197296,-100,4,2,1,90,0,0
197671,-100,4,2,1,70,0,0
197858,-100,4,2,1,80,0,0
198046,-100,4,2,1,93,0,0
198233,-100,4,2,1,83,0,0
198421,-100,4,2,1,96,0,0
198608,-100,4,2,1,86,0,0
198796,-100,4,2,1,99,0,0
198983,-100,4,2,1,89,0,0
199171,-100,4,2,1,96,0,0
199358,-100,4,2,1,86,0,0
199546,-142.857142857143,4,2,1,70,0,0
199733,-142.857142857143,4,2,1,50,0,0
199921,-142.857142857143,4,2,1,60,0,0
200108,-142.857142857143,4,2,1,40,0,0
200296,-142.857142857143,4,2,1,50,0,0
201046,-142.857142857143,4,2,1,60,0,0
201233,-142.857142857143,4,2,1,50,0,0
201421,-142.857142857143,4,2,1,65,0,0
201608,-142.857142857143,4,2,1,55,0,0
201796,-142.857142857143,4,2,1,50,0,0
201983,-142.857142857143,4,2,1,55,0,0
202171,-142.857142857143,4,2,1,60,0,0
202358,-142.857142857143,4,2,1,65,0,0
202546,-142.857142857143,4,2,1,60,0,0
203108,-142.857142857143,4,2,1,65,0,0
203296,-142.857142857143,4,2,1,60,0,0
203483,-142.857142857143,4,2,1,55,0,0
203671,-142.857142857143,4,2,1,50,0,0
203858,-142.857142857143,4,2,1,45,0,0
204046,-142.857142857143,4,2,1,60,0,0
204233,-142.857142857143,4,2,1,50,0,0
204421,-142.857142857143,4,2,1,60,0,0
204608,-142.857142857143,4,2,1,50,0,0
204796,-142.857142857143,4,2,1,60,0,0
204983,-142.857142857143,4,2,1,50,0,0
205546,-142.857142857143,4,2,1,50,0,0
205921,-142.857142857143,4,2,1,55,0,0
206108,-142.857142857143,4,2,1,60,0,0
206296,-142.857142857143,4,2,1,65,0,0
206483,-142.857142857143,4,2,1,70,0,0
206671,-142.857142857143,4,2,1,65,0,0
206858,-142.857142857143,4,2,1,60,0,0
207046,-142.857142857143,4,2,1,50,0,0
207421,-142.857142857143,4,2,1,60,0,0
207796,-142.857142857143,4,2,1,50,0,0
208546,-142.857142857143,4,2,1,60,0,0
208921,-142.857142857143,4,2,1,65,0,0
209108,-142.857142857143,4,2,1,70,0,0
209296,-142.857142857143,4,2,1,65,0,0
209483,-142.857142857143,4,2,1,60,0,0
209671,-142.857142857143,4,2,1,55,0,0
209858,-142.857142857143,4,2,1,50,0,0
210046,-142.857142857143,4,2,1,60,0,0
210421,-142.857142857143,4,2,1,50,0,0
210608,-142.857142857143,4,2,1,55,0,0
211546,-142.857142857143,4,2,1,45,0,0
212296,375,4,2,1,80,1,0
212296,-100,4,2,1,80,0,0
212483,-100,4,2,1,70,0,0
213046,-100,4,2,1,80,0,0
213233,-100,4,2,1,70,0,0
213796,-100,4,2,1,80,0,0
214921,-100,4,2,1,90,0,0
215108,-100,4,2,1,80,0,0
216796,-100,4,2,1,90,0,0
216983,-100,4,2,1,95,0,0
217171,-100,4,2,1,90,0,0
217358,-100,4,2,1,80,0,0
217921,-100,4,2,1,70,0,0
218296,-100,4,2,1,80,0,0
218671,-100,4,2,1,70,0,0
219796,-100,4,2,1,80,0,0
220921,-100,4,2,1,70,0,0
221296,-100,4,2,1,80,0,0
221483,-100,4,2,1,70,0,0
221858,-100,4,2,1,80,0,0
222046,-100,4,2,1,70,0,0
222421,-100,4,2,1,80,0,0
222608,-100,4,2,1,90,0,0
222796,-100,4,2,1,99,0,0
222983,-100,4,2,1,80,0,0
223077,-100,4,2,1,90,0,0
223171,-100,4,2,1,80,0,0
223546,-100,4,2,1,90,0,0
223733,-100,4,2,1,85,0,0
223921,-100,4,2,1,80,0,0
224108,-100,4,2,1,85,0,0
224296,-100,4,2,1,90,0,0
224483,-100,4,2,1,80,0,0
230296,-100,4,2,1,90,0,0
235171,-100,4,2,1,80,0,0
235546,-100,4,2,1,85,0,0
235921,-100,4,2,1,75,0,0
236296,-100,4,2,1,60,0,0
236671,-100,4,2,1,50,0,0
237796,-100,4,2,1,60,0,0
238171,-100,4,2,1,50,0,0
239296,-100,4,2,1,60,0,0
239671,-100,4,2,1,50,0,0
240046,-100,4,2,1,60,0,0
240421,-100,4,2,1,50,0,0
240796,-100,4,2,1,60,0,0
241171,-100,4,2,1,50,0,0
241546,-100,4,2,1,60,0,0
241921,-100,4,2,1,50,0,0
242296,-111.111111111111,4,2,1,60,0,0
246796,-111.111111111111,4,2,1,50,0,0
247171,-111.111111111111,4,2,1,55,0,0
247546,-111.111111111111,4,2,1,60,0,0
247921,-111.111111111111,4,2,1,65,0,0
248296,-111.111111111111,4,2,1,55,0,0
249733,-111.111111111111,4,2,1,50,0,0
249796,-111.111111111111,4,2,1,40,0,0

[Colours]
Combo1 : 128,128,192
Combo2 : 0,128,128
Combo3 : 128,128,255
Combo4 : 0,128,0

[HitObjects]
367,164,1546,6,0,P|406:160|446:145,1,71.9999978027344,2|0,0:0|0:0,0:0:0:0:
495,40,1921,2,0,P|460:28|425:25,1,71.9999978027344,0|0,0:0|0:0,0:0:0:0:
256,83,2296,2,0,L|271:251,1,143.999995605469,2|2,0:0|0:0,0:0:0:0:
226,320,2858,1,2,0:0:0:0:
262,154,3046,5,2,0:0:0:0:
184,210,3233,1,0,0:0:0:0:
92,186,3421,1,0,0:0:0:0:
70,95,3608,1,0,0:0:0:0:
131,22,3796,2,0,P|151:51|161:85,1,71.9999978027344,2|0,0:0|0:0,0:0:0:0:
32,257,4171,2,0,P|11:227|1:193,1,71.9999978027344,2|0,0:0|0:0,0:0:0:0:
161,85,4546,6,0,P|220:46|290:52,1,143.999995605469,2|0,0:0|0:0,0:0:0:0:
437,104,5108,1,0,0:0:0:0:
326,177,5296,1,2,0:0:0:0:
329,32,5483,1,0,0:0:0:0:
470,120,5671,1,0,0:0:0:0:
321,211,5858,1,2,0:0:0:0:
497,135,6046,5,2,0:0:0:0:
497,135,6233,2,0,L|487:206,1,71.9999978027344,2|0,0:0|0:0,0:0:0:0:
345,340,6608,2,0,L|180:309,1,143.999995605469,2|0,0:0|0:0,0:0:0:0:
321,211,7171,2,0,L|392:201,1,71.9999978027344,2|0,0:0|0:0,0:0:0:0:
328,56,7546,6,0,P|249:51|189:101,1,160,4|0,0:0|0:0,0:0:0:0:
48,282,8108,2,0,P|126:286|186:236,1,160,2|0,0:0|0:0,0:0:0:0:
337,290,8671,2,0,L|322:386,1,80,2|0,0:0|0:0,0:0:0:0:
509,236,9046,6,0,P|469:235|430:225,1,80,4|0,0:0|0:0,0:0:0:0:
417,182,9327,1,2,0:0:0:0:
417,182,9421,2,0,L|429:102,1,80,0|2,0:0|0:0,0:0:0:0:
256,0,9796,2,0,L|267:119,1,120,2|0,0:0|0:0,0:0:0:0:
298,145,10171,1,0,0:0:0:0:
186,235,10358,1,0,0:0:0:0:
0,150,10546,6,0,L|169:128,1,160,6|0,1:2|0:0,0:0:0:0:
186,235,11108,1,0,0:0:0:0:
0,150,11296,1,6,1:2:0:0:
165,42,11483,1,0,0:0:0:0:
90,258,11671,2,0,P|51:247|11:243,1,80,0|0,0:0|0:0,0:0:0:0:
174,362,12046,6,0,L|162:304,1,40,6|0,1:2|0:0,0:0:0:0:
240,203,12233,2,0,L|228:261,1,40,0|0,0:0|0:0,0:0:0:0:
261,384,12421,6,0,L|249:326,1,40,0|0,0:0|0:0,0:0:0:0:
336,180,12608,2,0,L|327:219,1,40,2|0,0:0|0:0,0:0:0:0:
367,306,12796,5,2,0:0:0:0:
385,316,12889,1,0,0:0:0:0:
404,321,12983,1,2,0:0:0:0:
424,320,13077,1,0,0:0:0:0:
443,314,13171,1,2,0:0:0:0:
459,303,13264,1,0,0:0:0:0:
472,287,13358,1,2,0:0:0:0:
481,269,13452,1,0,0:0:0:0:
484,250,13546,6,0,P|408:231|321:218,1,160,4|0,0:0|1:0,0:0:0:0:
195,116,14108,2,0,L|183:11,1,80,0|0,0:0|1:0,0:0:0:0:
345,135,14483,1,2,0:0:0:0:
157,235,14671,2,0,P|118:223|79:215,1,80,0|2,1:0|0:0,0:0:0:0:
267,366,15046,6,0,P|344:374|400:321,1,160,4|0,1:2|1:0,0:0:0:0:
457,192,15608,1,0,0:0:0:0:
317,300,15796,1,2,1:0:0:0:
424,94,15983,1,0,0:0:0:0:
497,226,16171,2,0,L|404:209,1,80,2|0,1:0|0:0,0:0:0:0:
250,50,16546,6,0,L|257:169,1,120,6|0,1:2|0:0,0:0:0:0:
276,195,16921,1,0,1:0:0:0:
388,114,17108,1,2,1:0:0:0:
317,300,17296,2,0,P|278:290|238:284,1,80,2|0,1:0|0:0,0:0:0:0:
47,351,17671,2,0,P|85:360|125:366,1,80,2|2,1:0|1:0,0:0:0:0:
276,194,18046,6,0,P|290:117|251:49,1,160,2|2,1:0|1:0,0:0:0:0:
379,182,18608,1,0,0:0:0:0:
242,12,18796,1,2,1:0:0:0:
146,139,18983,1,0,0:0:0:0:
146,139,19077,1,0,0:0:0:0:
146,139,19171,2,0,L|83:124,1,40,2|0,1:0|0:0,0:0:0:0:
64,201,19358,2,0,L|1:186,1,40,0|0,0:0|0:0,0:0:0:0:
30,296,19546,6,0,P|107:294|159:236,1,160,6|0,0:0|1:0,0:0:0:0:
356,202,20108,1,0,0:0:0:0:
192,133,20296,1,6,0:0:0:0:
253,356,20483,2,0,L|258:277,1,80,2|2,1:0|1:0,0:0:0:0:
269,59,20858,1,2,1:0:0:0:
356,201,21046,6,0,P|395:196|432:180,1,80,6|0,0:0|0:0,0:0:0:0:
499,10,21421,2,0,P|459:15|422:31,1,80,0|2,1:0|1:0,0:0:0:0:
347,75,21702,1,0,0:0:0:0:
347,75,21796,2,0,L|268:58,1,80,0|0,1:0|1:0,0:0:0:0:
481,103,22171,1,2,1:0:0:0:
281,172,22358,1,0,0:0:0:0:
457,328,22546,6,0,L|465:248,1,80,6|0,0:0|1:0,0:0:0:0:
403,159,22827,2,0,L|399:200,1,40,0|0,1:0|0:0,0:0:0:0:
486,372,23108,1,0,1:0:0:0:
292,296,23296,2,0,P|253:305|213:309,1,80,4|0,0:0|1:0,0:0:0:0:
147,276,23577,1,0,1:0:0:0:
147,276,23671,1,0,0:0:0:0:
281,172,23858,1,2,1:0:0:0:
122,23,24046,5,6,0:0:0:0:
157,172,24233,1,0,1:0:0:0:
388,92,24421,1,4,0:0:0:0:
234,60,24608,1,0,1:0:0:0:
290,272,24796,1,4,0:0:0:0:
488,189,24983,5,2,0:0:0:0:
449,223,25077,1,0,0:0:0:0:
396,226,25171,1,2,1:2:0:0:
354,197,25264,1,0,0:0:0:0:
310,169,25358,1,2,0:0:0:0:
258,175,25452,1,2,0:0:0:0:
214,202,25546,6,0,P|138:195|45:159,2,160,6|6|4,0:0|0:0|0:0,0:0:0:0:
415,128,26671,1,2,1:0:0:0:
290,272,26858,1,2,0:0:0:0:
197,112,27046,6,0,P|231:100|266:96,1,71.9999978027344,4|0,0:0|0:0,0:0:0:0:
413,236,27421,1,2,0:0:0:0:
415,128,27608,1,0,0:0:0:0:
413,236,27796,2,0,P|377:231|343:220,1,71.9999978027344,2|0,0:0|0:0,0:0:0:0:
267,96,28171,2,0,L|261:25,1,71.9999978027344,0|2,0:0|0:0,0:0:0:0:
224,177,28546,6,0,L|231:249,1,71.9999978027344,2|0,0:0|0:0,0:0:0:0:
343,220,28921,1,2,0:0:0:0:
170,54,29296,2,0,P|100:57|61:115,1,143.999995605469,2|2,0:0|0:0,0:0:0:0:
75,289,29858,1,2,0:0:0:0:
0,199,30046,6,0,P|71:193|142:178,1,143.999995605469,2|2,0:0|0:0,0:0:0:0:
75,289,30608,1,2,0:0:0:0:
75,289,30796,2,0,P|39:291|3:299,1,71.9999978027344
97,145,31171,2,0,P|132:142|168:134,1,71.9999978027344,2|0,0:0|0:0,0:0:0:0:
343,63,31546,6,0,P|387:117|378:186,1,143.999995605469,2|2,0:0|0:0,0:0:0:0:
286,255,32108,1,2,0:0:0:0:
297,142,32296,1,2,0:0:0:0:
451,240,32483,1,0,0:0:0:0:
306,349,32671,2,0,P|270:343|236:332,1,71.9999978027344,2|0,0:0|0:0,0:0:0:0:
98,233,33046,6,0,P|131:221|167:216,1,71.9999978027344,6|2,0:0|0:0,0:0:0:0:
286,255,33421,2,0,L|292:184,1,71.9999978027344,2|0,0:0|0:0,0:0:0:0:
167,216,33796,1,2,0:0:0:0:
167,216,33983,1,2,0:0:0:0:
318,304,34171,2,0,L|323:232,1,71.9999978027344,0|2,0:0|0:0,0:0:0:0:
361,72,34546,6,0,P|430:82|486:40,1,143.999995605469,6|2,0:0|0:0,0:0:0:0:
361,72,35108,2,0,P|326:63|290:56,1,71.9999978027344,2|0,0:0|0:0,0:0:0:0:
149,187,35483,1,2,0:0:0:0:
220,173,35671,2,0,P|185:181|149:188,1,71.9999978027344,2|2,0:0|0:0,0:0:0:0:
18,173,36046,5,2,0:0:0:0:
46,45,36233,1,0,0:0:0:0:
166,108,36421,1,2,0:0:0:0:
235,0,36608,1,2,0:0:0:0:
325,109,36796,2,0,P|321:144|314:180,1,71.9999978027344,2|0,0:0|0:0,0:0:0:0:
209,356,37171,2,0,P|201:320|198:284,1,71.9999978027344,2|0,0:0|0:0,0:0:0:0:
315,181,37546,5,2,0:0:0:0:
315,181,37639,1,0,0:0:0:0:
315,181,37733,2,0,L|368:189,1,40,2|2,0:0|0:0,0:0:0:0:
480,252,37921,5,2,0:0:0:0:
480,252,38014,1,0,0:0:0:0:
480,252,38108,2,0,L|423:256,1,40,2|2,0:0|0:0,0:0:0:0:
365,334,38296,6,0,P|375:381|382:401,1,40,2|2,0:0|0:0,0:0:0:0:
480,252,38483,2,0,P|484:232|487:212,1,40,2|0,0:0|0:0,0:0:0:0:
315,181,38671,6,0,P|318:200|322:220,1,40,2|0,0:0|0:0,0:0:0:0:
430,99,38858,2,0,P|434:79|437:59,1,40,2|0,0:0|0:0,0:0:0:0:
298,58,39046,6,0,P|258:53|221:37,1,80,6|2,0:0|0:0,0:0:0:0:
430,99,39421,1,8,0:0:0:0:
267,174,39608,1,2,0:0:0:0:
267,174,39702,1,0,0:0:0:0:
267,174,39796,2,0,L|276:284,1,80,0|2,3:0|0:0,0:0:0:0:
417,194,40171,1,8,0:0:0:0:
332,359,40358,1,2,0:0:0:0:
130,217,40546,6,0,P|208:209|272:253,1,160,0|8,3:0|0:0,0:0:0:0:
134,335,41108,1,2,0:0:0:0:
134,335,41202,1,0,0:0:0:0:
133,335,41296,2,0,P|93:329|59:308,1,80,0|2,3:0|0:0,0:0:0:0:
1,108,41671,2,0,P|40:113|74:134,1,80,8|2,0:0|0:0,0:0:0:0:
208,209,42046,6,0,L|347:189,1,120,4|0,0:0|0:0,0:0:0:0:
356,161,42421,1,8,0:0:0:0:
173,236,42608,1,2,0:0:0:0:
295,102,42796,1,0,0:0:0:0:
265,300,42983,1,2,0:0:0:0:
265,300,43077,1,0,0:0:0:0:
264,300,43171,2,0,P|256:339|250:378,1,80,8|2,0:0|0:0,0:0:0:0:
295,102,43546,5,4,0:0:0:0:
190,203,43733,1,0,0:0:0:0:
190,203,43827,1,0,0:0:0:0:
190,203,43921,1,8,0:0:0:0:
265,0,44108,1,2,0:0:0:0:
365,160,44296,1,0,1:0:0:0:
400,177,44389,1,0,0:0:0:0:
439,174,44483,1,0,1:0:0:0:
472,152,44577,1,0,0:0:0:0:
490,117,44671,2,0,L|497:71,1,40,8|0,0:0|0:0,0:0:0:0:
392,32,44858,2,0,L|398:71,1,40,2|0,0:0|0:0,0:0:0:0:
439,174,45046,6,0,L|426:269,1,80,4|2,0:0|0:0,0:0:0:0:
212,364,45421,1,8,0:0:0:0:
316,263,45608,1,2,0:0:0:0:
170,208,45796,1,0,3:0:0:0:
328,141,45983,1,2,0:0:0:0:
328,141,46077,1,0,0:0:0:0:
328,141,46171,2,0,P|336:98|336:53,1,80,8|2,0:0|0:0,0:0:0:0:
170,24,46546,6,0,B|89:1|89:1|42:22|32:85,1,160,0|8,1:2|0:0,0:0:0:0:
92,225,47108,2,0,L|175:207,1,80,2|0,0:0|3:0,0:0:0:0:
110,84,47483,1,2,0:0:0:0:
0,216,47671,1,8,0:0:0:0:
152,314,47858,5,2,0:0:0:0:
152,314,47952,1,0,0:0:0:0:
152,314,48046,2,0,P|210:310|254:271,1,120,4|0,0:0|0:0,0:0:0:0:
283,202,48421,2,0,L|297:111,1,80,8|0,0:0|0:0,0:0:0:0:
170,208,48796,1,2,3:2:0:0:
352,343,48983,2,0,L|366:252,1,80,0|8,0:0|0:0,0:0:0:0:
265,83,49358,1,2,0:0:0:0:
510,129,49546,6,0,B|466:149|433:132|433:132|416:174|371:177,1,160,6|10,0:0|0:0,0:0:0:0:
213,57,50108,1,2,0:0:0:0:
213,57,50202,1,2,0:0:0:0:
213,57,50296,2,0,P|214:37|218:17,1,40,4|2,0:0|0:0,0:0:0:0:
294,55,50483,2,0,P|310:66|325:79,1,40,2|2,0:0|0:0,0:0:0:0:
254,126,50671,2,0,P|238:135|217:141,1,40,8|0,0:0|0:0,0:0:0:0:
58,159,50858,5,2,0:0:0:0:
58,159,50952,1,0,0:0:0:0:
58,159,51046,2,0,L|233:139,1,160,4|0,0:0|3:0,0:0:0:0:
338,242,51608,1,0,3:0:0:0:
338,242,51983,1,0,3:0:0:0:
257,37,52171,1,0,3:0:0:0:
145,193,52358,1,2,0:0:0:0:
254,126,52546,5,2,1:2:0:0:
254,126,52733,1,0,0:0:0:0:
192,317,52921,1,2,0:0:0:0:
338,242,53108,2,0,L|349:73,1,160,0|2,1:0|1:2,0:0:0:0:
463,233,53671,2,0,P|444:282|435:328,1,80,0|2,1:0|0:0,0:0:0:0:
414,342,53952,1,0,0:0:0:0:
414,342,54046,6,0,L|327:330,1,80,0|0,3:0|0:0,0:0:0:0:
180,284,54421,1,0,3:0:0:0:
343,161,54608,2,0,P|420:168|462:233,1,160,0|0,1:0|1:0,0:0:0:0:
269,109,55171,1,0,0:0:0:0:
434,50,55358,5,0,3:0:0:0:
434,50,55452,1,0,0:0:0:0:
434,50,55546,1,2,3:2:0:0:
343,161,55733,1,0,0:0:0:0:
274,20,55921,1,0,3:0:0:0:
109,124,56108,2,0,P|189:118|269:109,1,160,0|0,0:0|3:0,0:0:0:0:
297,139,56577,1,0,3:0:0:0:
306,176,56671,1,0,1:0:0:0:
297,215,56764,1,0,3:0:0:0:
271,244,56858,1,0,1:0:0:0:
233,258,56952,1,0,0:0:0:0:
194,252,57046,6,0,L|182:331,1,80,4|2,0:0|0:0,0:0:0:0:
212,160,57421,1,0,1:0:0:0:
332,299,57608,1,2,0:0:0:0:
112,384,57796,2,0,P|98:346|96:306,1,80,0|2,1:0|0:0,0:0:0:0:
212,160,58171,2,0,P|249:146|289:144,1,80,0|2,1:0|0:0,0:0:0:0:
159,0,58546,5,0,1:0:0:0:
104,156,58733,1,2,0:0:0:0:
104,156,58827,1,0,0:0:0:0:
104,156,58921,1,0,1:0:0:0:
7,71,59108,1,2,0:0:0:0:
107,261,59296,1,0,1:0:0:0:
212,160,59483,2,0,L|221:80,1,80,2|0,0:0|1:0,0:0:0:0:
104,156,59858,1,2,0:0:0:0:
305,15,60046,6,0,P|330:45|365:64,1,80,4|2,0:0|0:0,0:0:0:0:
438,69,60327,2,0,L|308:96,1,120,0|2,1:0|3:2,0:0:0:0:
212,160,60796,1,4,0:0:0:0:
375,260,60983,1,2,0:0:0:0:
375,260,61077,1,0,0:0:0:0:
375,260,61171,1,0,1:0:0:0:
459,89,61358,1,2,0:0:0:0:
390,291,61546,5,4,0:0:0:0:
320,93,61733,1,0,1:0:0:0:
457,190,61921,1,4,0:0:0:0:
342,11,62108,1,0,1:0:0:0:
212,159,62296,1,6,0:0:0:0:
185,189,62389,1,0,0:0:0:0:
149,206,62483,1,2,1:2:0:0:
109,207,62577,1,0,0:0:0:0:
73,193,62671,1,2,1:0:0:0:
44,165,62764,1,0,0:0:0:0:
30,128,62858,1,2,1:0:0:0:
31,88,62952,1,0,0:0:0:0:
46,51,63046,6,0,P|105:48|158:20,1,120,2|2,0:0|0:0,0:0:0:0:
226,70,63796,5,2,0:0:0:0:
229,94,63889,1,0,0:0:0:0:
233,119,63983,1,2,0:0:0:0:
236,145,64077,1,0,0:0:0:0:
275,178,64171,5,2,0:0:0:0:
271,209,64264,1,0,0:0:0:0:
267,241,64358,1,2,0:0:0:0:
264,272,64452,1,0,0:0:0:0:
259,304,64546,6,0,P|221:316|182:324,1,80,4|0,0:0|0:0,0:0:0:0:
409,337,64921,2,0,P|407:278|428:222,1,120,12|0,0:0|0:0,0:0:0:0:
476,156,65296,1,0,3:0:0:0:
329,252,65483,1,2,0:0:0:0:
483,368,65671,2,0,P|447:350|409:337,1,80,8|2,0:0|0:0,0:0:0:0:
172,351,66046,5,4,0:0:0:0:
329,252,66233,1,2,0:0:0:0:
329,252,66327,1,0,0:0:0:0:
329,252,66421,2,0,L|334:172,1,80,8|2,0:0|0:0,0:0:0:0:
202,208,66796,1,2,3:2:0:0:
296,344,66983,1,0,0:0:0:0:
469,217,67171,1,8,0:0:0:0:
329,252,67358,1,2,0:0:0:0:
497,109,67546,6,0,B|451:139|451:139|400:141|355:78,1,160,4|8,0:0|0:0,0:0:0:0:
153,75,68108,1,2,0:0:0:0:
291,0,68296,1,2,3:2:0:0:
250,189,68483,1,0,0:0:0:0:
250,189,68577,1,2,0:0:0:0:
250,189,68671,2,0,P|211:177|172:169,1,80,8|2,0:0|0:0,0:0:0:0:
58,310,69046,6,0,P|96:321|135:329,1,80,4|2,0:0|0:0,0:0:0:0:
329,268,69421,1,8,0:0:0:0:
172,169,69608,1,2,0:0:0:0:
327,57,69796,1,0,3:0:0:0:
205,257,69983,1,2,0:0:0:0:
205,257,70077,1,0,0:0:0:0:
205,257,70171,2,0,P|205:276|210:296,1,40,8|0,0:0|0:0,0:0:0:0:
315,187,70358,2,0,P|319:167|320:147,1,40,2|0,0:0|0:0,0:0:0:0:
201,37,70546,6,0,P|129:67|56:38,1,160,4|8,0:0|0:0,0:0:0:0:
163,178,71108,2,0,L|241:163,1,80,2|0,0:0|3:0,0:0:0:0:
128,273,71483,1,2,0:0:0:0:
0,121,71671,2,0,L|78:135,1,80,8|2,0:0|0:0,0:0:0:0:
265,184,72046,5,4,0:0:0:0:
114,316,72233,2,0,L|104:374,2,40,0|0|8,0:0|0:0|0:0,0:0:0:0:
25,135,72608,1,2,0:0:0:0:
238,216,72796,2,0,L|226:295,1,80,0|2,3:0|0:0,0:0:0:0:
199,366,73077,1,0,0:0:0:0:
199,366,73171,1,8,0:0:0:0:
388,294,73358,1,2,0:0:0:0:
258,106,73546,6,0,P|228:157|237:215,1,120,4|0,0:0|0:0,0:0:0:0:
305,272,73921,1,8,0:0:0:0:
366,173,74108,1,2,0:0:0:0:
512,176,74296,5,4,0:0:0:0:
446,67,74483,1,2,0:0:0:0:
353,161,74671,1,4,0:0:0:0:
303,4,74858,1,2,0:0:0:0:
211,146,75046,6,0,L|153:131,2,40,6|0|0,0:0|0:0|0:0,0:0:0:0:
134,230,75327,2,0,L|95:219,2,40,6|0|0,0:0|0:0|0:0,0:0:0:0:
57,314,75608,2,0,L|18:303,1,40,6|0,0:0|0:0,0:0:0:0:
146,370,75796,5,6,0:0:0:0:
175,338,75889,1,0,0:0:0:0:
218,329,75983,1,0,0:0:0:0:
261,339,76077,1,6,0:0:0:0:
293,367,76171,1,0,0:0:0:0:
336,380,76264,1,0,0:0:0:0:
380,373,76358,1,6,0:0:0:0:
417,348,76452,1,0,0:0:0:0:
437,309,76546,6,0,L|445:215,1,80,6|0,0:0|0:0,0:0:0:0:
322,111,76921,1,12,0:0:0:0:
507,24,77108,1,2,0:0:0:0:
507,24,77202,1,0,0:0:0:0:
507,24,77296,2,0,L|501:104,1,80,6|2,1:2|0:0,0:0:0:0:
336,225,77671,2,0,P|299:212|260:204,1,80,8|2,0:0|0:0,0:0:0:0:
453,334,78046,5,4,0:0:0:0:
336,225,78233,1,2,0:0:0:0:
493,181,78421,1,8,0:0:0:0:
343,318,78608,1,2,0:0:0:0:
325,334,78702,1,0,0:0:0:0:
307,350,78796,2,0,L|213:340,1,80,2|0,3:2|0:0,0:0:0:0:
336,225,79171,1,8,0:0:0:0:
424,382,79358,1,2,0:0:0:0:
200,306,79546,6,0,P|122:304|61:354,1,160,4|8,0:0|0:0,0:0:0:0:
61,354,80108,1,2,0:0:0:0:
198,215,80296,1,6,3:2:0:0:
108,110,80483,1,0,0:0:0:0:
0,242,80671,2,0,P|39:240|78:232,1,80,8|2,0:0|0:0,0:0:0:0:
254,127,81046,5,4,0:0:0:0:
326,259,81233,1,2,0:0:0:0:
166,178,81421,1,8,0:0:0:0:
297,36,81608,1,2,0:0:0:0:
403,220,81796,1,0,3:0:0:0:
413,258,81889,1,0,0:0:0:0:
405,297,81983,1,2,0:0:0:0:
380,327,82077,1,0,0:0:0:0:
344,343,82171,2,0,L|295:337,1,40,8|0,0:0|0:0,0:0:0:0:
202,300,82358,2,0,L|151:313,1,40,2|0,0:0|0:0,0:0:0:0:
30,233,82546,6,0,P|90:240|145:209,1,120,4|0,0:0|0:0,0:0:0:0:
166,178,82921,1,2,3:2:0:0:
261,12,83108,2,0,L|249:171,1,160,0|0,1:0|1:0,0:0:0:0:
417,88,83671,2,0,L|395:164,1,80,2|2,3:0|3:2,0:0:0:0:
420,250,83952,1,0,0:0:0:0:
420,250,84046,5,6,1:2:0:0:
253,117,84233,1,0,1:0:0:0:
417,1,84421,1,2,1:2:0:0:
417,1,84608,2,0,P|473:20|504:113,1,160,4|0,1:2|1:0,0:0:0:0:
318,66,85171,1,0,1:0:0:0:
509,198,85358,1,0,0:0:0:0:
509,198,85452,1,0,0:0:0:0:
509,198,85546,6,0,P|471:188|439:164,1,80,4|0,0:0|0:0,0:0:0:0:
370,223,85827,2,0,L|359:261,1,40,4|0,0:0|0:0,0:0:0:0:
417,88,86108,1,4,0:0:0:0:
204,23,86296,5,2,1:2:0:0:
258,164,86483,2,0,L|247:202,2,40,2|0|6,0:0|1:0|0:0,0:0:0:0:
366,57,86858,1,6,1:2:0:0:
189,6,87046,5,2,1:0:0:0:
354,147,87233,1,0,1:0:0:0:
152,228,87421,1,2,1:0:0:0:
265,115,87608,1,2,1:0:0:0:
238,330,87796,1,6,1:0:0:0:
258,164,87983,1,2,1:0:0:0:
258,164,88077,1,0,0:0:0:0:
258,164,88171,2,0,P|240:158|219:154,1,40,2|0,1:3|0:0,0:0:0:0:
130,252,88358,2,0,P|111:258|91:261,1,40,2|0,1:0|0:0,0:0:0:0:
0,132,88546,6,0,P|75:116|135:165,1,160,6|0,1:2|1:0,0:0:0:0:
68,333,89108,2,0,P|59:293|53:254,1,80,0|2,0:0|1:2,0:0:0:0:
185,28,89483,2,0,P|193:67|199:106,1,80,0|0,1:0|1:0,0:0:0:0:
181,260,89858,1,2,1:0:0:0:
362,172,90046,6,0,L|481:157,1,120,2|0,1:0|0:0,0:0:0:0:
512,131,90421,1,0,1:0:0:0:
385,293,90608,1,2,1:0:0:0:
385,293,90702,1,2,1:0:0:0:
385,293,90796,2,0,P|347:278|309:266,1,80,2|0,1:0|0:0,0:0:0:0:
259,329,91077,2,0,L|251:368,1,40,2|2,1:0|1:2,0:0:0:0:
180,197,91358,1,2,1:0:0:0:
385,293,91546,6,0,P|462:287|506:224,1,160,2|2,1:0|1:0,0:0:0:0:
309,138,92108,1,0,0:0:0:0:
512,11,92296,2,0,P|504:50|491:88,1,80,2|0,1:0|0:0,0:0:0:0:
457,167,92577,1,0,0:0:0:0:
457,167,92671,2,0,L|407:189,1,40,2|0,1:0|0:0,0:0:0:0:
368,111,92858,2,0,L|318:89,1,40,0|0,0:0|0:0,0:0:0:0:
166,123,93046,5,6,1:0:0:0:
265,232,93233,1,0,3:0:0:0:
252,12,93421,1,0,1:0:0:0:
263,240,93608,1,0,1:0:0:0:
262,246,93702,1,0,0:0:0:0:
260,252,93796,2,0,L|180:244,1,80,6|2,1:2|0:0,0:0:0:0:
117,283,94077,1,2,1:0:0:0:
117,283,94171,1,0,1:0:0:0:
242,158,94358,1,2,1:0:0:0:
147,364,94546,6,0,B|95:377|95:377|40:359|37:288,1,160,6|0,1:0|1:0,0:0:0:0:
260,252,95108,1,0,3:0:0:0:
260,252,95296,2,0,L|251:331,1,80,6|2,0:0|1:0,0:0:0:0:
272,96,95671,1,2,1:0:0:0:
371,246,95858,1,2,1:0:0:0:
157,185,96046,6,0,P|118:196|79:200,1,80,2|0,1:0|0:0,0:0:0:0:
172,20,96421,1,0,1:0:0:0:
272,96,96608,1,2,1:0:0:0:
272,96,96702,1,0,0:0:0:0:
272,96,96796,2,0,P|233:107|194:111,1,80,0|0,1:0|1:0,0:0:0:0:
116,88,97077,1,0,0:0:0:0:
116,88,97171,2,0,L|74:19,1,80,2|0,1:0|0:0,0:0:0:0:
0,209,97546,6,0,L|157:185,1,160,0|0,1:0|1:0,0:0:0:0:
278,214,98108,1,2,3:2:0:0:
107,102,98296,1,2,1:2:0:0:
120,298,98483,1,0,0:0:0:0:
120,298,98577,1,2,0:0:0:0:
120,298,98671,2,0,L|126:356,1,40,2|0,1:2|0:0,0:0:0:0:
207,341,98858,2,0,L|213:399,1,40,2|0,1:0|0:0,0:0:0:0:
301,349,99046,6,0,P|340:344|379:334,1,80,2|2,1:0|3:2,0:0:0:0:
181,227,99421,2,0,P|142:216|102:212,1,80,2|2,1:0|3:2,0:0:0:0:
313,110,99796,2,0,P|372:114|426:90,1,120,2|0,1:0|0:0,0:0:0:0:
466,101,100171,1,2,1:0:0:0:
492,130,100264,1,0,0:0:0:0:
501,169,100358,1,0,0:0:0:0:
492,207,100452,1,0,0:0:0:0:
467,237,100546,6,0,L|460:276,2,40,2|0|0,1:0|0:0|0:0,0:0:0:0:
408,117,100921,2,0,L|401:77,2,40,2|0|0,1:0|0:0|0:0,0:0:0:0:
343,294,101296,2,0,L|329:335,2,40,2|0|0,1:0|0:0|0:0,0:0:0:0:
310,76,101671,2,0,L|296:35,2,40,2|0|2,1:0|0:0|1:0,0:0:0:0:
256,192,102046,5,6,0:0:0:0:
256,192,102233,2,0,P|217:196|179:209,1,80,2|8,0:0|0:0,0:0:0:0:
88,354,102608,1,2,0:0:0:0:
88,354,102796,2,0,P|105:317|111:278,1,80,0|2,3:0|0:0,0:0:0:0:
33,135,103171,2,0,P|55:166|86:193,1,80,8|2,0:0|0:0,0:0:0:0:
256,192,103546,6,0,B|300:177|333:199|333:199|355:165|400:161,1,160,0|8,3:0|0:0,0:0:0:0:
312,51,104108,1,2,0:0:0:0:
479,101,104296,2,0,P|495:137|504:176,1,80,0|2,3:0|0:0,0:0:0:0:
512,251,104577,1,0,0:0:0:0:
512,251,104671,2,0,L|501:341,1,80,8|2,0:0|0:0,0:0:0:0:
414,171,105046,6,0,L|403:261,1,80,0|2,3:0|0:0,0:0:0:0:
237,200,105421,1,8,0:0:0:0:
311,375,105608,1,2,0:0:0:0:
404,250,105796,2,0,P|364:254|324:261,1,80,0|2,0:0|0:0,0:0:0:0:
256,296,106077,1,0,0:0:0:0:
256,296,106171,2,0,L|217:286,2,40,8|0|2,0:0|0:0|0:0,0:0:0:0:
436,223,106546,5,2,3:2:0:0:
414,72,106733,1,0,0:0:0:0:
294,166,106921,1,10,0:0:0:0:
490,170,107108,5,2,0:0:0:0:
468,19,107296,1,2,3:2:0:0:
348,113,107483,1,2,0:0:0:0:
457,62,107671,1,10,0:2:0:0:
394,207,107858,1,2,0:0:0:0:
269,87,108046,6,0,P|232:101|193:108,1,80,4|2,0:0|0:0,0:0:0:0:
3,185,108421,2,0,P|42:192|79:206,1,80,8|2,0:0|0:0,0:0:0:0:
110,236,108702,1,0,0:0:0:0:
110,236,108796,2,0,L|103:327,1,80,2|2,3:2|0:0,0:0:0:0:
3,185,109171,1,8,0:0:0:0:
98,365,109358,1,2,0:0:0:0:
201,257,109546,6,0,P|198:217|180:180,1,80,2|2,3:2|0:0,0:0:0:0:
31,90,109921,2,0,P|66:107|108:110,1,80,8|2,0:0|0:0,0:0:0:0:
356,36,110296,2,0,P|277:35|212:85,1,160,0|8,3:0|0:0,0:0:0:0:
213,82,110858,1,2,0:0:0:0:
326,186,111046,6,0,L|308:264,1,80,0|0,3:0|0:0,0:0:0:0:
448,140,111421,2,0,L|430:218,1,80,0|2,1:0|0:0,0:0:0:0:
311,374,111796,1,2,0:0:0:0:
183,238,111983,1,0,0:0:0:0:
183,238,112077,1,0,0:0:0:0:
183,238,112171,2,0,P|142:253|99:258,1,80,2|0,1:2|0:0,0:0:0:0:
34,134,112546,5,6,0:0:0:0:
40,104,112639,1,0,0:0:0:0:
55,79,112733,1,2,0:0:0:0:
78,59,112827,1,6,0:0:0:0:
105,48,112921,1,0,0:0:0:0:
135,46,113014,1,2,0:0:0:0:
164,53,113108,1,6,0:0:0:0:
189,69,113202,1,2,0:0:0:0:
208,93,113296,6,0,L|245:106,1,40,6|0,1:2|0:0,0:0:0:0:
250,184,113483,2,0,L|289:176,1,40,4|0,3:0|0:0,0:0:0:0:
331,241,113671,2,0,L|361:215,1,40,0|0,3:0|0:0,0:0:0:0:
429,249,113858,2,0,L|442:211,1,40,4|0,3:0|0:0,0:0:0:0:
482,145,114046,6,0,L|482:65,1,80,4|2,0:0|0:0,0:0:0:0:
388,8,114421,1,8,0:0:0:0:
359,166,114608,1,2,0:0:0:0:
289,51,114796,1,0,3:0:0:0:
364,208,114983,1,2,0:0:0:0:
231,141,115171,1,8,0:0:0:0:
370,249,115358,1,2,0:0:0:0:
370,249,115452,1,0,0:0:0:0:
370,249,115546,6,0,P|409:253|448:264,1,80,0|2,3:0|0:0,0:0:0:0:
323,375,115921,2,0,P|283:369|244:360,1,80,8|2,0:0|0:0,0:0:0:0:
37,228,116296,2,0,P|96:233|146:265,1,120,0|0,3:0|0:0,0:0:0:0:
187,302,116671,2,0,L|179:222,1,80,8|2,0:0|0:0,0:0:0:0:
200,30,117046,5,0,3:0:0:0:
110,136,117233,1,2,0:0:0:0:
110,136,117327,1,0,0:0:0:0:
110,136,117421,2,0,P|71:131|32:120,1,80,8|2,0:0|0:0,0:0:0:0:
254,151,117796,1,0,1:0:0:0:
200,30,117983,1,2,0:0:0:0:
96,234,118171,1,8,0:0:0:0:
147,124,118358,1,2,0:0:0:0:
187,302,118546,5,0,3:0:0:0:
187,302,118733,1,2,0:0:0:0:
275,371,118921,1,2,0:0:0:0:
292,261,119108,1,2,0:0:0:0:
187,302,119296,5,2,0:0:0:0:
152,321,119389,1,0,0:0:0:0:
112,326,119483,1,2,0:0:0:0:
73,318,119577,1,0,0:0:0:0:
40,297,119671,1,2,3:2:0:0:
15,265,119764,1,0,0:0:0:0:
4,227,119858,1,2,0:0:0:0:
6,188,119952,1,0,0:0:0:0:
22,151,120046,6,0,P|61:145|100:134,1,80,4|2,0:0|0:0,0:0:0:0:
284,59,120421,1,8,0:0:0:0:
331,182,120608,1,2,0:0:0:0:
191,121,120796,2,0,P|179:82|173:43,1,80,0|2,3:2|0:0,0:0:0:0:
331,182,121171,2,0,P|342:220|348:259,1,80,8|2,0:0|0:0,0:0:0:0:
157,371,121546,6,0,P|100:373|56:325,1,120,0|0,3:0|0:0,0:0:0:0:
44,256,121921,1,8,0:0:0:0:
269,272,122108,1,2,0:0:0:0:
269,272,122202,1,2,0:0:0:0:
269,272,122296,2,0,L|359:258,1,80,0|2,3:0|0:0,0:0:0:0:
125,303,122671,1,8,0:0:0:0:
238,142,122858,1,2,0:0:0:0:
297,367,123046,5,4,0:0:0:0:
231,175,123233,2,0,L|152:162,1,80,0|8,0:0|0:0,0:0:0:0:
313,64,123608,1,2,0:0:0:0:
398,193,123796,1,2,3:2:0:0:
482,39,123983,1,2,0:0:0:0:
482,39,124077,1,2,0:0:0:0:
482,39,124171,1,8,0:0:0:0:
418,297,124358,1,2,0:0:0:0:
488,173,124546,6,0,L|484:133,1,40,6|2,1:2|0:0,0:0:0:0:
326,37,124733,2,0,L|330:76,1,40,2|2,1:2|0:0,0:0:0:0:
398,193,124921,6,0,L|387:154,1,40,2|2,1:2|0:0,0:0:0:0:
234,81,125108,2,0,L|244:119,1,40,2|2,1:2|0:0,0:0:0:0:
304,191,125296,5,6,0:0:0:0:
287,226,125389,1,0,0:0:0:0:
254,248,125483,1,2,1:2:0:0:
215,250,125577,1,0,1:0:0:0:
180,231,125671,1,4,1:2:0:0:
177,271,125764,1,0,0:0:0:0:
155,304,125858,1,2,1:2:0:0:
120,323,125952,1,0,0:0:0:0:
81,324,126046,6,0,L|-1:321,1,80,4|0,0:0|0:0,0:0:0:0:
180,231,126421,1,0,1:0:0:0:
180,231,126608,2,0,P|194:154|161:83,1,160,0|0,3:0|3:0,0:0:0:0:
26,38,127171,2,0,P|34:76|51:113,1,80,0|0,1:0|0:0,0:0:0:0:
108,168,127452,1,0,0:0:0:0:
108,168,127546,5,2,3:2:0:0:
228,149,127733,1,0,3:0:0:0:
348,133,127921,1,0,1:2:0:0:
147,259,128108,2,0,P|70:256|17:198,1,160,0|2,1:0|3:2,0:0:0:0:
261,240,128671,2,0,P|257:280|248:319,1,80,2|2,1:2|0:0,0:0:0:0:
407,375,129046,6,0,P|398:336|394:296,1,80,2|0,3:2|0:0,0:0:0:0:
475,118,129421,1,0,3:0:0:0:
377,192,129608,2,0,L|289:179,1,80,0|2,1:0|0:0,0:0:0:0:
408,9,129983,2,0,P|399:48|395:88,1,80,0|0,1:0|0:0,0:0:0:0:
475,266,130358,1,2,3:2:0:0:
287,177,130546,6,0,L|199:190,1,80,4|2,0:0|0:0,0:0:0:0:
133,324,130921,1,0,3:0:0:0:
259,261,131108,2,0,L|250:101,1,160,0|2,3:0|1:0,0:0:0:0:
256,64,131577,1,0,3:0:0:0:
256,64,131671,2,0,P|237:57|217:52,1,40,2|2,1:0|3:0,0:0:0:0:
159,134,131858,2,0,P|140:140|120:145,1,40,2|0,1:0|0:0,0:0:0:0:
18,99,132046,5,4,0:0:0:0:
65,256,132233,1,2,0:0:0:0:
159,134,132421,1,0,1:0:0:0:
53,343,132608,1,2,0:0:0:0:
53,343,132702,1,0,0:0:0:0:
53,343,132796,1,0,1:0:0:0:
235,275,132983,2,0,L|229:186,1,80,2|0,0:0|1:0,0:0:0:0:
92,5,133358,6,0,L|87:84,1,80,2|0,0:0|1:0,0:0:0:0:
235,41,133733,1,2,0:0:0:0:
140,226,133921,2,0,P|101:214|61:212,1,80,0|2,1:0|0:0,0:0:0:0:
61,212,134202,1,2,0:0:0:0:
61,212,134296,1,0,1:0:0:0:
273,276,134483,1,2,0:0:0:0:
117,343,134671,1,0,1:0:0:0:
329,200,134858,5,2,0:0:0:0:
329,200,134952,1,2,0:0:0:0:
329,200,135046,2,0,P|386:211|437:188,1,80,4|0,0:0|0:0,0:0:0:0:
439,180,135327,1,0,1:2:0:0:
460,143,135421,2,0,L|475:52,1,80,0|2,3:0|1:2,0:0:0:0:
193,148,135796,6,0,P|136:158|85:135,1,80,6|0,1:2|0:2,0:0:0:0:
80,130,136077,1,2,1:2:0:0:
64,91,136171,2,0,L|49:0,1,80,0|2,3:0|1:2,0:0:0:0:
154,57,136546,5,6,1:2:0:0:
378,75,137296,6,0,B|328:80|328:80|305:92|305:92|237:100,1,128,6|2,0:0|0:0,0:0:0:0:
154,57,137858,1,0,0:0:0:0:
139,159,138046,6,0,P|127:197|124:237,1,80,4|0,0:0|0:0,0:0:0:0:
313,369,138421,2,0,P|286:341|253:318,1,80,12|2,0:0|0:0,0:0:0:0:
23,350,138796,2,0,L|157:321,1,120,0|0,1:0|0:0,0:0:0:0:
198,263,139171,2,0,L|236:177,1,80,8|2,0:0|0:0,0:0:0:0:
156,39,139546,5,4,0:0:0:0:
88,131,139733,1,2,0:0:0:0:
24,1,139921,1,8,0:0:0:0:
179,126,140108,1,2,0:0:0:0:
179,126,140202,1,0,0:0:0:0:
179,126,140296,1,0,1:0:0:0:
6,222,140483,1,2,0:0:0:0:
103,105,140671,2,0,P|142:108|178:125,1,80,8|2,0:0|0:0,0:0:0:0:
348,277,141046,5,4,0:0:0:0:
324,119,141233,1,0,0:0:0:0:
216,202,141421,1,8,0:0:0:0:
317,9,141608,1,2,0:0:0:0:
317,9,141702,1,2,0:0:0:0:
317,9,141796,1,2,1:2:0:0:
418,116,141983,1,0,0:0:0:0:
418,116,142077,1,2,0:0:0:0:
418,116,142171,2,0,L|410:195,1,80,10|2,0:0|0:0,0:0:0:0:
260,360,142546,6,0,L|252:280,1,80,4|2,0:0|0:0,0:0:0:0:
131,62,142921,2,0,L|123:141,1,80,10|2,0:2|0:0,0:0:0:0:
86,205,143202,1,0,0:0:0:0:
86,205,143296,2,0,L|24:194,1,40,2|0,3:2|0:0,0:0:0:0:
9,327,143483,2,0,L|48:320,1,40,2|0,0:0|0:0,0:0:0:0:
184,275,143671,1,10,0:0:0:0:
209,317,143764,1,0,0:0:0:0:
253,339,143858,1,2,0:0:0:0:
302,334,143952,1,2,0:0:0:0:
341,303,144046,6,0,P|379:292|418:284,1,80,6|0,0:0|0:0,0:0:0:0:
481,197,144421,1,8,0:0:0:0:
257,180,144608,1,2,0:0:0:0:
257,180,144702,1,0,0:0:0:0:
257,180,144796,2,0,L|264:259,1,80,0|2,3:2|0:0,0:0:0:0:
378,61,145171,2,0,L|370:140,1,80,8|2,0:0|0:0,0:0:0:0:
264,259,145546,6,0,P|203:252|157:215,1,120,4|0,0:0|0:0,0:0:0:0:
150,138,145921,2,0,P|189:145|222:170,1,80,8|2,0:0|0:0,0:0:0:0:
347,320,146296,2,0,P|320:349|281:366,1,80,0|2,1:2|0:0,0:0:0:0:
214,338,146577,1,0,0:0:0:0:
214,338,146671,1,8,0:0:0:0:
357,220,146858,1,2,0:0:0:0:
131,147,147046,5,2,1:2:0:0:
131,147,147233,1,0,1:0:0:0:
387,96,147421,1,0,1:0:0:0:
387,96,147608,1,2,1:2:0:0:
218,182,147796,1,2,1:2:0:0:
272,29,147983,1,2,1:2:0:0:
328,239,148171,1,0,1:0:0:0:
269,116,148358,1,2,1:2:0:0:
402,21,148546,5,6,1:2:0:0:
416,50,148639,1,2,0:0:0:0:
430,79,148733,2,0,L|487:73,1,40,2|6,0:0|1:2,0:0:0:0:
360,120,148921,5,2,0:0:0:0:
374,149,149014,1,2,0:0:0:0:
388,178,149108,2,0,L|445:172,1,40,6|2,1:2|0:0,0:0:0:0:
498,227,149296,5,6,1:2:0:0:
485,265,149389,1,2,0:0:0:0:
481,305,149483,1,2,0:0:0:0:
476,345,149577,1,6,1:2:0:0:
452,371,149671,1,2,0:0:0:0:
413,378,149764,1,2,0:0:0:0:
374,373,149858,1,6,1:2:0:0:
340,352,149952,1,2,0:0:0:0:
313,319,150046,6,0,P|235:315|170:359,1,160,6|8,0:0|0:0,0:0:0:0:
29,233,150608,1,2,0:0:0:0:
29,233,150702,1,0,0:0:0:0:
29,233,150796,2,0,P|68:230|105:215,1,80,6|2,1:2|0:0,0:0:0:0:
203,120,151171,1,8,0:0:0:0:
257,263,151358,1,2,0:0:0:0:
351,167,151546,5,6,0:0:0:0:
271,369,151733,1,2,0:0:0:0:
487,241,151921,2,0,P|448:240|410:251,1,80,8|2,0:0|0:0,0:0:0:0:
335,279,152202,1,0,0:0:0:0:
335,279,152296,2,0,L|239:259,1,80,2|2,1:2|0:0,0:0:0:0:
465,333,152671,1,10,1:2:0:0:
351,167,152858,1,2,0:0:0:0:
512,58,153046,6,0,P|453:65|406:30,1,120,4|0,0:0|0:0,0:0:0:0:
380,53,153421,2,0,P|340:45|301:41,1,80,8|2,0:0|0:0,0:0:0:0:
84,125,153796,2,0,P|123:132|162:136,1,80,6|0,1:2|0:0,0:0:0:0:
236,113,154077,1,2,0:0:0:0:
236,113,154171,1,8,0:0:0:0:
366,223,154358,1,2,0:0:0:0:
203,332,154546,5,4,0:0:0:0:
285,266,154733,1,2,0:0:0:0:
300,371,154921,1,2,0:0:0:0:
201,325,155108,2,0,P|146:327|95:349,1,111.999996582031,2|0,0:0|1:0,0:0:0:0:
55,341,155577,5,0,0:0:0:0:
25,314,155671,1,2,1:2:0:0:
9,277,155764,1,0,0:0:0:0:
10,238,155858,1,2,1:2:0:0:
26,201,155952,1,0,0:0:0:0:
55,175,156046,6,0,P|94:187|133:189,1,80,6|0,0:0|0:0,0:0:0:0:
279,107,156421,1,2,3:2:0:0:
134,21,156608,2,0,B|75:3|75:3|24:13|2:86,1,160,0|0,1:0|1:0,0:0:0:0:
184,181,157171,1,2,3:0:0:0:
134,21,157358,1,2,3:2:0:0:
313,173,157546,5,6,1:2:0:0:
184,100,157733,1,0,1:0:0:0:
256,319,157921,1,2,1:2:0:0:
385,218,158108,2,0,P|393:179|390:139,1,80,6|0,0:0|0:0,0:0:0:0:
250,240,158483,1,0,1:0:0:0:
183,99,158671,2,0,P|175:60|177:21,1,80,2|0,1:2|0:0,0:0:0:0:
182,197,159046,6,0,L|81:178,1,80,4|0,0:0|0:0,0:0:0:0:
107,95,159327,2,0,L|185:109,1,80,4|0,0:0|0:0,0:0:0:0:
263,146,159608,1,4,0:0:0:0:
151,332,159796,6,0,L|49:312,1,80,0|2,1:0|0:0,0:0:0:0:
76,230,160077,2,0,L|154:244,1,80,0|0,1:0|0:0,0:0:0:0:
231,280,160358,1,6,1:2:0:0:
15,381,160546,5,4,1:2:0:0:
64,233,160733,1,0,1:0:0:0:
161,353,160921,1,2,1:2:0:0:
187,152,161108,1,2,1:2:0:0:
294,329,161296,1,6,1:2:0:0:
326,97,161483,5,0,1:0:0:0:
326,97,161577,1,0,0:0:0:0:
326,97,161671,2,0,P|334:51|334:30,1,40,2|0,1:2|0:0,0:0:0:0:
207,3,161858,2,0,P|203:22|200:42,1,40,2|0,1:2|0:0,0:0:0:0:
300,183,162046,6,0,P|339:181|377:170,1,80,6|0,1:0|0:0,0:0:0:0:
428,113,162327,1,2,1:0:0:0:
428,113,162421,2,0,L|446:32,1,80,0|2,0:0|1:0,0:0:0:0:
508,287,162796,2,0,L|382:269,1,120,2|2,1:0|1:0,0:0:0:0:
352,292,163171,1,2,1:0:0:0:
256,379,163358,1,2,1:0:0:0:
55,302,163546,6,0,P|133:307|198:263,1,160,2|0,1:0|1:0,0:0:0:0:
240,118,164108,1,0,0:0:0:0:
109,227,164296,1,0,3:0:0:0:
283,328,164483,2,0,P|292:289|295:249,1,80,2|0,1:0|0:0,0:0:0:0:
221,88,164858,5,2,1:0:0:0:
221,88,164952,1,0,0:0:0:0:
221,88,165046,2,0,L|142:72,1,80,2|0,1:0|0:0,0:0:0:0:
30,211,165421,2,0,L|108:226,1,80,0|2,1:0|1:0,0:0:0:0:
304,159,165796,2,0,P|265:164|228:180,1,80,2|2,1:0|1:0,0:0:0:0:
220,189,166046,2,0,L|191:176,1,26.6666666666667
220,201,166171,2,0,P|210:239|207:279,1,80,2|2,1:0|1:0,0:0:0:0:
436,374,166546,5,2,1:0:0:0:
332,292,166733,1,2,3:2:0:0:
453,237,166921,1,2,1:0:0:0:
343,161,167108,1,2,3:2:0:0:
455,78,167296,2,0,P|400:72|367:55,1,80,2|2,1:0|3:2,0:0:0:0:
350,31,167577,1,0,0:0:0:0:
350,31,167671,2,0,L|310:36,1,40,2|0,1:0|0:0,0:0:0:0:
207,104,167858,2,0,L|167:98,1,40,2|0,3:2|0:0,0:0:0:0:
61,30,168046,6,0,B|16:62|16:62|-2:117|48:173,1,160,6|0,1:0|1:0,0:0:0:0:
158,324,168608,1,2,1:0:0:0:
158,324,168702,1,0,0:0:0:0:
158,323,168796,2,0,P|170:285|175:245,1,80,0|0,1:0|0:0,0:0:0:0:
140,179,169077,2,0,L|135:139,1,40,2|0,1:0|1:0,0:0:0:0:
171,368,169358,1,2,1:0:0:0:
2,200,169546,6,0,P|66:155|140:179,1,160,2|0,1:0|1:0,0:0:0:0:
365,218,170108,1,2,1:0:0:0:
192,288,170296,1,0,1:0:0:0:
256,149,170483,1,0,0:0:0:0:
262,122,170577,1,2,1:0:0:0:
269,94,170671,2,0,L|271:7,1,80,0|2,1:0|1:0,0:0:0:0:
365,218,171046,5,2,1:0:0:0:
141,179,171233,1,2,3:2:0:0:
269,94,171421,1,2,1:0:0:0:
231,297,171608,1,2,3:2:0:0:
277,57,171796,1,2,1:0:0:0:
405,197,171983,1,2,1:0:0:0:
405,197,172077,2,0,L|451:191,1,40,0|0,1:0|1:0,0:0:0:0:
224,324,172358,1,2,1:0:0:0:
441,372,172546,5,2,1:2:0:0:
467,359,172639,1,0,0:0:0:0:
489,338,172733,1,2,1:2:0:0:
503,312,172827,1,2,0:0:0:0:
508,282,172921,1,2,1:2:0:0:
504,253,173014,1,0,3:0:0:0:
491,226,173108,1,2,1:2:0:0:
470,204,173202,1,0,3:0:0:0:
444,190,173296,6,0,L|438:110,1,80,2|0,1:0|3:0,0:0:0:0:
399,46,173577,1,2,1:0:0:0:
399,46,173671,2,0,L|366:3,1,40,0|0,1:0|0:0,0:0:0:0:
275,103,173858,2,0,L|238:84,1,40,2|2,1:0|0:0,0:0:0:0:
153,184,174046,6,0,L|91:190,3,40,6|0|0|2,1:2|0:0|1:0|1:0,0:0:0:0:
50,135,174421,2,0,P|42:153|36:171,1,40,2|0,1:0|0:0,0:0:0:0:
141,274,174608,2,0,L|180:270,1,40,2|0,1:0|0:0,0:0:0:0:
243,322,174796,1,6,1:2:0:0:
243,322,174889,1,0,3:0:0:0:
243,322,174983,2,0,P|251:303|257:285,1,40,2|0,1:0|0:0,0:0:0:0:
251,139,175171,2,0,L|256:178,1,40,2|0,1:0|0:0,0:0:0:0:
340,319,175358,2,0,L|345:279,1,40,2|0,1:0|0:0,0:0:0:0:
375,182,175546,6,0,P|394:181|414:177,3,40,6|0|0|2,1:0|0:0|1:0|1:0,0:0:0:0:
512,262,175921,2,0,P|492:257|472:256,1,40,2|0,1:0|0:0,0:0:0:0:
344,279,176108,2,0,L|347:318,1,40,2|0,1:0|0:0,0:0:0:0:
260,309,176296,1,2,1:0:0:0:
260,309,176389,1,0,0:0:0:0:
260,309,176483,2,0,L|250:347,1,40,2|0,1:0|0:0,0:0:0:0:
173,313,176671,2,0,L|137:330,1,40,2|0,1:0|0:0,0:0:0:0:
64,271,176858,5,2,1:0:0:0:
64,271,176952,1,2,1:0:0:0:
64,271,177046,2,0,P|54:229|51:210,1,40,6|0,1:0|0:0,0:0:0:0:
196,100,177233,2,0,P|201:119|205:138,1,40,2|0,1:0|0:0,0:0:0:0:
133,223,177421,2,0,P|123:181|120:162,1,40,2|0,1:0|0:0,0:0:0:0:
120,81,177608,5,2,1:0:0:0:
137,45,177702,1,0,0:0:0:0:
169,22,177796,1,2,1:0:0:0:
209,21,177889,1,0,0:0:0:0:
245,38,177983,2,0,L|303:31,1,40,2|0,1:0|0:0,0:0:0:0:
317,115,178171,2,0,L|361:84,1,40,2|0,1:0|0:0,0:0:0:0:
425,144,178358,2,0,L|443:91,1,40,2|2,1:0|1:0,0:0:0:0:
317,115,178546,6,0,L|283:112,4,26.6666666666667,6|0|0|0|0,1:0|0:0|0:0|0:0|0:0,0:0:0:0:
268,231,178921,6,0,L|232:261,4,26.6666666666667,2|0|0|0|0,1:0|0:0|0:0|0:0|0:0,0:0:0:0:
338,326,179296,6,0,L|338:373,4,26.6666666666667,2|0|0|0|0,1:0|0:0|0:0|0:0|0:0,0:0:0:0:
430,328,179671,6,0,P|471:329|508:313,1,80,2|2,1:0|1:0,0:0:0:0:
458,251,179952,1,2,1:0:0:0:
458,251,180046,6,0,P|400:251|355:289,1,120,6|0,1:0|0:0,0:0:0:0:
338,326,180421,1,2,1:0:0:0:
157,249,180608,1,2,1:0:0:0:
242,324,180796,2,0,L|256:195,1,120,2|0,1:0|3:0,0:0:0:0:
220,167,181171,2,0,P|181:146|135:150,1,80,2|2,1:0|1:0,0:0:0:0:
232,334,181546,5,2,1:0:0:0:
270,107,181733,1,0,3:0:0:0:
157,249,181921,1,2,1:0:0:0:
366,188,182108,1,2,1:0:0:0:
366,188,182296,2,0,P|392:125|377:41,1,120,2|2,1:0|1:0,0:0:0:0:
331,2,182671,1,0,1:0:0:0:
373,207,182858,1,2,1:0:0:0:
481,58,183046,5,4,0:0:0:0:
205,192,183327,1,4,0:0:0:0:
487,320,183608,1,2,1:0:0:0:
487,320,183796,5,4,0:0:0:0:
152,192,184077,1,4,0:0:0:0:
481,58,184358,1,4,0:0:0:0:
256,192,184546,5,6,1:0:0:0:
279,238,184639,1,0,3:0:0:0:
270,289,184733,1,2,1:0:0:0:
247,337,184827,1,0,3:0:0:0:
257,384,184921,1,2,1:0:0:0:
225,344,185014,1,0,3:0:0:0:
174,330,185108,1,2,1:0:0:0:
123,342,185202,1,0,3:0:0:0:
81,374,185296,6,0,L|41:380,1,40,6|0,1:2|3:0,0:0:0:0:
82,275,185483,2,0,L|42:281,1,40,2|0,1:0|3:0,0:0:0:0:
83,176,185671,2,0,L|43:182,1,40,2|0,1:0|3:0,0:0:0:0:
84,77,185858,2,0,L|44:83,1,40,0|0,1:0|1:3,0:0:0:0:
44,82,187546,6,0,P|83:80|123:73,1,80,2|2,0:0|0:0,0:0:0:0:
300,166,188296,2,0,P|260:167|220:174,1,80,2|2,0:0|0:0,0:0:0:0:
107,253,189046,5,2,0:0:0:0:
107,253,189608,2,0,L|115:347,1,80,2|2,0:0|0:0,0:0:0:0:
189,305,190171,2,0,L|185:265,1,40,2|0,0:0|0:0,0:0:0:0:
125,156,190546,6,0,P|176:169|249:178,1,120,2|2,0:0|0:0,0:0:0:0:
241,19,191671,2,0,P|259:39|281:53,1,40,2|0,0:0|0:0,0:0:0:0:
355,68,192046,6,0,L|436:57,1,80,2|2,0:0|0:0,0:0:0:0:
217,198,192796,2,0,L|298:187,1,80,2|2,0:0|0:0,0:0:0:0:
424,253,193546,6,0,P|415:292|409:331,1,80,4|0,0:0|0:0,0:0:0:0:
460,126,193921,1,0,1:0:0:0:
296,187,194108,1,0,0:0:0:0:
296,187,194202,1,0,0:0:0:0:
296,187,194296,2,0,L|202:167,1,80,0|0,3:0|0:0,0:0:0:0:
425,55,194671,2,0,L|331:75,1,80,0|2,1:0|0:0,0:0:0:0:
168,90,195046,6,0,P|108:98|57:67,1,120,4|0,0:0|0:0,0:0:0:0:
28,37,195421,1,0,1:0:0:0:
103,231,195608,1,2,0:0:0:0:
252,131,195796,2,0,P|259:92|263:52,1,80,4|2,0:0|0:0,0:0:0:0:
227,22,196077,1,0,0:0:0:0:
227,22,196171,1,0,1:0:0:0:
321,183,196358,1,2,0:0:0:0:
413,23,196546,5,4,0:0:0:0:
288,92,196733,1,2,1:2:0:0:
458,176,196921,1,0,1:0:0:0:
260,93,197108,1,2,1:2:0:0:
383,111,197296,5,4,0:0:0:0:
298,264,197483,1,2,1:2:0:0:
170,158,197671,1,0,1:0:0:0:
391,230,197858,1,2,1:2:0:0:
256,348,198046,5,4,0:0:0:0:
139,232,198233,1,0,1:0:0:0:
139,232,198327,1,0,0:0:0:0:
139,232,198421,1,4,0:0:0:0:
370,144,198608,1,0,1:0:0:0:
370,144,198702,1,0,0:0:0:0:
370,144,198796,1,6,0:0:0:0:
109,35,198983,1,0,1:3:0:0:
109,35,199077,1,0,0:0:0:0:
109,35,199171,1,6,1:0:0:0:
265,207,199358,1,0,1:0:0:0:
252,18,199546,5,2,0:0:0:0:
253,23,199733,1,2,0:0:0:0:
254,28,199921,1,2,0:0:0:0:
255,33,200108,1,2,0:0:0:0:
256,38,200296,2,0,L|249:104,1,55.9999982910157,2|0,0:0|0:0,0:0:0:0:
174,178,200671,2,0,P|146:174|119:165,1,55.9999982910157,2|0,0:0|0:0,0:0:0:0:
82,52,201046,5,2,0:0:0:0:
82,52,201233,2,0,P|109:55|136:64,2,55.9999982910157,2|2|2,0:0|0:0|0:0,0:0:0:0:
27,109,201796,1,2,0:0:0:0:
10,186,201983,1,2,0:0:0:0:
55,250,202171,1,2,0:0:0:0:
133,262,202358,1,2,0:0:0:0:
198,218,202546,5,2,0:0:0:0:
198,218,202921,2,0,L|191:152,1,55.9999982910157,2|2,0:0|0:0,0:0:0:0:
318,57,203296,2,0,L|312:112,1,55.9999982910157,2|2,0:0|0:0,0:0:0:0:
354,209,203671,2,0,P|381:202|408:198,1,55.9999982910157,2|2,0:0|0:0,0:0:0:0:
494,266,204046,5,2,0:0:0:0:
471,340,204233,1,2,0:0:0:0:
400,374,204421,1,2,0:0:0:0:
329,351,204608,1,2,0:0:0:0:
288,283,204796,1,2,0:0:0:0:
286,277,204983,1,2,0:0:0:0:
284,271,205171,1,2,0:0:0:0:
478,101,205546,6,0,P|424:117|369:124,1,111.999996582031,2|2,3:2|0:0,0:0:0:0:
259,97,206108,2,0,L|255:41,1,55.9999982910157,2|2,0:0|0:0,0:0:0:0:
348,96,206483,1,2,0:0:0:0:
233,166,206671,2,0,L|229:110,1,55.9999982910157,2|2,0:0|0:0,0:0:0:0:
159,33,207046,5,2,3:2:0:0:
59,7,207233,1,2,0:0:0:0:
4,96,207421,1,2,0:0:0:0:
65,180,207608,1,2,0:0:0:0:
65,180,207796,2,0,L|54:253,1,55.9999982910157,2|0,0:0|0:0,0:0:0:0:
131,315,208171,2,0,L|120:388,1,55.9999982910157,0|2,0:0|0:0,0:0:0:0:
149,220,208546,6,0,P|204:218|255:239,1,111.999996582031,2|2,0:0|0:0,0:0:0:0:
380,345,209108,1,2,0:0:0:0:
380,345,209296,2,0,P|352:338|326:327,1,55.9999982910157,2|2,0:0|0:0,0:0:0:0:
361,238,209671,2,0,P|349:212|343:185,1,55.9999982910157,2|2,0:0|0:0,0:0:0:0:
358,59,210046,6,0,L|473:36,1,111.999996582031,2|2,0:0|0:0,0:0:0:0:
494,164,210608,6,0,B|456:159|428:142|428:142|402:192|343:185|343:185|359:249|307:280,1,279.999991455078,2|2,0:0|0:0,0:0:0:0:
294,294,212296,6,0,L|209:281,1,80,4|0,0:0|0:0,0:0:0:0:
43,171,212671,2,0,P|83:169|122:160,1,80,8|2,0:0|0:0,0:0:0:0:
211,54,213046,1,4,0:0:0:0:
271,211,213233,1,0,0:0:0:0:
271,211,213327,1,0,0:0:0:0:
271,211,213421,1,8,0:0:0:0:
393,140,213608,1,2,0:0:0:0:
336,332,213796,5,6,0:0:0:0:
256,192,213983,1,2,0:0:0:0:
256,192,214077,1,0,0:0:0:0:
256,192,214171,2,0,P|252:153|258:114,1,80,8|2,0:0|0:0,0:0:0:0:
444,20,214546,2,0,P|450:59|444:98,1,80,6|2,0:0|0:0,0:0:0:0:
298,33,214921,1,12,0:2:0:0:
379,219,215108,1,2,0:0:0:0:
123,160,215296,6,0,B|201:140|201:140|249:151|263:210,1,160,6|8,0:0|0:0,0:0:0:0:
125,329,215858,1,2,0:0:0:0:
125,329,215952,1,0,0:0:0:0:
125,329,216046,2,0,L|44:315,1,80,6|2,0:0|0:0,0:0:0:0:
185,221,216421,1,8,0:0:0:0:
270,381,216608,1,2,0:0:0:0:
24,335,216796,5,6,0:0:0:0:
195,200,216983,1,4,1:2:0:0:
48,35,217171,1,4,1:0:0:0:
278,67,217358,2,0,P|201:87|122:98,1,160,4|0,0:0|1:0,0:0:0:0:
122,98,217827,1,0,0:0:0:0:
122,98,217921,1,8,0:0:0:0:
6,242,218108,1,0,3:0:0:0:
6,242,218202,1,0,0:0:0:0:
6,242,218296,6,0,P|46:233|91:226,1,80,4|0,0:0|0:0,0:0:0:0:
268,147,218671,2,0,L|278:67,1,80,8|0,0:0|0:0,0:0:0:0:
168,176,219046,1,0,3:0:0:0:
326,228,219233,1,2,0:0:0:0:
468,145,219421,2,0,P|428:136|383:129,1,80,10|2,0:0|0:0,0:0:0:0:
252,34,219796,5,4,0:0:0:0:
345,238,219983,1,0,0:0:0:0:
345,238,220077,1,0,0:0:0:0:
345,238,220171,1,8,0:0:0:0:
187,182,220358,1,2,0:0:0:0:
407,135,220546,2,0,P|368:145|329:152,1,80,6|0,0:0|0:0,0:0:0:0:
106,250,220921,2,0,P|144:240|184:233,1,80,8|0,0:0|0:0,0:0:0:0:
266,334,221296,5,6,0:0:0:0:
245,49,221483,1,0,1:0:0:0:
288,270,221671,1,0,1:0:0:0:
223,113,221858,1,6,0:0:0:0:
337,224,222046,1,0,1:0:0:0:
174,159,222233,1,0,1:0:0:0:
403,206,222421,1,6,0:0:0:0:
108,177,222608,1,4,0:0:0:0:
257,11,222796,5,6,0:0:0:0:
257,373,223077,2,0,L|257:310,1,40,0|0,1:0|1:0,0:0:0:0:
256,192,223358,1,0,1:0:0:0:
338,305,223546,6,0,L|402:290,1,40,6|0,1:2|0:0,0:0:0:0:
490,184,223733,2,0,L|451:193,1,40,0|0,1:0|0:0,0:0:0:0:
270,136,223921,2,0,L|334:121,1,40,2|0,1:2|0:0,0:0:0:0:
486,25,224108,2,0,L|447:34,1,40,2|2,1:2|0:0,0:0:0:0:
265,49,224296,6,0,L|256:10,3,40,6|0|2|2,1:0|0:0|1:0|1:0,0:0:0:0:
188,140,224671,2,0,L|157:107,3,40,2|0|2|0,1:0|0:0|1:0|0:0,0:0:0:0:
126,86,225046,1,2,1:0:0:0:
86,90,225139,1,0,0:0:0:0:
51,109,225233,1,2,1:0:0:0:
26,141,225327,1,2,1:0:0:0:
16,178,225421,1,2,1:0:0:0:
19,219,225514,1,0,0:0:0:0:
37,253,225608,1,2,1:0:0:0:
68,279,225702,1,0,0:0:0:0:
106,290,225796,6,0,P|145:283|185:279,1,80,6|0,1:0|0:0,0:0:0:0:
411,305,226171,1,8,0:0:0:0:
291,381,226358,1,0,0:0:0:0:
291,381,226452,1,0,0:0:0:0:
291,381,226546,2,0,L|281:261,1,120,2|2,1:0|1:0,0:0:0:0:
228,205,226921,2,0,L|235:125,1,80,8|2,0:0|1:0,0:0:0:0:
332,28,227296,5,2,1:0:0:0:
343,53,227389,1,0,0:0:0:0:
354,78,227483,2,0,L|421:70,1,40,2|0,1:0|0:0,0:0:0:0:
500,126,227671,5,8,0:0:0:0:
489,151,227764,1,0,0:0:0:0:
478,176,227858,2,0,L|438:180,1,40,2|2,1:0|1:0,0:0:0:0:
370,249,228046,6,0,P|371:288|380:327,1,80,2|0,1:0|0:0,0:0:0:0:
414,359,228327,1,2,1:0:0:0:
414,359,228421,2,0,L|494:339,1,80,8|2,0:0|1:0,0:0:0:0:
405,172,228796,6,0,P|351:169|287:235,1,120,6|0,1:0|0:0,0:0:0:0:
257,274,229171,1,8,0:0:0:0:
278,81,229358,1,0,0:0:0:0:
253,298,229546,1,2,1:0:0:0:
168,188,229733,1,0,3:0:0:0:
370,249,229921,1,8,0:0:0:0:
212,368,230108,5,2,1:0:0:0:
212,368,230202,1,0,0:0:0:0:
212,368,230296,2,0,P|154:370|110:332,1,120,2|2,1:0|1:0,0:0:0:0:
64,257,230671,1,0,3:0:0:0:
182,77,230858,2,0,L|174:156,1,80,2|2,1:0|1:0,0:0:0:0:
181,233,231139,2,0,L|188:273,1,40,2|0,1:0|0:0,0:0:0:0:
147,33,231421,1,2,1:0:0:0:
265,132,231608,1,2,1:0:0:0:
22,154,231796,6,0,P|61:154|101:135,1,80,2|0,1:0|0:0,0:0:0:0:
133,70,232077,2,0,L|151:21,1,40,2|2,1:0|1:0,0:0:0:0:
318,211,232358,2,0,P|278:210|239:230,1,80,2|0,1:0|3:0,0:0:0:0:
208,296,232639,2,0,L|190:345,1,40,2|2,1:0|1:0,0:0:0:0:
435,293,232921,5,2,1:0:0:0:
472,260,233014,1,0,0:0:0:0:
489,214,233108,1,2,1:0:0:0:
482,165,233202,1,0,0:0:0:0:
451,126,233296,6,0,P|412:119|377:101,1,80,2|0,1:0|0:0,0:0:0:0:
329,42,233577,1,2,1:0:0:0:
329,42,233671,1,0,1:0:0:0:
392,208,233858,1,2,1:0:0:0:
180,282,234046,1,2,1:0:0:0:
279,162,234233,1,0,3:0:0:0:
270,188,234327,1,0,0:0:0:0:
261,214,234421,2,0,L|270:306,1,80,2|2,1:0|1:0,0:0:0:0:
88,364,234796,5,6,1:2:0:0:
62,328,234889,1,0,0:0:0:0:
68,284,234983,2,0,L|117:271,1,40,2|2,0:0|0:0,0:0:0:0:
185,238,235171,5,2,1:2:0:0:
211,199,235264,1,0,0:0:0:0:
196,155,235358,2,0,L|194:105,1,40,2|2,0:0|0:0,0:0:0:0:
261,41,235546,5,6,1:0:0:0:
292,75,235639,1,0,0:0:0:0:
293,123,235733,2,0,L|294:162,1,40,2|2,0:0|0:0,0:0:0:0:
331,264,235921,5,2,1:0:0:0:
370,293,236014,1,0,0:0:0:0:
419,298,236108,1,2,0:0:0:0:
463,276,236202,1,2,0:0:0:0:
488,234,236296,5,6,0:0:0:0:
357,104,237046,1,2,0:0:0:0:
237,247,237796,1,2,0:0:0:0:
172,73,239296,5,2,0:0:0:0:
237,247,240046,1,2,0:0:0:0:
357,104,240796,1,2,0:0:0:0:
172,73,241546,1,2,0:0:0:0:
172,73,242296,5,0,1:0:0:0:
172,73,242483,2,0,P|138:82|102:89,1,71.9999978027344,0|0,0:0|1:0,0:0:0:0:
19,235,242858,2,0,L|161:211,1,143.999995605469,0|0,3:0|0:0,0:0:0:0:
331,270,243421,2,0,L|323:341,1,71.9999978027344,2|2,1:2|0:0,0:0:0:0:
253,161,243796,5,2,3:2:0:0:
331,270,243983,1,0,0:0:0:0:
189,302,244171,1,0,1:0:0:0:
218,84,244358,2,0,P|288:86|335:138,1,143.999995605469,0|0,3:0|0:0,0:0:0:0:
487,201,244921,2,0,P|442:210|404:215,1,71.9999978027344,0|2,1:0|0:0,0:0:0:0:
253,161,245296,6,0,L|246:6,1,143.999995605469,4|0,0:0|1:0,0:0:0:0:
106,174,245858,2,0,L|112:317,1,143.999995605469,2|0,1:2|3:0,0:0:0:0:
315,368,246421,1,0,1:0:0:0:
195,243,246608,1,2,0:0:0:0:
363,141,246796,5,2,3:2:0:0:
241,265,246983,1,0,0:0:0:0:
174,104,247171,1,2,3:2:0:0:
366,168,247358,1,0,0:0:0:0:
217,257,247546,1,2,3:2:0:0:
193,84,247733,1,0,0:0:0:0:
363,196,247921,1,2,1:2:0:0:
195,243,248108,1,2,0:0:0:0:
314,54,248296,5,2,3:2:0:0:
320,62,249733,6,0,L|318:77,2,11.9999996337891,2|2|2,0:0|0:0|0:0,0:0:0:0:
