osu file format v14

[General]
AudioFilename: audio.mp3
AudioLeadIn: 0
PreviewTime: 137577
Countdown: 0
SampleSet: Soft
StackLeniency: 0.7
Mode: 0
LetterboxInBreaks: 0
WidescreenStoryboard: 0

[Editor]
DistanceSpacing: 1.4
BeatDivisor: 4
GridSize: 32
TimelineZoom: 2.1

[Metadata]
Title:Sasayaku, Kiekaketa Kouishou ga.
TitleUnicode:ささやく、消えかけた後遺症が。
Artist:senya
ArtistUnicode:senya
Creator:Satellite
Version:Satellite
Source:東方地霊殿 ~ Subterranean Animism.
Tags:yuuhei 幽閉サテライト touhou project 東方プロジェクト 東方名華祭13 ラストリモート last remote ハルトマンの妖怪少女 hartmann's youkai girl かませ虎 kamase-tora HiZuMi 神奈森ユウ video game japanese Affirmation Neoskylove Morinaga Dailycare pyrowar56 ponpokorin vikala toybot dagger-gazel
BeatmapID:2201688
BeatmapSetID:1053613

[Difficulty]
HPDrainRate:6
CircleSize:4
OverallDifficulty:8.5
ApproachRate:9
SliderMultiplier:1.9
SliderTickRate:1

[Events]
//Background and Video events
0,0,"bgggg.jpg",0,0
//Break Periods
//Storyboard Layer 0 (Background)
//Storyboard Layer 1 (Fail)
//Storyboard Layer 2 (Pass)
//Storyboard Layer 3 (Foreground)
//Storyboard Layer 4 (Overlay)
//Storyboard Sound Samples

[TimingPoints]
1546,375,4,2,1,60,1,0
1546,-200,4,2,1,60,0,0
2296,-200,4,2,1,40,0,0
2671,-200,4,2,1,50,0,0
2858,-200,4,2,1,65,0,0
3046,-200,4,2,1,60,0,0
3796,-200,4,2,1,40,0,0
4546,-200,4,2,1,60,0,0
5296,-200,4,2,1,40,0,0
5577,-200,4,2,1,50,0,0
6046,-200,4,2,1,60,0,0
7546,-142.857142857143,4,2,1,70,0,0
9046,-125,4,2,1,60,0,0
10546,-166.666666666666,4,2,1,60,0,0
12608,-100,4,2,1,50,0,0
12702,-100,4,2,1,55,0,0
12796,-100,4,2,1,60,0,0
12983,-100,4,2,1,65,0,0
13171,-83.3333333333333,4,2,1,70,0,0
13358,-83.3333333333333,4,2,1,75,0,0
13546,-100,4,2,1,75,0,0
13827,-100,4,2,1,5,0,0
13921,-100,4,2,1,70,0,0
17858,-100,4,2,1,60,0,0
18046,-100,4,2,1,70,0,0
21796,-100,4,2,1,40,0,0
21983,-100,4,2,1,70,0,0
23014,-100,4,2,1,5,0,0
23108,-100,4,2,1,70,0,0
23202,-100,4,2,1,5,0,0
23296,-100,4,2,1,70,0,0
23764,-100,4,2,1,5,0,0
23858,-100,4,2,1,70,0,0
26671,-142.857142857143,4,2,1,60,0,0
27046,-125,4,2,1,50,0,0
27233,-125,4,2,1,60,0,0
33046,-125,4,2,1,50,0,0
33233,-125,4,2,1,60,0,0
34546,-125,4,2,1,50,0,0
34733,-125,4,2,1,60,0,0
35108,-125,4,2,1,70,0,0
35296,-125,4,2,1,60,0,0
35671,-125,4,2,1,55,0,0
35858,-125,4,2,1,50,0,0
36046,-125,4,2,1,60,0,0
36421,-125,4,2,1,50,0,0
36796,-125,4,2,1,60,0,0
36983,-125,4,2,1,40,0,0
37171,-125,4,2,1,60,0,0
37358,-125,4,2,1,40,0,0
37546,-100,4,2,1,60,0,0
37733,-100,4,2,1,50,0,0
37921,-100,4,2,1,60,0,0
38108,-100,4,2,1,70,0,0
38296,-100,4,2,1,60,0,0
38483,-100,4,2,1,50,0,0
38671,-100,4,2,1,60,0,0
38858,-100,4,2,1,70,0,0
39046,-100,4,2,1,60,0,0
43827,-100,4,2,1,5,0,0
43921,-100,4,2,1,60,0,0
44296,-100,4,2,1,65,0,0
44389,-100,4,2,1,55,0,0
44483,-100,4,2,1,65,0,0
45046,-100,4,2,1,60,0,0
48327,-100,4,2,1,5,0,0
48421,-100,4,2,1,60,0,0
49546,-100,4,2,1,50,0,0
49921,-100,4,2,1,60,0,0
50296,-100,4,2,1,65,0,0
50483,-100,4,2,1,70,0,0
50671,-100,4,2,1,60,0,0
51046,-111.111111111111,4,2,1,60,0,0
52921,-111.111111111111,4,2,1,50,0,0
53108,-111.111111111111,4,2,1,60,0,0
56296,-111.111111111111,4,2,1,50,0,0
56671,-111.111111111111,4,2,1,60,0,0
57046,-99.9999999999999,4,2,1,70,0,0
61546,-99.9999999999999,4,2,1,75,0,0
61921,-99.9999999999999,4,2,1,65,0,0
62296,-99.9999999999999,4,2,1,60,0,0
62671,-99.9999999999999,4,2,1,70,0,0
63046,-142.857142857143,4,2,1,60,0,0
63069,-142.857142857143,4,2,1,5,0,0
63608,-142.857142857143,4,2,1,40,0,0
63796,-100,4,2,1,60,0,0
63983,-100,4,2,1,65,0,0
64171,-100,4,2,1,70,0,0
64358,-100,4,2,1,80,0,0
64546,-90.9090909090909,4,2,1,70,0,1
64827,-90.9090909090909,4,2,1,5,0,1
64921,-90.9090909090909,4,2,1,60,0,0
65296,-90.9090909090909,4,2,1,70,0,0
67827,-90.9090909090909,4,2,1,5,0,0
67921,-90.9090909090909,4,2,1,70,0,0
69233,-90.9090909090909,4,2,1,80,0,0
69796,-90.9090909090909,4,2,1,70,0,0
70358,-90.9090909090909,4,2,1,60,0,0
70546,-90.9090909090909,4,2,1,70,0,0
70827,-90.9090909090909,4,2,1,5,0,0
70921,-90.9090909090909,4,2,1,70,0,0
72327,-90.9090909090909,4,2,1,5,0,0
72421,-90.9090909090909,4,2,1,70,0,0
75046,-90.9090909090909,4,2,1,80,0,0
75233,-90.9090909090909,4,2,1,75,0,0
75421,-90.9090909090909,4,2,1,70,0,0
75608,-90.9090909090909,4,2,1,65,0,0
75796,-90.9090909090909,4,2,1,60,0,0
75983,-90.9090909090909,4,2,1,65,0,0
76171,-90.9090909090909,4,2,1,70,0,0
76358,-90.9090909090909,4,2,1,75,0,0
76546,-90.9090909090909,4,2,1,80,0,1
76827,-90.9090909090909,4,2,1,5,0,1
76921,-90.9090909090909,4,2,1,60,0,0
77296,-90.9090909090909,4,2,1,70,0,0
79827,-90.9090909090909,4,2,1,5,0,0
79921,-90.9090909090909,4,2,1,70,0,0
81796,-90.9090909090909,4,2,1,60,0,0
81983,-90.9090909090909,4,2,1,70,0,0
82546,-90.9090909090909,4,2,1,80,0,0
82827,-90.9090909090909,4,2,1,5,0,0
82921,-90.9090909090909,4,2,1,70,0,0
83671,-90.9090909090909,4,2,1,60,0,0
83858,-90.9090909090909,4,2,1,70,0,0
84046,-90.9090909090909,4,2,1,80,0,0
84233,-90.9090909090909,4,2,1,60,0,0
84421,-90.9090909090909,4,2,1,70,0,0
84608,-90.9090909090909,4,2,1,80,0,0
84889,-90.9090909090909,4,2,1,5,0,0
84983,-90.9090909090909,4,2,1,70,0,0
85358,-90.9090909090909,4,2,1,60,0,0
85546,-90.9090909090909,4,2,1,80,0,0
86296,-90.9090909090909,4,2,1,60,0,0
86483,-90.9090909090909,4,2,1,70,0,0
86671,-90.9090909090909,4,2,1,80,0,0
86858,-90.9090909090909,4,2,1,70,0,0
87046,-90.9090909090909,4,2,1,80,0,0
87233,-90.9090909090909,4,2,1,75,0,0
87421,-90.9090909090909,4,2,1,80,0,0
87608,-90.9090909090909,4,2,1,85,0,0
87796,-90.9090909090909,4,2,1,80,0,0
88827,-90.9090909090909,4,2,1,5,0,0
88921,-90.9090909090909,4,2,1,70,0,0
90327,-90.9090909090909,4,2,1,5,0,0
90421,-90.9090909090909,4,2,1,70,0,0
92577,-90.9090909090909,4,2,1,5,0,0
92671,-90.9090909090909,4,2,1,70,0,0
93327,-90.9090909090909,4,2,1,5,0,0
93421,-90.9090909090909,4,2,1,70,0,0
94827,-90.9090909090909,4,2,1,5,0,0
94921,-90.9090909090909,4,2,1,70,0,0
96327,-90.9090909090909,4,2,1,5,0,0
96421,-90.9090909090909,4,2,1,70,0,0
96514,-90.9090909090909,4,2,1,5,0,0
96608,-90.9090909090909,4,2,1,70,0,0
96889,-90.9090909090909,4,2,1,5,0,0
96983,-90.9090909090909,4,2,1,70,0,0
97077,-90.9090909090909,4,2,1,5,0,0
97171,-90.9090909090909,4,2,1,70,0,0
97452,-90.9090909090909,4,2,1,5,0,0
97546,-90.9090909090909,4,2,1,70,0,0
97733,-90.9090909090909,4,2,1,80,0,0
97921,-90.9090909090909,4,2,1,70,0,0
98108,-90.9090909090909,4,2,1,80,0,0
98296,-90.9090909090909,4,2,1,70,0,0
98389,-90.9090909090909,4,2,1,67,0,0
98483,-90.9090909090909,4,2,1,64,0,0
98577,-90.9090909090909,4,2,1,61,0,0
98671,-90.9090909090909,4,2,1,58,0,0
98764,-90.9090909090909,4,2,1,55,0,0
98858,-90.9090909090909,4,2,1,58,0,0
98952,-90.9090909090909,4,2,1,62,0,0
99046,-90.9090909090909,4,2,1,70,0,0
99233,-90.9090909090909,4,2,1,80,0,0
99421,-90.9090909090909,4,2,1,70,0,0
99608,-90.9090909090909,4,2,1,80,0,0
99796,-90.9090909090909,4,2,1,70,0,0
99983,-90.9090909090909,4,2,1,75,0,0
100171,-90.9090909090909,4,2,1,65,0,0
100452,-90.9090909090909,4,2,1,5,0,0
100546,-100,4,2,1,60,0,0
100921,-100,4,2,1,40,0,0
101296,-100,4,2,1,50,0,0
102046,-100,4,2,1,60,0,0
106546,-100,4,2,1,70,0,0
106733,-100,4,2,1,60,0,0
106827,-100,4,2,1,5,0,0
106921,-100,4,2,1,70,0,0
107108,-100,4,2,1,60,0,0
107296,-100,4,2,1,70,0,0
107483,-100,4,2,1,60,0,0
107671,-100,4,2,1,70,0,0
107858,-100,4,2,1,60,0,0
108796,-100,4,2,1,70,0,0
108983,-100,4,2,1,60,0,0
110108,-100,4,2,1,80,0,0
110296,-100,4,2,1,60,0,0
110483,-100,4,2,1,80,0,0
110671,-100,4,2,1,70,0,0
110858,-100,4,2,1,80,0,0
111046,-100,4,2,1,60,0,0
111327,-100,4,2,1,5,0,0
111421,-100,4,2,1,60,0,0
111608,-100,4,2,1,70,0,0
111796,-100,4,2,1,60,0,0
112171,-100,4,2,1,50,0,0
112546,-100,4,2,1,80,0,0
112639,-100,4,2,1,70,0,0
112733,-100,4,2,1,60,0,0
112827,-100,4,2,1,80,0,0
112921,-100,4,2,1,70,0,0
113014,-100,4,2,1,60,0,0
113108,-100,4,2,1,80,0,0
113202,-100,4,2,1,70,0,0
113296,-100,4,2,1,60,0,0
113483,-100,4,2,1,70,0,0
113671,-100,4,2,1,60,0,0
113858,-100,4,2,1,70,0,0
114046,-100,4,2,1,60,0,0
118358,-100,4,2,1,50,0,0
118733,-100,4,2,1,70,0,0
118921,-100,4,2,1,60,0,0
119108,-100,4,2,1,50,0,0
119671,-100,4,2,1,60,0,0
122108,-100,4,2,1,70,0,0
122202,-100,4,2,1,50,0,0
122296,-100,4,2,1,60,0,0
122483,-100,4,2,1,70,0,0
122671,-100,4,2,1,60,0,0
122858,-100,4,2,1,70,0,0
123046,-100,4,2,1,60,0,0
123327,-100,4,2,1,5,0,0
123421,-100,4,2,1,60,0,0
124546,-100,4,2,1,80,0,0
124639,-100,4,2,1,77,0,0
124733,-100,4,2,1,74,0,0
124827,-100,4,2,1,71,0,0
124921,-100,4,2,1,68,0,0
125014,-100,4,2,1,65,0,0
125108,-100,4,2,1,62,0,0
125202,-100,4,2,1,59,0,0
125296,-100,4,2,1,60,0,0
125483,-100,4,2,1,70,0,0
126046,-111.111111111111,4,2,1,60,0,0
128296,-111.111111111111,4,2,1,50,0,0
128483,-111.111111111111,4,2,1,60,0,0
131296,-111.111111111111,4,2,1,40,0,0
131389,-111.111111111111,4,2,1,43,0,0
131483,-111.111111111111,4,2,1,46,0,0
131577,-111.111111111111,4,2,1,49,0,0
131671,-111.111111111111,4,2,1,52,0,0
131764,-111.111111111111,4,2,1,55,0,0
131858,-111.111111111111,4,2,1,58,0,0
131952,-111.111111111111,4,2,1,60,0,0
132046,-100,4,2,1,70,0,0
135046,-100,4,2,1,60,0,0
135327,-100,4,2,1,65,0,0
135608,-100,4,2,1,70,0,0
135796,-100,4,2,1,65,0,0
136077,-100,4,2,1,70,0,0
136358,-100,4,2,1,75,0,0
136546,-100,4,2,1,55,0,0
137296,-166.666666666666,4,2,2,40,0,0
137671,-166.666666666666,4,2,1,50,0,0
138046,-90.9090909090909,4,2,1,70,0,1
138327,-90.9090909090909,4,2,1,5,0,1
138421,-90.9090909090909,4,2,1,60,0,0
138796,-90.9090909090909,4,2,1,70,0,0
141327,-90.9090909090909,4,2,1,5,0,0
141421,-90.9090909090909,4,2,1,70,0,0
142733,-90.9090909090909,4,2,1,80,0,0
142921,-90.9090909090909,4,2,1,70,0,0
143108,-90.9090909090909,4,2,1,80,0,0
143296,-90.9090909090909,4,2,1,70,0,0
143483,-90.9090909090909,4,2,1,80,0,0
143858,-90.9090909090909,4,2,1,80,0,0
144046,-90.9090909090909,4,2,1,70,0,0
144796,-90.9090909090909,4,2,1,50,0,0
144983,-90.9090909090909,4,2,1,70,0,0
145827,-90.9090909090909,4,2,1,5,0,0
145921,-90.9090909090909,4,2,1,70,0,0
147046,-90.9090909090909,4,2,1,60,0,0
147608,-90.9090909090909,4,2,1,70,0,0
147796,-90.9090909090909,4,2,1,60,0,0
148546,-90.9090909090909,4,2,1,80,0,0
148827,-90.9090909090909,4,2,1,75,0,0
149108,-90.9090909090909,4,2,1,70,0,0
149296,-90.9090909090909,4,2,1,85,0,0
149577,-90.9090909090909,4,2,1,80,0,0
149858,-90.9090909090909,4,2,1,75,0,0
150046,-90.9090909090909,4,2,1,70,0,1
150327,-90.9090909090909,4,2,1,5,0,1
150421,-90.9090909090909,4,2,1,60,0,0
150796,-90.9090909090909,4,2,1,70,0,0
152296,-90.9090909090909,4,2,1,80,0,0
152671,-90.9090909090909,4,2,1,70,0,0
153327,-90.9090909090909,4,2,1,5,0,0
153421,-90.9090909090909,4,2,1,70,0,0
154546,-90.9090909090909,4,2,1,50,0,0
155108,-125,4,2,1,60,0,0
155389,-125,4,2,1,5,0,0
155483,-90.9090909090909,4,2,1,60,0,0
155577,-90.9090909090909,4,2,1,63,0,0
155671,-90.9090909090909,4,2,1,66,0,0
155764,-90.9090909090909,4,2,1,69,0,0
155858,-90.9090909090909,4,2,1,72,0,0
155952,-90.9090909090909,4,2,1,75,0,0
156046,-90.9090909090909,4,2,1,80,0,0
156327,-90.9090909090909,4,2,1,5,0,0
156421,-90.9090909090909,4,2,1,70,0,0
156983,-90.9090909090909,4,2,1,60,0,0
157358,-90.9090909090909,4,2,1,70,0,0
157546,-90.9090909090909,4,2,1,80,0,0
157733,-90.9090909090909,4,2,1,70,0,0
158108,-90.9090909090909,4,2,1,80,0,0
158389,-90.9090909090909,4,2,1,5,0,0
158483,-90.9090909090909,4,2,1,70,0,0
159046,-90.9090909090909,4,2,1,80,0,0
159327,-90.9090909090909,4,2,1,85,0,0
159608,-90.9090909090909,4,2,1,90,0,0
159796,-90.9090909090909,4,2,1,70,0,0
160171,-90.9090909090909,4,2,1,80,0,0
160358,-90.9090909090909,4,2,1,90,0,0
160546,-90.9090909090909,4,2,1,80,0,0
160733,-90.9090909090909,4,2,1,70,0,0
160921,-90.9090909090909,4,2,1,60,0,0
161108,-90.9090909090909,4,2,1,70,0,0
161296,-90.9090909090909,4,2,1,80,0,0
161483,-90.9090909090909,4,2,1,70,0,0
161671,-90.9090909090909,4,2,1,60,0,0
161858,-90.9090909090909,4,2,1,50,0,0
162046,-90.9090909090909,4,2,1,60,0,0
162327,-90.9090909090909,4,2,1,70,0,0
163827,-90.9090909090909,4,2,1,5,0,0
163921,-90.9090909090909,4,2,1,70,0,0
164764,-90.9090909090909,4,2,1,5,0,0
164858,-90.9090909090909,4,2,1,70,0,0
165327,-90.9090909090909,4,2,1,5,0,0
165421,-90.9090909090909,4,2,1,70,0,0
166733,-90.9090909090909,4,2,1,80,0,0
166921,-90.9090909090909,4,2,1,70,0,0
167108,-90.9090909090909,4,2,1,80,0,0
167296,-90.9090909090909,4,2,1,70,0,0
167483,-90.9090909090909,4,2,1,80,0,0
167671,-90.9090909090909,4,2,1,70,0,0
167858,-90.9090909090909,4,2,1,75,0,0
168046,-90.9090909090909,4,2,1,70,0,0
168327,-90.9090909090909,4,2,1,5,0,0
168421,-90.9090909090909,4,2,1,70,0,0
168702,-90.9090909090909,4,2,1,5,0,0
168796,-90.9090909090909,4,2,1,70,0,0
169827,-90.9090909090909,4,2,1,5,0,0
169921,-90.9090909090909,4,2,1,70,0,0
170202,-90.9090909090909,4,2,1,5,0,0
170296,-90.9090909090909,4,2,1,70,0,0
171233,-90.9090909090909,4,2,1,80,0,0
171421,-90.9090909090909,4,2,1,70,0,0
171608,-90.9090909090909,4,2,1,80,0,0
171796,-90.9090909090909,4,2,1,70,0,0
172264,-90.9090909090909,4,2,1,5,0,0
172358,-90.9090909090909,4,2,1,70,0,0
172546,-90.9090909090909,4,2,1,80,0,0
172733,-90.9090909090909,4,2,1,90,0,0
172921,-90.9090909090909,4,2,1,80,0,0
173296,-90.9090909090909,4,2,1,70,0,0
173858,-90.9090909090909,4,2,1,80,0,0
174046,-90.9090909090909,4,2,1,90,0,1
174233,-90.9090909090909,4,2,1,70,0,0
174796,-90.9090909090909,4,2,1,90,0,0
174889,-90.9090909090909,4,2,1,80,0,0
174983,-90.9090909090909,4,2,1,70,0,0
175546,-90.9090909090909,4,2,1,80,0,0
175733,-90.9090909090909,4,2,1,70,0,0
177046,-90.9090909090909,4,2,1,80,0,0
177796,-90.9090909090909,4,2,1,90,0,0
178546,-90.9090909090909,4,2,1,80,0,0
180046,-90.9090909090909,4,2,1,90,0,0
180327,-90.9090909090909,4,2,1,5,0,0
180421,-90.9090909090909,4,2,1,80,0,0
183046,-90.9090909090909,4,2,1,90,0,0
184733,-90.9090909090909,4,2,1,80,0,0
184921,-90.9090909090909,4,2,1,75,0,0
185108,-90.9090909090909,4,2,1,70,0,0
185296,-90.9090909090909,4,2,1,65,0,0
185483,-90.9090909090909,4,2,1,60,0,0
185671,-90.9090909090909,4,2,1,55,0,0
185858,-90.9090909090909,4,2,1,50,0,0
187546,-166.666666666667,4,2,1,60,0,0
187921,-166.666666666667,4,2,1,50,0,0
189046,-166.666666666667,4,2,1,60,0,0
189421,-166.666666666667,4,2,1,45,0,0
189608,-166.666666666667,4,2,1,55,0,0
190358,-166.666666666667,4,2,1,45,0,0
190546,-166.666666666667,4,2,1,60,0,0
191108,-166.666666666667,4,2,1,55,0,0
191858,-166.666666666667,4,2,1,50,0,0
192046,-166.666666666667,4,2,1,60,0,0
192796,-166.666666666667,4,2,1,50,0,0
192889,-166.666666666667,4,2,1,53,0,0
192983,-166.666666666667,4,2,1,56,0,0
193077,-166.666666666667,4,2,1,59,0,0
193171,-166.666666666667,4,2,1,62,0,0
193264,-166.666666666667,4,2,1,65,0,0
193358,-166.666666666667,4,2,1,68,0,0
193452,-166.666666666667,4,2,1,71,0,0
193546,-100,4,2,1,70,0,0
194858,-100,4,2,1,80,0,0
194952,-100,4,2,1,70,0,0
195046,-100,4,2,1,80,0,0
195421,-100,4,2,1,70,0,0
195608,-100,4,2,1,80,0,0
196171,-100,4,2,1,70,0,0
196358,-100,4,2,1,80,0,0
196546,-100,4,2,1,90,0,0
196921,-100,4,2,1,80,0,0
197296,-100,4,2,1,90,0,0
197671,-100,4,2,1,70,0,0
197858,-100,4,2,1,80,0,0
198046,-100,4,2,1,93,0,0
198233,-100,4,2,1,83,0,0
198421,-100,4,2,1,96,0,0
198608,-100,4,2,1,86,0,0
198796,-100,4,2,1,99,0,0
198983,-100,4,2,1,89,0,0
199171,-100,4,2,1,96,0,0
199358,-100,4,2,1,86,0,0
199546,-142.857142857143,4,2,1,70,0,0
199733,-142.857142857143,4,2,1,50,0,0
199921,-142.857142857143,4,2,1,60,0,0
200108,-142.857142857143,4,2,1,40,0,0
200296,-142.857142857143,4,2,1,50,0,0
201046,-142.857142857143,4,2,1,60,0,0
201233,-142.857142857143,4,2,1,50,0,0
201421,-142.857142857143,4,2,1,65,0,0
201608,-142.857142857143,4,2,1,55,0,0
201796,-142.857142857143,4,2,1,50,0,0
201983,-142.857142857143,4,2,1,55,0,0
202171,-142.857142857143,4,2,1,60,0,0
202358,-142.857142857143,4,2,1,65,0,0
202546,-142.857142857143,4,2,1,60,0,0
203108,-142.857142857143,4,2,1,65,0,0
203296,-142.857142857143,4,2,1,60,0,0
203483,-142.857142857143,4,2,1,55,0,0
203671,-142.857142857143,4,2,1,50,0,0
203858,-142.857142857143,4,2,1,45,0,0
204046,-142.857142857143,4,2,1,60,0,0
204233,-142.857142857143,4,2,1,50,0,0
204421,-142.857142857143,4,2,1,60,0,0
204608,-142.857142857143,4,2,1,50,0,0
204796,-142.857142857143,4,2,1,60,0,0
204983,-142.857142857143,4,2,1,50,0,0
205546,-142.857142857143,4,2,1,50,0,0
205921,-142.857142857143,4,2,1,55,0,0
206108,-142.857142857143,4,2,1,60,0,0
206296,-142.857142857143,4,2,1,65,0,0
206483,-142.857142857143,4,2,1,70,0,0
206671,-142.857142857143,4,2,1,65,0,0
206858,-142.857142857143,4,2,1,60,0,0
207046,-142.857142857143,4,2,1,50,0,0
207421,-142.857142857143,4,2,1,60,0,0
207796,-142.857142857143,4,2,1,50,0,0
208546,-142.857142857143,4,2,1,60,0,0
208921,-142.857142857143,4,2,1,65,0,0
209108,-142.857142857143,4,2,1,70,0,0
209296,-142.857142857143,4,2,1,65,0,0
209483,-142.857142857143,4,2,1,60,0,0
209671,-142.857142857143,4,2,1,55,0,0
209858,-142.857142857143,4,2,1,50,0,0
210046,-142.857142857143,4,2,1,60,0,0
210421,-142.857142857143,4,2,1,50,0,0
210608,-142.857142857143,4,2,1,55,0,0
211546,-142.857142857143,4,2,1,45,0,0
212296,375,4,2,1,80,1,0
212296,-90.9090909090909,4,2,1,80,0,0
212483,-90.9090909090909,4,2,1,70,0,0
213046,-90.9090909090909,4,2,1,80,0,0
213233,-90.9090909090909,4,2,1,70,0,0
213796,-90.9090909090909,4,2,1,80,0,0
214921,-90.9090909090909,4,2,1,90,0,0
215108,-90.9090909090909,4,2,1,80,0,0
215577,-90.9090909090909,4,2,1,5,0,0
215671,-90.9090909090909,4,2,1,80,0,0
216796,-90.9090909090909,4,2,1,90,0,0
216983,-90.9090909090909,4,2,1,95,0,0
217171,-90.9090909090909,4,2,1,90,0,0
217358,-90.9090909090909,4,2,1,80,0,0
217639,-90.9090909090909,4,2,1,5,0,0
217733,-90.9090909090909,4,2,1,80,0,0
217827,-90.9090909090909,4,2,1,5,0,0
217921,-90.9090909090909,4,2,1,70,0,0
218296,-90.9090909090909,4,2,1,80,0,0
218577,-90.9090909090909,4,2,1,5,0,0
218671,-90.9090909090909,4,2,1,70,0,0
219796,-90.9090909090909,4,2,1,80,0,0
220077,-90.9090909090909,4,2,1,5,0,0
220171,-90.9090909090909,4,2,1,80,0,0
220921,-90.9090909090909,4,2,1,70,0,0
221296,-90.9090909090909,4,2,1,80,0,0
221483,-90.9090909090909,4,2,1,70,0,0
221858,-90.9090909090909,4,2,1,80,0,0
222046,-90.9090909090909,4,2,1,70,0,0
222421,-90.9090909090909,4,2,1,80,0,0
222608,-90.9090909090909,4,2,1,90,0,0
222796,-90.9090909090909,4,2,1,99,0,0
222983,-90.9090909090909,4,2,1,80,0,0
223077,-90.9090909090909,4,2,1,90,0,0
223171,-90.9090909090909,4,2,1,80,0,0
223546,-90.9090909090909,4,2,1,90,0,0
223733,-90.9090909090909,4,2,1,85,0,0
223921,-90.9090909090909,4,2,1,80,0,0
224108,-90.9090909090909,4,2,1,85,0,0
224296,-90.9090909090909,4,2,1,90,0,0
224483,-90.9090909090909,4,2,1,80,0,0
226077,-90.9090909090909,4,2,1,5,0,0
226171,-90.9090909090909,4,2,1,80,0,0
230296,-90.9090909090909,4,2,1,90,0,0
235171,-90.9090909090909,4,2,1,80,0,0
235546,-90.9090909090909,4,2,1,85,0,0
235921,-90.9090909090909,4,2,1,75,0,0
236296,-125,4,2,1,60,0,0
236671,-125,4,2,1,50,0,0
237796,-125,4,2,1,60,0,0
238171,-125,4,2,1,50,0,0
239296,-125,4,2,1,60,0,0
239671,-125,4,2,1,50,0,0
240046,-125,4,2,1,60,0,0
240421,-125,4,2,1,50,0,0
240796,-125,4,2,1,60,0,0
241171,-125,4,2,1,50,0,0
241546,-125,4,2,1,60,0,0
241921,-125,4,2,1,50,0,0
242296,-111.111111111111,4,2,1,60,0,0
246139,-111.111111111111,4,2,1,5,0,0
246233,-111.111111111111,4,2,1,60,0,0
246796,-111.111111111111,4,2,1,50,0,0
247171,-111.111111111111,4,2,1,55,0,0
247546,-111.111111111111,4,2,1,60,0,0
247921,-111.111111111111,4,2,1,65,0,0
248296,-111.111111111111,4,2,1,55,0,0
249733,-111.111111111111,4,2,1,50,0,0
249796,-111.111111111111,4,2,1,40,0,0

[Colours]
Combo1 : 128,128,192
Combo2 : 0,128,128
Combo3 : 128,128,255
Combo4 : 0,128,0

[HitObjects]
115,335,1546,6,0,B|106:262|106:262|71:234|71:234|63:162,1,190,2|2,0:0|0:0,0:0:0:0:
330,125,2671,1,2,0:0:0:0:
168,188,2858,1,2,0:0:0:0:
168,188,3046,2,0,B|240:196|240:196|268:231|268:231|340:239,1,190,2|2,0:0|0:0,0:0:0:0:
219,30,4171,2,0,L|224:96,1,47.5,2|0,0:0|0:0,0:0:0:0:
386,327,4546,6,0,P|437:250|404:165,1,190,2|2,0:0|0:0,0:0:0:0:
271,254,5577,2,0,P|306:250|340:239,1,71.25,2|2,0:0|0:0,0:0:0:0:
288,154,6046,5,2,0:0:0:0:
182,220,6233,2,0,P|179:245|176:267,1,47.5,2|0,0:0|0:0,0:0:0:0:
298,161,6608,2,0,P|289:89|285:48,1,95,2|0,0:0|0:0,0:0:0:0:
94,131,7171,1,2,0:0:0:0:
66,105,7546,6,0,B|115:122|160:128|160:128|204:113,1,132.999995941162,4|0,0:0|0:0,0:0:0:0:
424,179,8108,2,0,P|387:152|300:174,1,132.999995941162,2|0,0:0|0:0,0:0:0:0:
143,296,8671,1,2,0:0:0:0:
362,235,8858,1,0,0:0:0:0:
202,120,9046,6,0,P|205:181|215:263,2,114,4|2|2,0:0|0:0|0:0,0:0:0:0:
381,315,9796,2,0,B|317:296|248:308|300:343|227:360|163:341,1,228,2|0,0:0|0:0,0:0:0:0:
96,252,10546,5,6,1:2:0:0:
472,326,11296,1,6,1:2:0:0:
42,349,12046,2,0,P|99:343|156:337,1,113.999996520996,6|0,1:2|0:0,0:0:0:0:
355,287,12608,5,2,0:0:0:0:
326,291,12702,1,0,0:0:0:0:
296,289,12796,2,0,P|267:280|235:254,3,47.5,2|0|2|0,0:0|0:0|0:0|0:0,0:0:0:0:
306,150,13171,6,0,P|313:177|316:205,1,56.9999982604981,2|0,0:0|0:0,0:0:0:0:
156,337,13358,2,0,P|159:308|166:281,1,56.9999982604981,2|0,0:0|0:0,0:0:0:0:
197,188,13546,6,0,B|117:168|136:216|58:197,1,142.5,4|0,0:0|0:0,0:0:0:0:
26,170,13921,2,0,P|39:126|85:114,1,95,0|0,1:0|0:0,0:0:0:0:
252,271,14296,1,0,1:0:0:0:
36,328,14483,1,2,0:0:0:0:
197,188,14671,1,0,1:0:0:0:
382,295,14858,1,2,0:0:0:0:
131,277,15046,6,0,P|107:187|133:96,1,190,4|0,1:2|1:0,0:0:0:0:
392,177,15608,1,0,0:0:0:0:
392,177,15702,1,0,0:0:0:0:
392,177,15796,2,0,P|342:180|288:182,1,95,2|0,1:0|0:0,0:0:0:0:
131,288,16171,2,0,P|178:289|225:292,1,95,2|0,1:0|0:0,0:0:0:0:
410,343,16546,5,6,1:2:0:0:
206,203,16733,1,0,0:0:0:0:
206,203,16827,1,0,0:0:0:0:
206,203,16921,1,0,1:0:0:0:
54,334,17108,1,2,1:0:0:0:
319,266,17296,2,0,P|324:220|328:168,1,95,2|0,1:0|0:0,0:0:0:0:
121,100,17671,1,2,1:0:0:0:
164,313,17858,1,2,1:0:0:0:
328,171,18046,6,0,P|394:156|438:164,1,95,2|0,1:0|0:0,0:0:0:0:
121,100,18421,2,0,P|55:85|11:93,1,95,2|0,1:0|0:0,0:0:0:0:
245,1,18796,2,0,P|242:47|239:112,1,95,2|0,1:0|0:0,0:0:0:0:
68,286,19171,2,0,P|65:239|62:175,1,95,2|0,1:0|0:0,0:0:0:0:
403,192,19546,6,0,B|321:195|321:195|299:224|299:224|227:230,1,190,6|0,0:0|1:0,0:0:0:0:
380,303,20108,1,0,0:0:0:0:
239,95,20296,2,0,L|251:146,1,47.5,6|0,0:0|0:0,1:0:0:0:
68,286,20483,5,2,1:0:0:0:
228,231,20671,1,2,1:0:0:0:
110,172,20858,1,2,1:0:0:0:
224,246,21046,6,0,B|329:219|293:294|406:262,1,190,6|0,0:0|1:0,0:0:0:0:
343,65,21608,2,0,P|355:111|365:157,1,95,2|0,1:0|1:0,0:0:0:0:
257,350,21983,1,0,1:0:0:0:
149,154,22171,2,0,P|195:142|241:132,1,95,2|0,1:0|0:0,0:0:0:0:
471,179,22546,5,6,0:0:0:0:
343,65,22733,1,0,1:0:0:0:
343,65,22827,2,0,P|355:111|365:157,1,95,0|0,1:0|0:0,0:0:0:0:
278,263,23108,2,0,L|284:205,1,47.5,0|0,1:0|0:0,0:0:0:0:
376,330,23296,5,4,0:0:0:0:
169,249,23483,1,0,1:0:0:0:
169,249,23577,2,0,P|121:254|70:262,1,95,0|0,1:0|0:0,0:0:0:0:
3,189,23858,2,0,P|0:215|-2:257,1,47.5,2|2,1:0|1:0,0:0:0:0:
51,370,24046,5,6,0:0:0:0:
121,150,24233,1,0,1:0:0:0:
240,351,24421,5,4,0:0:0:0:
216,184,24608,1,0,1:0:0:0:
429,332,24796,5,4,0:0:0:0:
311,144,24983,1,2,0:0:0:0:
320,190,25077,1,0,0:0:0:0:
306,235,25171,1,2,1:2:0:0:
274,270,25264,1,0,0:0:0:0:
229,287,25358,1,2,0:0:0:0:
181,283,25452,1,2,0:0:0:0:
141,256,25546,5,6,0:0:0:0:
253,60,25921,1,6,0:0:0:0:
434,197,26296,1,4,0:0:0:0:
216,184,26671,2,0,P|254:181|292:180,1,66.4999979705811,2|0,1:0|0:0,0:0:0:0:
141,256,27046,5,6,0:0:0:0:
77,113,27233,1,0,0:0:0:0:
128,270,27421,2,0,P|122:233|114:194,1,76,2|0,0:0|0:0,0:0:0:0:
45,338,27796,1,2,0:0:0:0:
221,268,27983,1,0,0:0:0:0:
360,339,28171,2,0,P|320:335|268:333,1,76,0|2,0:0|0:0,0:0:0:0:
141,256,28546,6,0,P|211:245|290:231,2,152,2|2|2,0:0|0:0|0:0,0:0:0:0:
402,248,29671,1,2,0:0:0:0:
224,147,29858,1,0,0:0:0:0:
360,25,30046,6,0,P|358:101|355:176,1,152,2|2,0:0|0:0,0:0:0:0:
79,125,30608,2,0,B|119:111|157:123|146:144|184:155|225:147,1,152,2|0,0:0|0:0,0:0:0:0:
205,48,31171,1,2,0:0:0:0:
158,332,31546,6,0,P|97:293|104:222,1,152,2|2,0:0|0:0,0:0:0:0:
256,303,32108,1,2,0:0:0:0:
408,221,32296,2,0,P|411:188|416:146,1,76,2|0,0:0|0:0,0:0:0:0:
243,292,32671,2,0,P|239:259|235:217,1,76,2|0,0:0|0:0,0:0:0:0:
61,136,33046,5,6,0:0:0:0:
244,199,33233,1,2,0:0:0:0:
425,131,33421,2,0,P|390:119|346:123,1,76,2|0,0:0|0:0,0:0:0:0:
123,254,33796,1,2,0:0:0:0:
348,223,33983,1,2,0:0:0:0:
157,46,34171,2,0,P|160:86|167:149,1,76,0|2,0:0|0:0,0:0:0:0:
429,266,34546,6,0,P|432:228|436:190,1,76,6|0,0:0|0:0,0:0:0:0:
311,355,34921,1,2,0:0:0:0:
175,302,35108,2,0,P|132:302|92:303,1,76,2|0,0:0|0:0,0:0:0:0:
324,238,35483,1,2,0:0:0:0:
188,291,35671,1,2,0:0:0:0:
70,202,35858,1,2,0:0:0:0:
9,384,36046,6,0,P|58:350|147:377,1,152,2|2,0:0|0:0,0:0:0:0:
324,238,36608,1,2,0:0:0:0:
399,341,36796,2,0,P|363:350|327:340,1,76,2|0,0:0|0:0,0:0:0:0:
84,216,37171,2,0,P|128:224|159:213,1,76,2|0,0:0|0:0,0:0:0:0:
318,43,37546,5,2,0:0:0:0:
334,65,37639,1,0,0:0:0:0:
340,92,37733,1,2,0:0:0:0:
339,120,37827,1,2,0:0:0:0:
330,147,37921,2,0,L|278:154,1,47.5,2|0,0:0|0:0,0:0:0:0:
159,199,38108,2,0,L|211:206,1,47.5,2|2,0:0|0:0,0:0:0:0:
365,261,38296,5,2,0:0:0:0:
328,248,38389,1,2,0:0:0:0:
289,249,38483,1,2,0:0:0:0:
256,269,38577,1,0,0:0:0:0:
235,300,38671,1,2,3:2:0:0:
214,332,38764,1,0,3:2:0:0:
180,352,38858,1,2,3:2:0:0:
142,353,38952,1,0,3:2:0:0:
105,340,39046,5,6,0:0:0:0:
206,205,39233,1,2,0:0:0:0:
365,261,39421,1,8,0:0:0:0:
156,273,39608,1,2,0:0:0:0:
342,157,39796,1,0,3:0:0:0:
198,121,39983,1,2,0:0:0:0:
407,80,40171,2,0,P|436:119|443:171,1,95,8|2,0:0|0:0,0:0:0:0:
265,364,40546,6,0,P|260:324|256:260,1,95,0|2,3:0|0:0,0:0:0:0:
342,157,40921,1,8,0:0:0:0:
169,218,41108,1,2,0:0:0:0:
169,218,41202,1,0,0:0:0:0:
168,218,41296,2,0,P|192:178|237:167,1,95,0|2,3:0|0:0,0:0:0:0:
365,261,41671,1,8,0:0:0:0:
125,336,41858,1,2,0:0:0:0:
382,274,42046,6,0,P|374:232|367:174,1,95,4|2,0:0|0:0,0:0:0:0:
247,252,42421,1,8,0:0:0:0:
200,31,42608,2,0,P|194:78|185:124,1,95,2|0,0:0|0:0,0:0:0:0:
125,336,42983,1,2,0:0:0:0:
255,240,43171,2,0,P|206:236|134:232,1,95,8|2,0:0|0:0,0:0:0:0:
408,348,43546,6,0,P|309:358|248:366,1,142.5,4|0,0:0|0:0,0:0:0:0:
216,378,43921,2,0,L|230:319,1,47.5,8|0,0:0|0:0,0:0:0:0:
333,245,44108,2,0,L|326:199,1,47.5,2|0,0:0|0:0,0:0:0:0:
270,98,44296,1,0,1:0:0:0:
305,109,44389,1,0,0:0:0:0:
342,104,44483,1,0,1:0:0:0:
374,84,44577,1,0,0:0:0:0:
387,48,44671,2,0,L|380:4,6,23.75,8|0|0|0|2|0|0,0:0|0:0|0:0|0:0|0:0|0:0|0:0,0:0:0:0:
358,0,45046,5,4,0:0:0:0:
185,124,45233,1,2,0:0:0:0:
106,33,45421,1,8,0:0:0:0:
305,109,45608,1,2,0:0:0:0:
114,222,45796,1,0,3:0:0:0:
238,47,45983,1,2,0:0:0:0:
394,192,46171,2,0,P|343:190|297:189,1,95,8|2,0:0|0:0,0:0:0:0:
51,318,46546,5,0,1:2:0:0:
222,276,46733,1,2,0:0:0:0:
117,209,46921,1,8,0:0:0:0:
288,167,47108,1,2,0:0:0:0:
297,130,47202,1,0,0:0:0:0:
292,92,47296,1,0,3:0:0:0:
124,33,47483,5,2,0:0:0:0:
382,61,47671,1,8,0:0:0:0:
185,124,47858,1,2,0:0:0:0:
460,214,48046,6,0,P|387:191|308:201,1,142.5,4|0,0:0|0:0,0:0:0:0:
288,167,48421,2,0,P|299:124|285:71,1,95,8|0,0:0|0:0,0:0:0:0:
94,194,48796,2,0,P|128:226|173:238,1,95,2|0,3:2|0:0,0:0:0:0:
437,294,49171,2,0,P|393:276|347:281,1,95,8|2,0:0|0:0,0:0:0:0:
133,319,49546,5,6,0:0:0:0:
169,329,49639,1,0,0:0:0:0:
206,324,49733,1,2,0:0:0:0:
238,304,49827,1,2,0:0:0:0:
259,272,49921,1,10,0:0:0:0:
269,236,50014,1,0,0:0:0:0:
296,209,50108,1,2,0:0:0:0:
332,196,50202,1,2,0:0:0:0:
369,199,50296,6,0,P|365:171|362:131,1,47.5,4|2,0:0|0:0,0:0:0:0:
260,47,50483,2,0,P|257:70|254:94,1,47.5,2|2,0:0|0:0,0:0:0:0:
173,238,50671,1,8,0:0:0:0:
55,172,50858,2,0,P|58:195|61:219,1,47.5,2|2,0:0|0:0,0:0:0:0:
46,343,51046,6,0,B|115:333|115:333|146:352|146:352|210:343,1,170.999994781494,4|0,0:0|3:0,0:0:0:0:
407,355,51608,2,0,P|385:313|369:177,1,170.999994781494,0|0,3:0|3:0,0:0:0:0:
154,126,52171,1,0,3:0:0:0:
405,49,52358,1,2,0:0:0:0:
268,219,52546,6,0,B|181:184|191:248|102:207,1,170.999994781494,2|2,1:2|0:0,0:0:0:0:
290,121,53108,2,0,P|307:77|301:34,1,85.4999973907472,0|0,1:0|0:0,0:0:0:0:
371,184,53483,1,2,1:2:0:0:
120,68,53671,2,0,P|163:67|206:66,1,85.4999973907472,0|2,1:0|0:0,0:0:0:0:
432,97,54046,6,0,P|475:168|455:249,1,170.999994781494,0|0,3:0|3:0,0:0:0:0:
285,179,54608,2,0,P|328:182|371:184,1,85.4999973907472,0|2,1:0|0:0,0:0:0:0:
173,228,54983,2,0,P|171:185|168:142,1,85.4999973907472,0|0,1:0|0:0,0:0:0:0:
271,301,55358,1,0,3:0:0:0:
63,277,55546,6,0,P|20:205|40:124,1,170.999994781494,2|0,3:2|3:0,0:0:0:0:
224,46,56108,1,0,0:0:0:0:
370,183,56296,1,0,3:0:0:0:
335,183,56389,1,0,0:0:0:0:
300,183,56483,1,0,3:0:0:0:
265,183,56577,1,0,3:0:0:0:
230,183,56671,1,0,1:0:0:0:
196,183,56764,1,0,3:0:0:0:
161,184,56858,2,0,L|165:126,1,42.7499986953736,0|0,1:0|0:0,0:0:0:0:
224,46,57046,5,4,0:0:0:0:
98,322,57233,1,2,0:0:0:0:
49,85,57421,5,0,1:0:0:0:
273,283,57608,1,2,0:0:0:0:
230,40,57796,5,0,1:0:0:0:
92,328,57983,1,2,0:0:0:0:
43,79,58171,5,0,1:0:0:0:
279,289,58358,1,2,0:0:0:0:
512,23,58546,6,0,L|503:125,1,95,0|2,1:0|0:0,0:0:0:0:
279,289,58921,1,0,1:0:0:0:
419,326,59108,1,2,0:0:0:0:
419,326,59202,1,0,0:0:0:0:
419,326,59296,2,0,L|410:231,1,95,0|2,1:0|0:0,0:0:0:0:
230,40,59671,1,0,1:0:0:0:
370,3,59858,5,2,0:0:0:0:
370,3,59952,1,0,0:0:0:0:
370,3,60046,2,0,L|361:97,1,95,4|2,0:0|0:0,0:0:0:0:
350,178,60327,1,0,0:0:0:0:
350,178,60421,2,0,L|293:184,1,47.5,0|0,1:0|0:0,0:0:0:0:
206,164,60608,2,0,L|212:221,1,47.5,2|0,3:2|0:0,0:0:0:0:
419,326,60796,5,4,0:0:0:0:
281,273,60983,1,2,0:0:0:0:
281,273,61077,1,0,0:0:0:0:
281,273,61171,1,0,1:0:0:0:
138,312,61358,1,2,0:0:0:0:
19,167,61546,6,0,L|27:223,1,47.5,4|0,0:0|0:0,0:0:0:0:
138,312,61733,2,0,L|146:256,1,47.5,0|0,1:0|0:0,0:0:0:0:
274,225,61921,2,0,L|282:281,1,47.5,4|0,0:0|0:0,0:0:0:0:
419,326,62108,2,0,L|427:270,1,47.5,0|0,1:0|0:0,0:0:0:0:
453,160,62296,5,6,0:0:0:0:
415,166,62389,1,0,0:0:0:0:
377,160,62483,1,2,1:2:0:0:
344,139,62577,1,0,0:0:0:0:
320,108,62671,2,0,P|312:84|310:57,1,47.5,2|0,1:0|0:0,0:0:0:0:
402,14,62858,2,0,P|410:37|413:61,1,47.5,2|0,1:0|0:0,0:0:0:0:
192,158,63046,6,0,B|183:82|193:9|193:9|202:38|220:63,1,199.499993911743,2|2,0:0|0:0,0:0:0:0:
274,225,63796,5,2,0:0:0:0:
245,249,63889,1,0,0:0:0:0:
209,263,63983,1,2,0:0:0:0:
170,262,64077,1,0,0:0:0:0:
137,242,64171,1,2,0:0:0:0:
98,241,64264,1,0,0:0:0:0:
62,255,64358,1,2,0:0:0:0:
33,279,64452,1,0,0:0:0:0:
24,314,64546,6,0,P|20:229|17:131,1,156.750004783631,4|0,0:0|0:0,0:0:0:0:
1,118,64921,2,0,P|36:75|81:79,1,104.500003189087,12|2,0:0|0:0,0:0:0:0:
242,273,65296,2,0,P|244:220|249:168,1,104.500003189087,0|2,3:0|0:0,0:0:0:0:
382,56,65671,1,8,0:0:0:0:
446,332,65858,5,2,0:0:0:0:
446,332,65952,1,2,0:0:0:0:
446,332,66046,1,4,0:0:0:0:
228,280,66233,1,2,0:0:0:0:
351,220,66421,1,8,0:0:0:0:
117,347,66608,5,2,0:0:0:0:
101,309,66702,1,0,0:0:0:0:
99,268,66796,1,2,3:2:0:0:
343,207,66983,1,2,0:0:0:0:
132,173,67171,1,8,0:0:0:0:
349,310,67358,1,2,0:0:0:0:
83,260,67546,6,0,P|34:200|43:124,1,156.750004783631,4|0,0:0|0:0,0:0:0:0:
72,92,67921,1,8,0:0:0:0:
354,191,68108,1,2,0:0:0:0:
354,191,68202,1,0,0:0:0:0:
354,191,68296,2,0,P|298:193|240:195,1,104.500003189087,2|0,3:2|0:0,0:0:0:0:
153,196,68577,1,2,0:0:0:0:
153,196,68671,2,0,P|148:170|149:133,1,52.2500015945435,8|0,0:0|0:0,0:0:0:0:
231,45,68858,2,0,P|236:71|235:108,1,52.2500015945435,2|0,0:0|0:0,0:0:0:0:
75,276,69046,5,4,0:0:0:0:
241,185,69233,1,2,0:0:0:0:
422,246,69421,1,8,0:0:0:0:
147,207,69608,2,0,P|138:147|135:90,1,104.500003189087,2|0,0:0|3:0,0:0:0:0:
383,32,69983,1,2,0:0:0:0:
455,127,70171,2,0,P|405:145|354:150,1,104.500003189087,8|2,0:0|0:0,0:0:0:0:
96,316,70546,6,0,P|133:278|240:274,1,156.750004783631,4|0,0:0|0:0,0:0:0:0:
265,298,70921,1,8,0:0:0:0:
128,168,71108,2,0,P|105:112|116:60,1,104.500003189087,2|0,0:0|3:0,0:0:0:0:
383,47,71483,1,2,0:0:0:0:
238,201,71671,2,0,P|232:149|254:102,1,104.500003189087,8|2,0:0|0:0,0:0:0:0:
507,203,72046,6,0,B|467:184|419:187|445:206|401:209|354:189,1,156.750004783631,4|0,0:0|0:0,0:0:0:0:
321,165,72421,1,8,0:0:0:0:
155,237,72608,1,2,0:0:0:0:
316,39,72796,2,0,P|367:46|410:76,1,104.500003189087,0|2,3:0|0:0,0:0:0:0:
81,129,73171,2,0,P|58:76|63:20,1,104.500003189087,8|2,0:0|0:0,0:0:0:0:
321,165,73546,6,0,L|313:305,1,104.500003189087,4|2,0:0|0:0,0:0:0:0:
313,311,73827,1,0,0:0:0:0:
310,352,73921,1,8,0:0:0:0:
256,96,74108,1,2,0:0:0:0:
202,352,74296,5,4,0:0:0:0:
350,62,74483,1,2,0:0:0:0:
310,352,74671,5,4,0:0:0:0:
162,62,74858,1,2,0:0:0:0:
97,258,75046,5,6,0:0:0:0:
149,255,75139,1,0,0:0:0:0:
201,252,75233,1,0,0:0:0:0:
253,249,75327,1,6,0:0:0:0:
305,247,75421,1,0,0:0:0:0:
357,244,75514,1,0,0:0:0:0:
410,241,75608,2,0,L|415:325,1,52.2500015945435,6|0,0:0|0:0,0:0:0:0:
310,352,75796,5,6,0:0:0:0:
308,299,75889,1,0,0:0:0:0:
305,247,75983,1,0,0:0:0:0:
302,195,76077,1,6,0:0:0:0:
300,143,76171,1,0,0:0:0:0:
297,91,76264,1,0,0:0:0:0:
294,37,76358,2,0,L|378:32,1,52.2500015945435,6|0,0:0|0:0,0:0:0:0:
378,148,76546,6,0,B|319:152|319:152|289:141|289:141|223:145,1,156.750004783631,6|0,0:0|0:0,0:0:0:0:
189,169,76921,2,0,P|150:121|160:75,1,104.500003189087,12|2,0:0|0:0,0:0:0:0:
294,251,77296,2,0,P|283:340|278:382,1,104.500003189087,6|2,1:2|0:0,0:0:0:0:
448,221,77671,1,8,0:0:0:0:
178,292,77858,5,2,0:0:0:0:
178,292,77952,1,2,0:0:0:0:
178,292,78046,1,4,0:0:0:0:
398,336,78233,1,2,0:0:0:0:
304,218,78421,1,8,0:0:0:0:
104,352,78608,5,2,0:0:0:0:
88,314,78702,1,0,0:0:0:0:
86,273,78796,1,2,3:2:0:0:
294,251,78983,1,2,0:0:0:0:
197,167,79171,1,8,0:0:0:0:
405,189,79358,1,2,0:0:0:0:
124,202,79546,6,0,P|84:136|93:59,1,156.750004783631,4|0,0:0|0:0,0:0:0:0:
122,26,79921,1,8,0:0:0:0:
398,162,80108,1,2,0:0:0:0:
398,162,80202,1,0,0:0:0:0:
398,162,80296,2,0,P|342:164|284:166,1,104.500003189087,6|0,3:2|0:0,0:0:0:0:
197,167,80577,1,2,0:0:0:0:
197,167,80671,2,0,P|192:141|193:104,1,52.2500015945435,8|0,0:0|0:0,0:0:0:0:
275,16,80858,2,0,P|280:42|279:79,1,52.2500015945435,2|0,0:0|0:0,0:0:0:0:
119,247,81046,5,4,0:0:0:0:
285,156,81233,1,2,0:0:0:0:
457,241,81421,1,8,0:0:0:0:
191,178,81608,2,0,P|182:118|179:61,1,104.500003189087,2|0,0:0|3:0,0:0:0:0:
256,289,81983,1,2,0:0:0:0:
379,134,82171,2,0,P|375:186|367:237,1,104.500003189087,8|2,0:0|0:0,0:0:0:0:
124,364,82546,6,0,B|162:346|162:346|194:366|194:366|285:372,1,156.750004783631,4|0,0:0|0:0,0:0:0:0:
316,373,82921,1,2,3:2:0:0:
155,262,83108,1,0,1:0:0:0:
145,267,83483,5,0,1:0:0:0:
282,203,83671,1,2,3:0:0:0:
242,57,83858,1,2,3:2:0:0:
401,222,84046,5,6,1:2:0:0:
191,188,84233,1,0,1:0:0:0:
353,138,84421,1,2,1:2:0:0:
198,287,84608,6,0,B|147:286|118:258|118:258|86:258|74:287|85:304,1,156.750004783631,4|0,1:2|0:0,0:0:0:0:
92,321,84983,1,0,1:0:0:0:
191,188,85171,2,0,P|199:137|172:90,1,104.500003189087,0|0,1:0|0:0,0:0:0:0:
206,291,85546,6,0,P|260:289|324:290,1,104.500003189087,4|0,0:0|0:0,0:0:0:0:
352,321,85827,2,0,P|350:266|351:202,1,104.500003189087,4|0,0:0|0:0,0:0:0:0:
366,166,86108,1,4,0:0:0:0:
480,346,86296,5,2,1:2:0:0:
256,216,86483,1,2,0:0:0:0:
256,216,86577,1,4,1:0:0:0:
256,216,86671,1,6,0:0:0:0:
32,346,86858,1,6,1:2:0:0:
381,264,87046,5,2,1:0:0:0:
131,264,87233,1,0,1:0:0:0:
381,264,87421,1,2,1:0:0:0:
131,264,87608,1,2,1:0:0:0:
172,36,87796,6,0,L|241:41,1,52.2500015945435,6|0,1:0|0:0,0:0:0:0:
322,20,87983,2,2,L|317:89,1,52.2500015945435,2|0,1:0|0:0,1:0:0:0:
338,170,88171,2,0,L|269:165,1,52.2500015945435,2|0,1:3|0:0,0:0:0:0:
188,186,88358,2,2,L|193:117,1,52.2500015945435,2|0,1:0|0:0,1:0:0:0:
330,336,88546,6,2,B|273:340|273:340|238:327|238:327|177:333,1,156.750004783631,6|0,1:2|0:0,1:0:0:0:
138,357,88921,2,0,P|99:309|109:263,1,104.500003189087,0|0,1:0|0:0,0:0:0:0:
179,174,89202,1,0,0:0:0:0:
188,186,89296,2,0,L|185:239,1,52.2500015945435,2|0,1:2|0:0,0:0:0:0:
289,150,89483,2,0,L|292:202,1,52.2500015945435,0|0,1:0|0:0,0:0:0:0:
375,252,89671,1,0,1:0:0:0:
254,66,89858,5,2,1:0:0:0:
254,66,89952,1,2,1:0:0:0:
254,66,90046,2,2,B|349:55|312:95|407:86,1,156.750004783631,2|0,1:0|0:0,1:0:0:0:
448,65,90421,1,0,1:0:0:0:
179,174,90608,1,2,1:0:0:0:
179,174,90702,1,2,1:0:0:0:
179,174,90796,2,2,B|141:140|141:140|122:20,2,156.750004783631,2|2|2,1:0|1:0|1:0,1:0:0:0:
333,174,91546,6,0,P|366:136|355:86,1,104.500003189087,2|0,1:0|0:0,0:0:0:0:
304,272,91921,2,0,P|355:272|403:252,1,104.500003189087,2|0,1:0|0:0,0:0:0:0:
342,373,92296,2,0,B|294:358|294:358|257:374|257:374|220:367|176:370,1,156.750004783631,2|0,1:0|0:0,0:0:0:0:
146,383,92671,2,0,P|112:345|123:295,1,104.500003189087,2|0,1:0|0:0,0:0:0:0:
228,261,92952,1,0,0:0:0:0:
219,281,93046,6,2,P|194:221|188:127,1,156.750004783631,6|0,1:0|0:0,1:0:0:0:
205,86,93421,1,0,1:0:0:0:
403,251,93608,1,0,1:0:0:0:
122,296,93796,1,6,1:2:0:0:
299,182,93983,1,2,0:0:0:0:
299,182,94077,1,2,1:0:0:0:
299,182,94171,2,0,L|368:175,1,52.2500015945435,0|0,1:0|0:0,0:0:0:0:
411,270,94358,2,0,L|342:260,1,52.2500015945435,2|0,1:0|0:0,0:0:0:0:
205,86,94546,6,2,B|210:146|210:146|197:182|197:182|202:239,1,156.750004783631,6|0,1:0|0:0,1:0:0:0:
208,286,94921,1,0,1:0:0:0:
105,353,95108,1,0,3:0:0:0:
331,310,95296,1,6,0:0:0:0:
97,232,95483,5,2,1:0:0:0:
262,354,95671,1,2,1:0:0:0:
454,285,95858,1,2,1:0:0:0:
255,363,96046,6,2,P|261:294|269:197,1,156.750004783631,2|0,1:0|0:0,1:0:0:0:
324,117,96421,2,0,L|315:65,1,52.2500015945435,0|0,1:0|0:0,0:0:0:0:
404,107,96608,6,2,P|341:136|253:178,1,156.750004783631,2|0,1:0|0:0,1:0:0:0:
157,170,96983,2,0,L|116:203,1,52.2500015945435,0|0,1:0|0:0,0:0:0:0:
108,105,97171,6,2,P|165:145|245:200,1,156.750004783631,2|0,1:0|0:0,1:0:0:0:
286,288,97546,5,2,1:0:0:0:
428,256,97733,1,2,3:2:0:0:
291,309,97921,1,0,1:0:0:0:
149,277,98108,1,2,3:2:0:0:
30,364,98296,5,2,1:2:0:0:
45,326,98389,1,2,0:0:0:0:
52,284,98483,1,0,0:0:0:0:
51,242,98577,1,2,0:0:0:0:
42,200,98671,1,2,1:2:0:0:
25,161,98764,1,0,0:0:0:0:
25,119,98858,2,2,P|50:101|90:107,1,52.2500015945435,2|0,1:0|0:0,1:0:0:0:
157,170,99046,5,2,1:0:0:0:
287,103,99233,1,2,3:2:0:0:
155,186,99421,1,2,1:0:0:0:
25,119,99608,1,2,3:2:0:0:
153,202,99796,1,2,1:0:0:0:
283,135,99983,1,2,3:2:0:0:
433,245,100171,6,2,B|380:256|316:256|316:256|338:274|355:296,1,156.750004783631,2|0,1:0|0:0,1:0:0:0:
352,299,100546,6,0,P|368:262|359:207,1,95,2|0,1:0|0:0,0:0:0:0:
256,344,100921,2,0,L|261:383,3,31.6666666666667,2|0|0|0,1:0|0:0|0:0|0:0,0:0:0:0:
161,301,101296,2,0,L|110:306,3,47.5,2|0|0|0,1:0|0:0|0:0|0:0,0:0:0:0:
69,319,101671,2,0,L|76:253,1,47.5,2|0,1:0|0:0,0:0:0:0:
123,207,101858,2,0,L|116:141,1,47.5,2|0,1:0|0:0,0:0:0:0:
107,78,102046,5,6,0:0:0:0:
239,169,102233,1,2,0:0:0:0:
396,129,102421,2,0,P|352:92|311:100,1,95,8|2,0:0|0:0,0:0:0:0:
160,241,102796,1,0,3:0:0:0:
214,56,102983,1,2,0:0:0:0:
331,184,103171,1,8,0:0:0:0:
158,161,103358,1,2,0:0:0:0:
318,96,103546,6,0,P|365:95|397:129,1,95,0|2,3:0|0:0,0:0:0:0:
277,254,103921,2,0,P|243:223|244:177,1,95,8|2,0:0|0:0,0:0:0:0:
198,320,104296,1,0,3:0:0:0:
331,184,104483,1,2,0:0:0:0:
458,273,104671,2,0,P|410:268|363:264,1,95,8|2,0:0|0:0,0:0:0:0:
321,90,105046,6,0,P|345:129|337:175,1,95,0|2,3:0|0:0,0:0:0:0:
179,237,105421,1,8,0:0:0:0:
288,355,105608,2,0,P|283:307|277:260,1,95,2|0,0:0|0:0,0:0:0:0:
156,144,105983,1,2,0:0:0:0:
81,255,106171,2,0,P|143:249|185:246,1,95,8|2,0:0|0:0,0:0:0:0:
394,212,106546,6,0,P|332:224|260:181,1,142.5,2|0,3:2|0:0,0:0:0:0:
248,147,106921,1,10,0:0:0:0:
272,285,107108,1,2,0:0:0:0:
344,124,107296,2,0,P|346:68|327:27,1,95,2|2,3:2|0:0,0:0:0:0:
138,204,107671,2,0,P|181:222|229:220,1,95,10|2,0:2|0:0,0:0:0:0:
201,119,108046,5,4,0:0:0:0:
165,310,108233,1,2,0:0:0:0:
295,146,108421,1,8,0:0:0:0:
312,282,108608,1,2,0:0:0:0:
385,106,108796,1,2,3:2:0:0:
229,220,108983,1,2,0:0:0:0:
434,324,109171,2,0,P|431:281|426:226,1,95,8|2,0:0|0:0,0:0:0:0:
212,324,109546,5,2,3:2:0:0:
319,276,109733,1,2,0:0:0:0:
238,148,109921,2,0,P|285:151|333:154,1,95,8|2,0:0|0:0,0:0:0:0:
426,229,110296,5,0,3:0:0:0:
367,57,110483,1,2,0:0:0:0:
213,227,110671,1,8,0:0:0:0:
265,73,110858,1,2,0:0:0:0:
333,154,111046,6,0,P|285:151|150:145,1,142.5,0|0,3:0|0:0,0:0:0:0:
149,159,111421,2,0,P|127:113|141:69,1,95,0|2,1:0|0:0,0:0:0:0:
169,42,111702,1,2,0:0:0:0:
169,42,111796,1,2,0:0:0:0:
80,344,112171,1,2,1:2:0:0:
426,229,112546,5,6,0:0:0:0:
396,217,112639,1,2,0:0:0:0:
363,213,112733,1,2,0:0:0:0:
330,217,112827,1,6,0:0:0:0:
299,229,112921,1,2,0:0:0:0:
268,240,113014,1,2,0:0:0:0:
234,244,113108,1,6,0:0:0:0:
201,241,113202,1,2,0:0:0:0:
171,228,113296,5,6,1:2:0:0:
103,150,113483,2,0,L|99:125,4,23.75,4|0|0|0|0,3:0|0:0|0:0|0:0|3:0,0:0:0:0:
69,249,113858,1,4,3:0:0:0:
153,73,114046,6,0,P|105:67|58:63,1,95,4|2,0:0|0:0,0:0:0:0:
235,142,114421,1,8,0:0:0:0:
217,0,114608,1,2,0:0:0:0:
248,147,114796,1,0,3:0:0:0:
369,70,114983,1,2,0:0:0:0:
261,152,115171,1,8,0:0:0:0:
123,115,115358,1,2,0:0:0:0:
32,225,115546,6,0,P|76:202|125:210,1,95,0|2,3:0|0:0,0:0:0:0:
99,341,115921,1,8,0:0:0:0:
235,295,116108,1,2,0:0:0:0:
235,295,116202,1,2,0:0:0:0:
235,295,116296,1,0,3:0:0:0:
369,341,116483,1,2,0:0:0:0:
231,280,116671,1,8,0:0:0:0:
363,228,116858,1,2,0:0:0:0:
126,201,117046,6,0,P|100:157|105:115,1,95,0|2,3:0|0:0,0:0:0:0:
209,6,117421,1,8,0:0:0:0:
396,142,117608,2,0,B|343:113|290:121|320:142|267:150|214:118,1,190,2|2,0:0|0:0,0:0:0:0:
93,265,118171,2,0,P|137:242|186:250,1,95,8|2,0:0|0:0,0:0:0:0:
256,336,118546,5,0,3:0:0:0:
363,307,118733,1,2,0:0:0:0:
259,350,118921,1,2,0:0:0:0:
148,317,119108,1,2,0:0:0:0:
42,354,119296,2,0,P|38:330|36:299,3,47.5,2|0|2|0,0:0|0:0|0:0|0:0,0:0:0:0:
103,217,119671,2,0,L|99:244,6,23.75,2|0|0|0|2|0|0,3:2|0:0|0:0|0:0|0:0|0:0|0:0,0:0:0:0:
23,160,120046,6,0,P|1:118|14:73,1,95,4|2,0:0|0:0,0:0:0:0:
148,28,120421,1,8,0:0:0:0:
196,161,120608,1,2,0:0:0:0:
331,116,120796,1,0,3:2:0:0:
192,172,120983,1,2,0:0:0:0:
321,111,121171,2,0,P|369:108|448:107,1,95,8|2,0:0|0:0,0:0:0:0:
188,183,121546,6,0,P|160:135|165:85,1,95,0|2,3:0|0:0,0:0:0:0:
297,222,121921,1,8,0:0:0:0:
111,306,122108,1,2,0:0:0:0:
111,306,122202,1,2,0:0:0:0:
111,306,122296,2,0,P|158:301|206:297,1,95,0|2,3:0|0:0,0:0:0:0:
400,295,122671,1,8,0:0:0:0:
289,233,122858,1,2,0:0:0:0:
443,362,123046,6,0,P|433:291|427:220,1,142.5,4|0,0:0|0:0,0:0:0:0:
440,184,123421,2,0,P|391:198|354:177,1,95,8|2,0:0|0:0,0:0:0:0:
406,83,123796,1,2,3:2:0:0:
246,185,123983,1,2,0:0:0:0:
246,185,124077,1,2,0:0:0:0:
246,185,124171,1,8,0:0:0:0:
74,106,124358,1,2,0:0:0:0:
0,277,124546,5,6,1:2:0:0:
27,238,124639,1,2,0:0:0:0:
69,217,124733,1,2,1:2:0:0:
116,217,124827,1,2,0:0:0:0:
158,238,124921,1,2,1:2:0:0:
191,272,125014,1,2,0:0:0:0:
235,287,125108,1,2,1:2:0:0:
282,281,125202,1,2,0:0:0:0:
321,255,125296,5,6,0:0:0:0:
170,140,125483,1,2,1:2:0:0:
170,140,125577,1,0,1:0:0:0:
170,140,125671,1,4,1:2:0:0:
92,312,125858,1,2,1:2:0:0:
323,238,126046,6,0,B|254:228|254:228|223:247|223:247|159:238,1,170.999994781494,4|0,0:0|1:0,0:0:0:0:
385,162,126608,2,0,P|423:234|391:311,1,170.999994781494,0|0,3:0|3:0,0:0:0:0:
287,153,127171,2,0,P|283:113|279:61,1,85.4999973907472,0|0,1:0|0:0,0:0:0:0:
384,59,127546,5,2,3:2:0:0:
323,238,127733,1,0,3:0:0:0:
142,184,127921,1,0,1:2:0:0:
332,245,128108,2,0,P|379:241|443:237,1,85.4999973907472,0|2,1:0|0:0,0:0:0:0:
241,301,128483,1,2,3:2:0:0:
376,133,128671,2,0,P|328:129|265:125,1,85.4999973907472,2|2,1:2|0:0,0:0:0:0:
80,97,129046,6,0,P|37:168|57:249,1,170.999994781494,2|0,3:2|3:0,0:0:0:0:
227,179,129608,2,0,P|184:182|141:184,1,85.4999973907472,0|2,1:0|0:0,0:0:0:0:
339,228,129983,2,0,P|341:185|344:142,1,85.4999973907472,0|0,1:0|0:0,0:0:0:0:
241,301,130358,1,2,3:2:0:0:
449,277,130546,6,0,P|492:205|472:124,1,170.999994781494,6|0,3:2|3:0,0:0:0:0:
288,46,131108,1,0,0:0:0:0:
142,183,131296,1,2,1:0:0:0:
177,183,131389,1,0,3:0:0:0:
212,183,131483,1,2,1:0:0:0:
247,183,131577,1,0,3:0:0:0:
282,183,131671,1,2,1:0:0:0:
316,183,131764,1,2,3:0:0:0:
351,184,131858,2,2,L|347:126,1,42.7499986953736,2|0,1:0|0:0,0:0:0:0:
288,46,132046,5,4,0:0:0:0:
414,322,132233,1,2,0:0:0:0:
463,85,132421,5,0,1:0:0:0:
239,283,132608,1,2,0:0:0:0:
282,40,132796,5,0,1:0:0:0:
420,328,132983,1,2,0:0:0:0:
469,79,133171,5,0,1:0:0:0:
233,289,133358,1,2,0:0:0:0:
0,23,133546,6,0,L|9:125,1,95,0|2,1:0|0:0,0:0:0:0:
233,289,133921,1,0,1:0:0:0:
93,326,134108,1,2,0:0:0:0:
93,326,134202,1,2,0:0:0:0:
93,326,134296,2,0,L|102:231,1,95,0|2,1:0|0:0,0:0:0:0:
282,40,134671,1,0,1:0:0:0:
142,3,134858,5,2,0:0:0:0:
142,3,134952,1,2,0:0:0:0:
142,3,135046,2,0,L|151:97,1,95,4|2,0:0|0:0,0:0:0:0:
163,187,135327,2,0,L|270:194,1,95,6|0,1:2|0:0,0:0:0:0:
347,200,135608,2,0,L|343:257,1,47.5,6|0,1:2|0:0,0:0:0:0:
249,288,135796,6,0,L|258:194,1,95,6|2,1:2|0:0,0:0:0:0:
265,103,136077,2,0,L|370:93,1,95,6|0,1:2|0:0,0:0:0:0:
449,86,136358,2,0,L|443:28,1,47.5,6|0,1:2|0:0,0:0:0:0:
356,0,136546,5,6,1:2:0:0:
211,233,137296,2,0,P|251:228|314:224,1,85.4999973907472,6|0,0:0|0:0,0:0:0:0:
310,227,137671,5,2,0:0:0:0:
254,105,137858,1,0,0:0:0:0:
182,339,138046,6,0,B|248:334|248:334|268:346|268:346|336:342,1,156.750004783631,4|0,0:0|0:0,0:0:0:0:
375,354,138421,2,0,P|400:313|386:259,1,104.500003189087,12|2,0:0|0:0,0:0:0:0:
254,105,138796,2,0,P|261:164|266:209,1,104.500003189087,0|2,1:0|0:0,0:0:0:0:
131,267,139171,1,8,0:0:0:0:
356,167,139358,5,2,0:0:0:0:
356,167,139452,1,2,0:0:0:0:
356,167,139546,1,4,0:0:0:0:
160,159,139733,1,2,0:0:0:0:
388,261,139921,1,8,0:0:0:0:
131,267,140108,1,2,0:0:0:0:
324,73,140296,5,0,1:0:0:0:
160,159,140483,1,2,0:0:0:0:
160,159,140577,1,2,0:0:0:0:
160,159,140671,1,8,0:0:0:0:
388,261,140858,1,2,0:0:0:0:
306,86,141046,6,0,L|294:260,1,156.750004783631,4|0,0:0|0:0,0:0:0:0:
292,287,141421,1,8,0:0:0:0:
55,164,141608,1,2,0:0:0:0:
55,164,141702,1,2,0:0:0:0:
55,164,141796,2,0,L|160:159,1,104.500003189087,2|0,1:2|0:0,0:0:0:0:
234,139,142077,1,2,0:0:0:0:
234,139,142171,2,0,L|229:199,1,52.2500015945435,10|0,0:0|0:0,0:0:0:0:
117,309,142358,2,0,L|112:256,1,52.2500015945435,2|0,0:0|0:0,0:0:0:0:
91,56,142546,5,4,0:0:0:0:
13,268,142733,1,2,0:0:0:0:
176,85,142921,1,10,0:2:0:0:
198,268,143108,1,2,0:0:0:0:
239,275,143202,1,2,0:0:0:0:
278,260,143296,1,2,3:2:0:0:
106,177,143483,1,2,0:0:0:0:
234,17,143671,5,10,0:0:0:0:
260,49,143764,1,0,0:0:0:0:
268,89,143858,1,2,0:0:0:0:
257,129,143952,1,2,0:0:0:0:
228,159,144046,2,0,L|235:266,1,104.500003189087,6|0,0:0|0:0,0:0:0:0:
139,370,144421,1,8,0:0:0:0:
350,278,144608,2,0,P|295:274|238:271,1,104.500003189087,2|0,0:0|3:2,0:0:0:0:
139,14,144983,1,2,0:0:0:0:
350,106,145171,2,0,P|295:110|238:113,1,104.500003189087,8|2,0:0|0:0,0:0:0:0:
98,365,145546,6,0,B|138:331|182:334|182:334|205:353|243:359,1,156.750004783631,4|0,0:0|0:0,0:0:0:0:
284,345,145921,1,8,0:0:0:0:
132,248,146108,1,2,0:0:0:0:
364,276,146296,2,0,P|376:327|388:389,1,104.500003189087,0|2,1:2|0:0,0:0:0:0:
260,136,146671,2,0,P|267:85|275:26,1,104.500003189087,8|2,0:0|0:0,0:0:0:0:
503,167,147046,6,0,P|444:187|392:169,1,104.500003189087,2|0,1:2|1:0,0:0:0:0:
371,150,147327,1,0,0:0:0:0:
371,150,147421,1,0,1:0:0:0:
188,222,147608,1,2,1:2:0:0:
311,280,147796,2,0,L|300:221,1,52.2500015945435,2|0,1:2|0:0,0:0:0:0:
220,69,147983,2,0,L|209:128,1,52.2500015945435,2|0,1:2|0:0,0:0:0:0:
126,322,148171,5,0,1:0:0:0:
140,295,148264,1,0,0:0:0:0:
166,277,148358,1,2,1:2:0:0:
197,272,148452,1,0,0:0:0:0:
228,279,148546,5,6,1:2:0:0:
269,310,148639,1,2,0:0:0:0:
320,314,148733,1,2,0:0:0:0:
365,288,148827,1,6,1:2:0:0:
389,242,148921,1,2,0:0:0:0:
380,191,149014,1,2,0:0:0:0:
346,153,149108,2,0,P|332:173|333:211,1,52.2500015945435,6|2,1:2|0:0,0:0:0:0:
414,105,149296,5,6,1:2:0:0:
372,73,149389,1,2,0:0:0:0:
319,74,149483,1,2,0:0:0:0:
278,107,149577,1,6,1:2:0:0:
237,140,149671,1,2,0:0:0:0:
184,141,149764,1,2,0:0:0:0:
142,109,149858,2,0,P|128:89|129:51,1,52.2500015945435,6|2,1:2|0:0,0:0:0:0:
236,248,150046,6,0,B|188:237|188:237|158:254|158:254|81:260,1,156.750004783631,6|0,0:0|0:0,0:0:0:0:
46,244,150421,2,0,P|65:192|113:183,1,104.500003189087,8|2,0:0|0:0,0:0:0:0:
265,356,150796,2,0,B|241:310|241:310|245:257,1,104.500003189087,6|2,1:2|0:0,0:0:0:0:
346,153,151171,1,8,0:0:0:0:
210,60,151358,5,2,0:0:0:0:
210,60,151452,1,2,0:0:0:0:
210,60,151546,2,0,P|217:112|223:167,1,104.500003189087,6|2,0:0|0:0,0:0:0:0:
141,336,151921,1,8,0:0:0:0:
343,290,152108,1,2,0:0:0:0:
131,195,152296,5,2,1:2:0:0:
335,210,152483,1,2,0:0:0:0:
89,72,152671,5,10,1:2:0:0:
368,130,152858,1,2,0:0:0:0:
81,269,153046,6,0,P|75:151|78:98,1,156.750004783631,4|0,0:0|0:0,0:0:0:0:
89,72,153421,1,8,0:0:0:0:
335,210,153608,1,2,0:0:0:0:
335,210,153702,1,2,0:0:0:0:
335,210,153796,2,0,P|274:215|230:216,1,104.500003189087,6|0,1:2|0:0,0:0:0:0:
155,209,154077,1,2,0:0:0:0:
155,209,154171,2,0,L|150:150,1,52.2500015945435,8|0,0:0|0:0,0:0:0:0:
248,78,154358,2,0,L|243:130,1,52.2500015945435,2|0,0:0|0:0,0:0:0:0:
176,331,154546,5,4,0:0:0:0:
263,296,154733,1,2,0:0:0:0:
346,338,154921,1,2,0:0:0:0:
422,283,155108,2,0,P|426:220|435:133,1,114,2|0,0:0|0:0,0:0:0:0:
476,91,155483,5,0,1:0:0:0:
435,79,155577,1,0,0:0:0:0:
393,86,155671,1,2,1:2:0:0:
360,111,155764,1,0,0:0:0:0:
327,136,155858,1,2,1:2:0:0:
285,143,155952,1,0,0:0:0:0:
243,130,156046,6,0,P|244:222|248:298,1,156.750004783631,6|0,0:0|0:0,0:0:0:0:
253,328,156421,1,2,3:2:0:0:
416,274,156608,1,0,1:0:0:0:
426,283,156983,5,0,1:0:0:0:
258,367,157171,1,2,3:0:0:0:
90,297,157358,1,2,3:2:0:0:
394,360,157546,5,6,1:2:0:0:
251,242,157733,1,0,1:0:0:0:
122,374,157921,1,2,1:2:0:0:
360,186,158108,6,0,B|308:181|308:181|273:157|273:157|210:166,1,156.750004783631,6|0,0:0|0:0,0:0:0:0:
194,178,158483,1,0,1:0:0:0:
336,100,158671,2,0,B|350:47|350:47|341:-1,1,104.500003189087,2|0,1:2|0:0,0:0:0:0:
96,166,159046,6,0,P|107:229|139:260,1,104.500003189087,4|0,0:0|0:0,0:0:0:0:
181,277,159327,2,0,P|244:266|275:234,1,104.500003189087,4|0,0:0|0:0,0:0:0:0:
292,192,159608,1,4,0:0:0:0:
72,344,159796,5,0,1:0:0:0:
194,178,159983,1,2,0:0:0:0:
194,178,160077,1,0,1:0:0:0:
194,178,160171,1,6,0:0:0:0:
417,202,160358,1,6,1:2:0:0:
87,230,160546,6,0,L|79:173,1,52.2500015945435,4|0,1:2|0:0,0:0:0:0:
303,126,160733,2,0,L|295:177,1,52.2500015945435,0|0,1:0|0:0,0:0:0:0:
276,281,160921,1,2,1:2:0:0:
241,269,161014,1,0,0:0:0:0:
213,246,161108,1,2,1:2:0:0:
196,214,161202,1,0,0:0:0:0:
194,178,161296,6,0,L|186:121,1,52.2500015945435,6|0,1:2|0:0,0:0:0:0:
417,202,161483,2,0,L|401:255,1,52.2500015945435,0|0,1:0|0:0,0:0:0:0:
358,384,161671,1,2,1:2:0:0:
323,372,161764,1,0,0:0:0:0:
295,349,161858,1,2,1:2:0:0:
278,317,161952,1,0,0:0:0:0:
276,281,162046,6,0,B|283:228|283:228|297:169,1,104.500003189087,6|0,1:0|0:0,0:0:0:0:
152,119,162327,2,0,B|163:168|163:168|170:221,1,104.500003189087,2|0,1:0|0:0,0:0:0:0:
113,320,162608,1,2,1:0:0:0:
391,277,162796,5,2,1:0:0:0:
272,159,162983,1,0,3:2:0:0:
263,133,163077,2,2,P|344:145|389:146,1,104.500003189087,2|0,1:0|0:0,1:0:0:0:
400,135,163358,1,2,1:0:0:0:
188,37,163546,6,0,B|138:52|138:52|89:55|89:55|69:85|94:140,1,156.750004783631,2|0,1:0|0:0,0:0:0:0:
176,224,163921,2,0,P|193:171|161:134,1,104.500003189087,0|0,1:0|0:0,0:0:0:0:
57,241,164296,6,0,L|67:292,1,52.2500015945435,0|0,3:0|0:0,0:0:0:0:
77,339,164483,2,0,B|113:314|113:314|146:331|146:331|185:328|232:325,1,156.750004783631,2|0,1:0|0:0,0:0:0:0:
324,355,164858,6,0,P|328:330|334:304,1,52.2500015945435,2|0,1:0|0:0,0:0:0:0:
260,219,165046,2,0,P|315:223|337:125,1,156.750004783631,2|0,1:0|0:0,0:0:0:0:
315,104,165421,1,0,1:0:0:0:
166,188,165608,1,2,1:0:0:0:
417,226,165796,5,2,1:0:0:0:
224,108,165983,2,0,L|218:72,3,34.8333343963623,2|0|0|2,1:0|0:0|0:0|1:0,0:0:0:0:
63,202,166358,1,2,1:0:0:0:
362,99,166546,5,2,1:0:0:0:
116,52,166733,1,2,3:2:0:0:
77,339,166921,5,2,1:0:0:0:
371,296,167108,1,2,3:2:0:0:
224,108,167296,5,2,1:0:0:0:
234,295,167483,1,2,3:2:0:0:
427,226,167671,2,0,P|364:203|321:220,1,104.500003189087,2|2,1:0|3:2,0:0:0:0:
141,296,168046,6,0,P|136:217|130:139,1,156.750004783631,6|0,1:0|0:0,0:0:0:0:
114,98,168421,1,0,1:0:0:0:
324,145,168608,2,0,L|321:206,1,52.2500015945435,2|0,1:0|0:0,0:0:0:0:
227,168,168796,5,0,1:0:0:0:
411,182,168983,1,2,1:0:0:0:
411,182,169077,1,2,1:0:0:0:
411,182,169171,1,0,1:0:0:0:
176,267,169358,1,2,1:0:0:0:
211,46,169546,6,0,B|263:59|263:59|302:57|302:57|334:67|342:118,1,156.750004783631,2|0,1:0|0:0,0:0:0:0:
324,145,169921,1,0,1:0:0:0:
128,198,170108,2,0,L|125:145,1,52.2500015945435,2|0,1:0|0:0,0:0:0:0:
227,168,170296,5,0,1:0:0:0:
135,333,170483,1,2,1:0:0:0:
135,333,170577,1,2,1:0:0:0:
135,333,170671,1,0,1:0:0:0:
200,55,170858,1,2,1:0:0:0:
484,175,171046,5,2,1:0:0:0:
128,198,171233,1,2,3:2:0:0:
503,274,171421,2,0,L|492:164,1,104.500003189087,2|2,1:0|3:2,3:0:0:0:
300,8,171796,6,0,L|280:92,1,52.2500015945435,2|0,1:0|3:0,3:0:0:0:
245,185,171983,2,0,B|288:172|288:172|320:191|320:191|405:184,1,156.750004783631,2|0,1:0|0:0,0:0:0:0:
431,93,172358,2,0,L|353:100,1,52.2500015945435,2|0,1:0|3:0,3:0:0:0:
158,121,172546,5,2,1:2:0:0:
139,163,172639,1,0,0:0:0:0:
139,210,172733,1,2,1:2:0:0:
159,252,172827,1,2,0:0:0:0:
196,281,172921,2,0,L|248:276,1,52.2500015945435,2|0,1:2|3:0,3:0:0:0:
310,174,173108,2,0,L|257:178,1,52.2500015945435,2|0,1:2|3:0,3:0:0:0:
62,342,173296,5,2,1:0:0:0:
348,266,173483,1,0,3:0:0:0:
348,266,173577,1,2,1:0:0:0:
348,266,173671,1,0,1:0:0:0:
158,121,173858,2,0,L|162:173,1,52.2500015945435,2|2,1:0|0:0,0:0:0:0:
356,286,174046,5,6,1:2:0:0:
314,283,174139,1,0,0:0:0:0:
272,280,174233,1,0,1:0:0:0:
230,277,174327,1,2,1:0:0:0:
189,273,174421,2,0,L|98:266,1,52.2500015945435,2|0,1:0|0:0,0:0:0:0:
14,358,174608,2,0,L|66:353,1,52.2500015945435,2|0,1:0|0:0,0:0:0:0:
309,196,174796,5,6,1:2:0:0:
309,196,174889,1,0,0:0:0:0:
309,196,174983,2,0,L|256:191,1,52.2500015945435,2|0,1:0|0:0,0:0:0:0:
32,248,175171,1,2,1:0:0:0:
32,248,175264,1,0,0:0:0:0:
32,248,175358,2,0,L|27:195,1,52.2500015945435,2|0,1:0|0:0,0:0:0:0:
120,50,175546,5,6,1:0:0:0:
123,92,175639,1,0,0:0:0:0:
126,134,175733,1,0,1:0:0:0:
129,176,175827,1,2,1:0:0:0:
133,217,175921,2,0,L|140:308,1,52.2500015945435,2|0,1:0|0:0,0:0:0:0:
262,358,176108,2,0,L|266:305,1,52.2500015945435,2|0,1:0|0:0,0:0:0:0:
219,80,176296,5,2,1:0:0:0:
219,80,176389,1,0,0:0:0:0:
219,80,176483,2,0,L|224:133,1,52.2500015945435,2|0,1:0|0:0,0:0:0:0:
236,232,176671,1,2,1:0:0:0:
276,224,176764,1,0,0:0:0:0:
313,242,176858,1,2,1:0:0:0:
350,260,176952,1,2,1:0:0:0:
390,252,177046,6,0,L|395:199,1,52.2500015945435,6|0,1:0|0:0,0:0:0:0:
318,44,177233,2,0,L|323:97,1,52.2500015945435,2|0,1:0|0:0,0:0:0:0:
465,119,177421,2,0,L|412:114,1,52.2500015945435,2|0,1:0|0:0,0:0:0:0:
256,191,177608,2,0,L|309:186,1,52.2500015945435,2|0,1:0|0:0,0:0:0:0:
468,278,177796,5,6,1:2:0:0:
431,258,177889,1,0,0:0:0:0:
390,252,177983,1,2,1:0:0:0:
349,260,178077,1,0,0:0:0:0:
314,283,178171,1,2,1:0:0:0:
279,306,178264,1,0,0:0:0:0:
238,314,178358,1,2,1:0:0:0:
197,308,178452,1,2,1:0:0:0:
160,288,178546,6,2,L|156:238,4,34.8333343963623,6|0|0|0|0,1:0|0:0|0:0|0:0|0:0,1:0:0:0:
253,156,178921,2,2,L|255:190,4,34.8333343963623,2|0|0|0|0,1:0|0:0|0:0|0:0|0:0,1:0:0:0:
349,260,179296,2,2,L|351:225,4,34.8333343963623,2|0|0|0|0,1:0|0:0|0:0|0:0|0:0,1:0:0:0:
442,128,179671,2,0,L|437:180,1,52.2500015945435,2|0,1:0|0:0,0:0:0:0:
418,361,179858,5,2,1:0:0:0:
418,361,179952,1,2,1:0:0:0:
418,361,180046,2,0,B|379:342|379:342|351:360|351:360|264:366,1,156.750004783631,6|0,1:0|0:0,0:0:0:0:
230,368,180421,1,2,1:0:0:0:
117,205,180608,2,0,L|123:269,1,52.2500015945435,2|0,1:0|0:0,0:0:0:0:
205,280,180796,6,0,L|348:270,1,104.500003189087,2|0,1:0|0:0,0:0:0:0:
324,184,181077,1,2,1:0:0:0:
324,184,181171,2,0,L|249:189,1,52.2500015945435,2|0,1:0|0:0,0:0:0:0:
192,97,181358,2,0,L|265:104,1,52.2500015945435,2|0,1:0|0:0,0:0:0:0:
404,247,181546,6,0,P|369:203|365:44,1,209.000006378174,2|2,1:0|1:0,0:0:0:0:
194,202,182108,1,2,1:0:0:0:
442,128,182296,1,2,1:0:0:0:
242,7,182483,1,0,1:0:0:0:
242,7,182577,1,2,1:0:0:0:
242,7,182671,2,0,P|247:57|254:132,1,104.500003189087,0|2,1:0|1:0,0:0:0:0:
150,346,183046,6,0,P|115:301|124:253,1,104.500003189087,4|0,0:0|0:0,0:0:0:0:
180,192,183327,2,0,P|242:199|295:207,1,104.500003189087,4|0,0:0|0:0,0:0:0:0:
367,172,183608,2,2,L|359:112,1,52.2500015945435,2|0,1:0|0:0,1:0:0:0:
242,7,183796,6,0,P|247:57|254:132,1,104.500003189087,4|0,0:0|0:0,0:0:0:0:
287,198,184077,2,0,P|281:250|277:303,1,104.500003189087,4|0,0:0|0:0,0:0:0:0:
233,384,184358,1,4,0:0:0:0:
407,315,184546,5,6,1:0:0:0:
361,340,184639,1,0,3:0:0:0:
310,350,184733,1,2,1:0:0:0:
258,344,184827,1,0,3:0:0:0:
211,321,184921,1,2,1:0:0:0:
174,285,185014,1,0,3:0:0:0:
149,240,185108,1,2,1:0:0:0:
140,188,185202,1,0,3:0:0:0:
148,137,185296,5,6,1:2:0:0:
193,111,185389,1,0,3:0:0:0:
244,101,185483,1,2,1:0:0:0:
296,107,185577,1,0,3:0:0:0:
343,130,185671,1,2,1:0:0:0:
380,166,185764,1,0,3:0:0:0:
405,211,185858,1,0,1:0:0:0:
414,263,185952,1,0,1:3:0:0:
92,338,187546,6,0,B|66:283|82:227,1,113.999996520996,2|2,0:0|0:0,0:0:0:0:
180,260,188296,1,2,0:0:0:0:
256,192,188671,1,2,0:0:0:0:
231,92,189046,6,0,B|292:82|282:110|343:99,1,113.999996520996,2|2,0:0|0:0,0:0:0:0:
386,71,189608,2,0,P|410:110|402:194,1,113.999996520996,2|2,0:0|0:0,0:0:0:0:
377,217,190171,2,0,L|386:279,1,56.9999982604981,2|0,0:0|0:0,0:0:0:0:
407,358,190546,6,0,P|368:326|281:327,1,113.999996520996,2|0,0:0|0:0,0:0:0:0:
212,369,191108,2,0,B|224:294|224:294|216:244,1,113.999996520996,2|2,0:0|0:0,0:0:0:0:
194,170,191671,2,0,L|136:178,1,56.9999982604981,2|0,0:0|0:0,0:0:0:0:
50,200,192046,5,2,0:0:0:0:
231,92,192421,1,2,0:0:0:0:
399,223,192796,2,0,P|395:203|393:172,3,28.4999991302491,2|0|0|0,0:0|0:0|0:0|0:0,0:0:0:0:
470,119,193171,2,0,P|468:133|465:147,3,28.4999991302491,2|0|0|0,0:0|0:0|0:0|0:0,0:0:0:0:
319,244,193546,6,0,P|306:213|320:145,1,95,4|0,0:0|0:0,0:0:0:0:
411,311,193921,1,0,1:0:0:0:
217,265,194108,1,0,0:0:0:0:
217,265,194202,1,0,0:0:0:0:
217,265,194296,2,0,P|208:217|205:147,1,95,0|0,3:0|0:0,0:0:0:0:
380,74,194671,1,0,1:0:0:0:
120,226,194858,5,2,0:0:0:0:
120,226,194952,1,2,0:0:0:0:
120,226,195046,1,4,0:0:0:0:
411,311,195233,1,2,0:0:0:0:
111,318,195421,5,0,1:0:0:0:
400,224,195608,1,2,0:0:0:0:
129,134,195796,5,4,0:0:0:0:
399,211,195983,1,2,0:0:0:0:
120,226,196171,5,0,1:0:0:0:
400,114,196358,1,2,0:0:0:0:
138,42,196546,5,4,0:0:0:0:
265,251,196733,1,2,1:2:0:0:
406,74,196921,5,0,1:0:0:0:
195,202,197108,1,2,1:2:0:0:
374,342,197296,5,4,0:0:0:0:
247,133,197483,1,2,1:2:0:0:
106,310,197671,5,0,1:0:0:0:
315,183,197858,1,2,1:2:0:0:
138,42,198046,5,4,0:0:0:0:
106,310,198233,1,0,1:0:0:0:
214,20,198421,5,4,0:0:0:0:
306,328,198608,1,0,1:0:0:0:
298,20,198796,5,6,0:0:0:0:
206,328,198983,1,0,1:3:0:0:
214,20,199171,5,6,1:0:0:0:
406,310,199358,1,0,1:0:0:0:
374,41,199546,6,0,P|370:74|367:112,1,66.4999979705811,2|2,0:0|0:0,0:0:0:0:
314,248,199921,2,0,P|310:214|307:177,1,66.4999979705811,2|2,0:0|0:0,0:0:0:0:
92,128,200296,2,0,B|172:114|148:151|222:138,1,132.999995941162,2|2,0:0|0:0,0:0:0:0:
406,310,201046,6,0,P|420:281|421:231,1,66.4999979705811,2|2,0:0|0:0,0:0:0:0:
307,81,201421,2,0,P|321:110|322:160,1,66.4999979705811,2|2,0:0|0:0,0:0:0:0:
191,272,201796,1,2,0:0:0:0:
314,248,201983,1,2,0:0:0:0:
189,285,202171,1,2,0:0:0:0:
87,204,202358,1,2,0:0:0:0:
3,349,202546,6,0,P|45:331|76:333,1,66.4999979705811,2|0,0:0|0:0,0:0:0:0:
247,317,202921,2,0,P|214:314|184:298,1,66.4999979705811,2|2,0:0|0:0,0:0:0:0:
92,188,203296,1,2,0:0:0:0:
239,133,203483,1,2,0:0:0:0:
248,222,203671,1,2,0:0:0:0:
152,91,203858,1,2,0:0:0:0:
320,77,204046,6,0,P|352:92|369:135,1,66.4999979705811,2|2,0:0|0:0,0:0:0:0:
331,263,204421,2,0,P|327:227|356:191,1,66.4999979705811,2|2,0:0|0:0,0:0:0:0:
486,160,204796,2,0,P|457:180|411:173,1,66.4999979705811,2|2,0:0|0:0,0:0:0:0:
320,77,205171,1,2,0:0:0:0:
493,149,205546,6,0,B|497:206|497:206|508:226|508:226|503:287,1,132.999995941162,2|2,3:2|0:0,0:0:0:0:
407,319,206108,2,0,L|414:250,1,66.4999979705811,2|2,0:0|0:0,0:0:0:0:
319,360,206483,1,2,0:0:0:0:
249,220,206671,2,0,L|255:286,1,66.4999979705811,2|2,0:0|0:0,0:0:0:0:
144,370,207046,6,0,P|100:358|74:275,1,132.999995941162,2|2,3:2|0:0,0:0:0:0:
173,131,207796,2,0,P|170:173|164:235,2,99.7499969558717,2|2|2,0:0|0:0|0:0,0:0:0:0:
72,34,208546,6,0,P|74:69|78:106,1,66.4999979705811,2|0,0:0|0:0,0:0:0:0:
244,222,208921,2,0,P|246:186|250:150,1,66.4999979705811,2|2,0:0|0:0,0:0:0:0:
411,70,209296,1,2,0:0:0:0:
493,184,209483,1,2,0:0:0:0:
314,84,209671,1,2,0:0:0:0:
489,10,209858,1,2,0:0:0:0:
374,165,210046,6,0,B|299:152|323:194|245:182,1,132.999995941162,2|2,0:0|0:0,0:0:0:0:
182,105,210608,2,0,P|62:92|154:192,1,332.499989852906,2|2,0:0|0:0,0:0:0:0:
51,296,212296,6,0,P|102:291|163:288,1,104.500003189087,4|0,0:0|0:0,0:0:0:0:
355,334,212671,1,8,0:0:0:0:
262,160,212858,1,2,0:0:0:0:
262,160,212952,1,2,0:0:0:0:
262,160,213046,2,0,P|267:211|272:270,1,104.500003189087,4|0,0:0|0:0,0:0:0:0:
155,184,213421,1,8,0:0:0:0:
333,73,213608,1,2,0:0:0:0:
455,189,213796,5,6,0:0:0:0:
194,106,213983,1,2,0:0:0:0:
194,106,214077,1,0,0:0:0:0:
194,106,214171,2,0,L|182:2,1,104.500003189087,8|2,0:0|0:0,0:0:0:0:
464,197,214546,2,0,L|452:301,1,104.500003189087,6|2,0:0|0:0,0:0:0:0:
108,368,214921,5,12,0:2:0:0:
72,337,215014,1,0,0:0:0:0:
51,296,215108,1,2,0:0:0:0:
48,249,215202,1,2,0:0:0:0:
63,205,215296,2,0,B|123:191|123:191|154:209|154:209|243:207,1,156.750004783631,6|0,0:0|0:0,0:0:0:0:
329,202,215671,2,0,B|347:154|347:154|340:96,1,104.500003189087,8|2,0:0|0:0,0:0:0:0:
280,30,215952,1,0,0:0:0:0:
258,21,216046,5,6,0:0:0:0:
279,275,216233,1,2,0:0:0:0:
279,275,216327,1,2,0:0:0:0:
279,275,216421,1,8,0:0:0:0:
433,159,216608,1,2,0:0:0:0:
99,252,216796,5,6,0:0:0:0:
464,343,216983,1,4,1:2:0:0:
90,269,217171,5,4,1:0:0:0:
443,144,217358,2,0,B|362:109|377:160|290:128,1,156.750004783631,4|0,0:0|0:0,0:0:0:0:
201,28,217733,2,0,L|208:90,1,52.2500015945435,0|0,1:0|0:0,0:0:0:0:
119,153,217921,2,0,L|105:47,1,104.500003189087,8|0,0:0|3:0,0:0:0:0:
417,51,218296,6,0,L|395:212,1,156.750004783631,4|0,0:0|0:0,0:0:0:0:
386,251,218671,2,0,P|334:269|287:258,1,104.500003189087,8|0,0:0|0:0,0:0:0:0:
119,153,219046,1,0,3:0:0:0:
334,72,219233,2,0,L|324:147,1,52.2500015945435,2|0,0:0|0:0,0:0:0:0:
322,171,219421,2,0,L|208:167,1,104.500003189087,10|2,0:0|0:0,0:0:0:0:
60,335,219796,6,0,B|98:313|98:313|134:330|134:330|216:336,1,156.750004783631,4|0,0:0|0:0,0:0:0:0:
254,340,220171,1,8,0:0:0:0:
108,228,220358,1,2,0:0:0:0:
108,228,220452,1,2,0:0:0:0:
108,228,220546,2,0,P|100:181|93:118,1,104.500003189087,6|0,0:0|0:0,0:0:0:0:
378,65,220921,2,0,P|371:116|363:168,1,104.500003189087,8|0,0:0|0:0,0:0:0:0:
174,24,221296,5,6,0:0:0:0:
460,129,221483,1,0,1:0:0:0:
108,228,221671,5,0,1:0:0:0:
378,65,221858,1,6,0:0:0:0:
102,100,222046,5,0,1:0:0:0:
388,205,222233,1,0,1:0:0:0:
36,304,222421,5,6,0:0:0:0:
306,141,222608,1,4,0:0:0:0:
18,34,222796,5,6,0:0:0:0:
222,233,222983,1,2,0:0:0:0:
222,233,223077,1,0,1:0:0:0:
222,233,223171,1,0,1:0:0:0:
501,179,223358,1,0,1:0:0:0:
156,307,223546,5,6,1:2:0:0:
131,273,223639,1,0,0:0:0:0:
121,233,223733,1,0,1:0:0:0:
130,192,223827,1,0,0:0:0:0:
154,158,223921,1,2,1:2:0:0:
190,137,224014,1,0,0:0:0:0:
231,136,224108,1,2,1:2:0:0:
271,147,224202,1,2,0:0:0:0:
301,175,224296,6,0,P|314:201|318:228,3,52.2500015945435,6|0|2|2,1:0|0:0|1:0|1:0,0:0:0:0:
222,233,224671,1,2,1:0:0:0:
203,190,224764,1,0,0:0:0:0:
209,143,224858,1,2,1:0:0:0:
234,103,224952,1,0,0:0:0:0:
276,82,225046,1,2,1:0:0:0:
322,81,225139,1,0,0:0:0:0:
366,96,225233,1,2,1:0:0:0:
413,93,225327,1,2,1:0:0:0:
445,59,225421,2,0,L|436:7,1,52.2500015945435,2|0,1:0|0:0,0:0:0:0:
301,175,225608,2,0,L|310:227,1,52.2500015945435,2|0,1:0|0:0,0:0:0:0:
447,357,225796,6,0,B|394:344|394:344|365:363|365:363|287:370,1,156.750004783631,6|0,1:0|0:0,0:0:0:0:
159,334,226171,2,0,P|134:289|150:236,1,104.500003189087,8|0,0:0|0:0,0:0:0:0:
472,173,226546,1,2,1:0:0:0:
308,255,226733,1,0,0:0:0:0:
308,255,226827,1,2,1:0:0:0:
308,255,226921,1,8,0:0:0:0:
157,144,227108,1,2,1:0:0:0:
58,324,227296,6,0,P|53:301|49:266,3,52.2500015945435,2|0|2|0,1:0|0:0|1:0|0:0,0:0:0:0:
157,144,227671,2,0,P|153:169|148:195,3,52.2500015945435,8|0|2|2,0:0|0:0|1:0|1:0,0:0:0:0:
52,160,228046,5,2,1:0:0:0:
251,252,228233,1,0,0:0:0:0:
251,252,228327,1,2,1:0:0:0:
251,252,228421,1,8,0:0:0:0:
426,117,228608,1,2,1:0:0:0:
144,205,228796,6,0,P|133:258|155:313,1,104.500003189087,6|0,1:0|0:0,0:0:0:0:
437,112,229171,2,0,P|448:59|426:4,1,104.500003189087,8|0,0:0|0:0,0:0:0:0:
179,58,229546,1,2,1:0:0:0:
357,69,229733,1,0,0:0:0:0:
357,69,229827,1,0,0:0:0:0:
357,69,229921,1,8,0:0:0:0:
102,132,230108,2,0,L|97:72,1,52.2500015945435,2|0,1:0|0:0,0:0:0:0:
185,49,230296,6,0,L|196:169,1,104.500003189087,2|0,1:0|0:0,0:0:0:0:
225,231,230577,2,0,B|180:202|180:202|103:209,1,104.500003189087,2|0,1:0|0:0,0:0:0:0:
63,250,230858,2,0,L|58:302,1,52.2500015945435,2|0,1:0|0:0,0:0:0:0:
149,384,231046,5,2,1:0:0:0:
149,384,231139,2,0,L|158:279,1,104.500003189087,2|0,1:0|0:0,0:0:0:0:
232,227,231421,2,0,L|293:219,1,52.2500015945435,2|0,1:0|0:0,0:0:0:0:
364,138,231608,2,0,L|303:130,1,52.2500015945435,2|0,1:0|0:0,0:0:0:0:
202,36,231796,6,0,L|211:140,1,104.500003189087,2|0,1:0|0:0,0:0:0:0:
274,213,232077,2,2,L|377:225,1,104.500003189087,2|0,1:0|0:0,1:0:0:0:
405,115,232358,6,0,L|301:127,1,104.500003189087,2|0,1:0|3:0,0:0:0:0:
183,234,232639,2,2,L|173:338,1,104.500003189087,2|0,1:0|0:0,1:0:0:0:
335,295,232921,6,2,L|283:288,1,52.2500015945435,2|0,1:0|0:0,1:0:0:0:
150,157,233108,2,2,L|201:150,1,52.2500015945435,2|0,1:0|0:0,1:0:0:0:
49,242,233296,5,2,1:0:0:0:
276,91,233483,1,0,3:0:0:0:
302,127,233577,1,2,1:0:0:0:
297,173,233671,1,0,1:0:0:0:
89,54,233858,1,2,1:0:0:0:
463,142,234046,5,2,1:0:0:0:
236,293,234233,1,2,1:0:0:0:
210,257,234327,1,2,1:0:0:0:
215,211,234421,1,0,1:0:0:0:
423,330,234608,1,2,1:0:0:0:
81,368,234796,5,6,0:0:0:0:
81,368,234889,1,0,3:0:0:0:
81,368,234983,2,0,P|78:341|68:311,1,52.2500015945435,2|0,0:0|3:0,0:0:0:0:
244,306,235171,5,6,0:0:0:0:
244,306,235264,1,0,3:0:0:0:
244,306,235358,2,0,P|247:279|257:249,1,52.2500015945435,2|2,0:0|1:0,0:0:0:0:
412,200,235546,5,6,1:0:0:0:
373,215,235639,1,0,3:0:0:0:
333,206,235733,1,2,0:0:0:0:
304,177,235827,1,2,3:2:0:0:
296,136,235921,1,6,1:0:0:0:
311,98,236014,1,0,3:0:0:0:
345,75,236108,2,0,L|362:134,1,52.2500015945435,2|2,0:0|0:0,0:0:0:0:
417,296,236296,6,0,P|381:307|343:300,1,76,4|0,0:0|0:0,0:0:0:0:
186,362,236671,2,0,P|222:351|260:358,1,76,2|0,0:0|0:0,0:0:0:0:
121,257,237046,1,2,0:0:0:0:
40,326,237233,1,0,0:0:0:0:
116,247,237421,1,2,0:0:0:0:
217,276,237608,1,2,0:0:0:0:
42,182,237796,6,0,P|38:144|36:107,1,76,2|0,0:0|0:0,0:0:0:0:
185,205,238171,2,0,P|188:164|194:104,1,76,2|0,0:0|0:0,0:0:0:0:
364,93,238546,1,2,0:0:0:0:
266,53,238733,1,0,0:0:0:0:
370,101,238921,1,2,0:0:0:0:
459,44,239108,1,0,0:0:0:0:
490,234,239296,6,0,P|450:227|401:223,1,76,2|0,0:0|0:0,0:0:0:0:
230,295,239671,1,2,0:0:0:0:
308,223,239858,1,0,0:0:0:0:
209,113,240046,6,0,P|209:152|213:202,1,76,2|0,0:0|0:0,0:0:0:0:
315,358,240421,1,2,0:0:0:0:
230,295,240608,1,0,0:0:0:0:
74,363,240796,6,0,P|112:361|158:358,1,76,2|0,0:0|0:0,0:0:0:0:
391,270,241171,2,0,P|353:268|307:265,1,76,2|0,0:0|0:0,0:0:0:0:
144,242,241546,5,2,0:0:0:0:
281,169,241733,1,0,0:0:0:0:
167,39,241921,2,0,L|174:132,1,76,2|0,0:0|0:0,0:0:0:0:
367,228,242296,6,0,P|383:191|381:141,1,85.4999973907472,0|0,1:0|0:0,0:0:0:0:
419,312,242671,1,0,1:0:0:0:
281,169,242858,1,0,3:0:0:0:
131,283,243046,2,0,P|172:281|229:279,1,85.4999973907472,2|0,0:0|1:0,0:0:0:0:
311,80,243421,2,0,P|268:78|225:76,1,85.4999973907472,2|2,1:2|0:0,0:0:0:0:
85,187,243796,6,0,B|124:165|124:165|164:181|164:181|258:186,1,170.999994781494,2|0,3:2|1:0,0:0:0:0:
423,124,244358,1,0,3:0:0:0:
329,262,244546,2,0,P|324:183|321:91,1,170.999994781494,2|0,0:0|1:0,0:0:0:0:
409,330,245108,1,2,0:0:0:0:
155,272,245296,6,0,P|201:270|254:267,1,85.4999973907472,4|2,0:0|0:0,0:0:0:0:
97,353,245671,1,0,1:0:0:0:
212,172,245858,2,0,P|142:168|73:162,1,128.249996086121,2|0,1:2|0:0,0:0:0:0:
51,150,246233,1,0,3:0:0:0:
144,4,246421,2,0,P|148:46|149:89,1,85.4999973907472,0|2,1:0|0:0,0:0:0:0:
119,259,246796,5,2,3:2:0:0:
300,172,246983,1,0,0:0:0:0:
393,259,247171,5,2,3:2:0:0:
212,172,247358,1,0,0:0:0:0:
352,100,247546,5,2,3:2:0:0:
306,298,247733,1,0,0:0:0:0:
159,101,247921,5,2,1:2:0:0:
206,298,248108,1,2,0:0:0:0:
256,64,248296,5,2,3:2:0:0:
267,191,249733,2,0,L|241:191,2,14.2499995651245,2|2|2,0:0|0:0|0:0,0:0:0:0:
