osu file format v14

[General]
AudioFilename: audio.mp3
AudioLeadIn: 0
PreviewTime: 54785
Countdown: 0
SampleSet: Soft
StackLeniency: 0.7
Mode: 0
LetterboxInBreaks: 0
WidescreenStoryboard: 0

[Editor]
DistanceSpacing: 0.5
BeatDivisor: 4
GridSize: 16
TimelineZoom: 1

[Metadata]
Title:Sanzen Sekai
TitleUnicode:三千世界
Artist:senya
ArtistUnicode:senya
Creator:Serafeim
Version:Gray Thaumaturgy
Source:東方風神録 ~ Mountain of Faith.
Tags:touhou video game japanese Mayumi Morinaga 森永 真由美 少女が見た日本の原風景 The Primal Scene of Japan the Girl Saw Kochiya Sanae 東風谷早苗 Yuuhei Satellite Kamase-Tora かませ虎 Iceon 東方project ZUN Team Shanghai Alice C84 Comiket 84 2hu mof Spokenaway
BeatmapID:3002935
BeatmapSetID:1461660

[Difficulty]
HPDrainRate:5.4
CircleSize:4
OverallDifficulty:8
ApproachRate:8.4
SliderMultiplier:1.8
SliderTickRate:1

[Events]
//Background and Video events
0,0,"bg.jpg",0,0
//Break Periods
//Storyboard Layer 0 (Background)
//Storyboard Layer 1 (Fail)
//Storyboard Layer 2 (Pass)
//Storyboard Layer 3 (Foreground)
//Storyboard Layer 4 (Overlay)
//Storyboard Sound Samples

[TimingPoints]
2085,400,4,2,1,45,1,0
2085,-133.333333333333,4,2,1,45,0,0
8085,-250,4,2,1,45,0,0
8385,-166.666666666667,4,2,1,45,0,0
8485,-100,4,2,1,65,0,0
14885,-166.666666666667,4,2,1,40,0,0
19985,-166.666666666667,4,2,1,5,0,0
20085,-166.666666666667,4,2,1,40,0,0
27585,-133.333333333333,4,2,1,5,0,0
27685,-111.111111111111,4,2,1,60,0,0
40485,-108.695652173913,4,2,1,70,0,0
54085,-108.695652173913,4,2,1,55,0,0
54885,-90.9090909090909,4,2,1,75,0,1
80485,-111.111111111111,4,2,1,55,0,0
85585,-111.111111111111,4,2,1,5,0,0
85685,-111.111111111111,4,2,1,55,0,0
106085,-108.695652173913,4,2,1,70,0,0
119685,-108.695652173913,4,2,1,55,0,0
120485,-90.9090909090909,4,2,1,75,0,1
146085,-100,4,2,1,70,0,0
171685,-666.666666666667,4,2,2,35,0,0
174885,-500,4,2,2,35,0,0
177285,-500,4,2,2,35,0,0
184485,-333.333333333333,4,2,2,35,0,0
190885,-100,4,2,1,55,0,0
197285,-100,4,2,1,60,0,0
197685,-100,4,2,1,50,0,0
198085,-100,4,2,1,65,0,0
198885,-90.9090909090909,4,2,1,75,0,1
224485,-125,4,2,2,50,0,0

[Colours]
Combo1 : 116,201,105
Combo2 : 138,140,97
Combo3 : 80,82,163

[HitObjects]
75,75,2085,6,0,L|94:199,2,101.250003862381,2|2|2,0:0|0:0|0:0,0:0:0:0:
195,151,2885,2,0,L|173:279,1,101.250003862381,2|2,0:0|0:0,0:0:0:0:
212,143,3485,1,2,0:0:0:0:
92,312,3685,6,0,P|141:288|205:323,2,101.250003862381,2|2|2,0:0|0:0|0:0,0:0:0:0:
251,356,4485,2,0,B|333:332|333:332|367:364|367:364|468:352,1,202.500007724762,2|0,0:0|0:0,0:0:0:0:
340,160,5285,6,0,P|314:200|320:259,2,101.250003862381,2|2|2,0:0|0:0|0:0,0:0:0:0:
491,202,6085,2,0,P|469:160|415:135,2,101.250003862381,2|2|2,0:0|0:0|0:0,0:0:0:0:
403,58,6885,5,2,0:0:0:0:
403,58,7085,1,0,0:0:0:0:
340,121,7285,2,0,P|309:126|258:110,1,67.5000025749208
156,41,7685,1,0,0:0:0:0:
156,41,7885,1,0,0:0:0:0:
198,121,8085,2,0,B|192:143|192:143|194:151|194:151|185:173,1,54
164,207,8485,6,0,P|113:215|55:178,1,90,6|0,3:2|0:0,0:0:0:0:
181,224,8785,2,0,P|225:232|270:276,1,90,2|0,3:2|0:0,0:0:0:0:
321,313,9085,1,2,3:2:0:0:
324,83,9285,6,0,B|280:69|280:69|223:86,1,90,6|0,3:2|0:0,0:0:0:0:
352,107,9585,2,0,P|403:96|462:114,1,90,2|0,3:2|0:0,0:0:0:0:
512,137,9885,1,2,3:2:0:0:
350,281,10085,6,0,P|391:301|454:277,1,90,6|0,3:2|0:0,0:0:0:0:
328,260,10385,2,0,P|285:250|227:275,1,90,2|0,3:2|0:0,0:0:0:0:
177,311,10685,1,2,3:2:0:0:
1,126,10885,5,6,3:2:0:0:
39,205,11085,1,0,0:0:0:0:
123,168,11285,2,0,L|226:185,1,90,0|0,3:2|3:2,0:0:0:0:
357,47,11685,6,0,P|313:32|257:100,1,135,6|2,3:2|3:2,0:0:0:0:
253,111,12085,1,0,0:0:0:0:
397,187,12285,1,2,3:2:0:0:
258,316,12485,6,0,P|183:303|96:343,1,135,6|2,3:2|3:2,0:0:0:0:
103,340,12885,1,0,0:0:0:0:
15,176,13085,1,2,3:2:0:0:
225,176,13285,5,6,3:2:0:0:
132,222,13485,1,0,0:0:0:0:
188,95,13685,2,0,P|233:85|277:104,1,90,0|0,3:2|0:0,0:0:0:0:
420,233,14085,5,8,0:0:0:0:
437,261,14185,1,0,3:2:0:0:
440,295,14285,1,0,3:2:0:0:
429,326,14385,1,0,3:2:0:0:
406,350,14485,1,8,0:0:0:0:
397,345,14585,1,0,3:2:0:0:
387,339,14685,1,0,3:2:0:0:
377,333,14785,1,0,3:2:0:0:
367,327,14885,6,0,B|327:336|327:336|301:322|301:322|250:333,1,107.999996704102,6|0,0:0|0:0,0:0:0:0:
56,234,15485,2,0,P|52:270|157:266,1,161.999995056153,2|2,0:0|0:1,0:0:0:0:
67,50,16485,6,0,B|116:31|116:78|172:63,1,107.999996704102,2|0,0:0|0:0,0:0:0:0:
283,54,17085,2,0,B|331:110|275:186|275:186|226:167|243:121,1,215.999993408203,2|0,0:0|0:0,0:0:0:0:
450,258,18085,6,0,P|413:249|365:301,1,107.999996704102,2|2,0:0|0:1,0:0:0:0:
224,354,18685,2,0,B|167:340|167:340|133:355|133:355|76:334|76:334|117:326|130:302,1,215.999993408203,2|2,0:0|0:0,0:0:0:0:
139,282,19585,1,2,0:0:0:0:
148,270,19685,6,0,P|164:233|152:181,1,80.9999975280763,2|0,0:0|0:0,0:0:0:0:
144,132,20085,2,0,P|191:146|213:139,1,53.9999983520508,2|0,0:0|0:0,0:0:0:0:
386,39,20485,2,0,P|352:61|339:87,1,53.9999983520508,2|2,0:0|0:1,0:0:0:0:
387,149,20885,1,2,0:1:0:0:
401,168,21285,6,0,B|380:219|427:230|404:287,1,107.999996704102,2|0,0:0|0:0,0:0:0:0:
193,341,21885,2,0,B|223:250|312:267|312:267|319:302|282:335,1,215.999993408203,2|0,0:0|0:0,0:0:0:0:
43,252,22885,6,0,P|49:308|102:298,1,107.999996704102,2|2,0:0|0:1,0:0:0:0:
100,98,23485,2,0,P|84:130|123:196,1,107.999996704102,2|2,0:0|0:1,0:0:0:0:
241,96,24085,2,0,P|208:96|176:119,1,53.9999983520508,2|2,0:1|0:1,0:0:0:0:
276,205,24485,6,0,B|326:214|331:157|384:158,1,107.999996704102,2|0,0:0|0:0,0:0:0:0:
442,315,25085,2,0,B|407:347|407:347|359:300|396:233,1,161.999995056153,2|2,0:0|0:0,0:0:0:0:
309,352,25885,1,2,0:0:0:0:
280,281,26085,2,0,P|242:271|214:281,1,53.9999983520508,2|2,0:0|0:0,0:0:0:0:
91,363,26485,2,0,P|131:351|146:328,1,53.9999983520508,2|2,0:0|0:0,0:0:0:0:
16,210,26885,1,2,0:0:0:0:
66,279,27085,1,2,0:0:0:0:
139,184,27285,2,0,P|179:179|231:202,1,80.9999975280763
121,199,27685,6,0,P|101:154|107:108,1,80.9999975280763,2|0,3:2|0:0,0:0:0:0:
107,105,27985,1,0,3:2:0:0:
118,81,28085,1,0,3:2:0:0:
319,40,28285,1,2,0:0:0:0:
319,40,28385,1,0,0:0:0:0:
319,40,28485,1,0,3:2:0:0:
255,189,28685,1,0,0:0:0:0:
189,144,28885,2,0,P|220:115|281:116,1,80.9999975280763,0|0,3:2|0:0,0:0:0:0:
462,260,29285,6,0,P|390:235|288:282,1,161.999995056153,2|0,3:2|3:2,0:0:0:0:
157,371,29885,2,0,L|253:356,1,80.9999975280763,2|0,0:0|3:2,0:0:0:0:
146,237,30285,1,0,0:0:0:0:
146,237,30385,1,0,0:0:0:0:
146,237,30485,1,2,3:2:0:0:
58,350,30685,1,0,0:0:0:0:
0,197,30885,6,0,B|62:188|62:188|91:146|91:146|167:135,1,161.999995056153,2|0,3:2|3:2,0:0:0:0:
287,30,31485,1,2,0:0:0:0:
287,30,31585,1,0,0:0:0:0:
287,30,31685,1,0,3:2:0:0:
204,82,31885,1,0,0:0:0:0:
318,140,32085,2,0,P|371:130|431:140,1,80.9999975280763,0|0,3:2|0:0,0:0:0:0:
423,138,32385,1,0,0:0:0:0:
445,146,32485,1,0,3:2:0:0:
335,352,32685,5,2,0:0:0:0:
256,274,32885,2,0,L|235:365,1,80.9999975280763,2|0,3:2|0:0,0:0:0:0:
419,235,33285,2,0,L|440:331,1,80.9999975280763,2|2,3:2|0:0,0:0:0:0:
191,170,33685,2,0,L|168:262,1,80.9999975280763,2|2,3:2|0:0,0:0:0:0:
389,120,34085,6,0,P|350:157|315:75,1,161.999995056153,2|0,3:2|3:2,0:0:0:0:
419,209,34685,2,0,P|379:234|320:233,1,80.9999975280763,2|0,0:0|3:2,0:0:0:0:
152,196,35085,1,0,0:0:0:0:
152,196,35185,1,0,0:0:0:0:
152,196,35285,1,2,3:2:0:0:
218,270,35485,1,0,0:0:0:0:
179,106,35685,2,0,B|103:79|103:153|20:129,2,161.999995056153,2|0|2,3:2|3:2|3:2,0:0:0:0:
343,172,36685,5,2,0:0:0:0:
253,198,36885,2,0,P|250:158|268:122,1,80.9999975280763,2|2,3:2|0:0,0:0:0:0:
476,38,37285,1,2,3:2:0:0:
358,87,37485,2,0,L|349:45,2,40.4999987640381,0|0|0,3:2|3:2|3:2,0:0:0:0:
490,170,37885,2,0,L|499:128,2,40.4999987640381,0|0|0,3:2|3:2|3:2,0:0:0:0:
357,278,38285,1,0,3:2:0:0:
357,278,38385,1,0,3:2:0:0:
357,278,38485,1,0,3:2:0:0:
406,197,38685,1,0,0:0:0:0:
381,369,38885,5,2,3:2:0:0:
350,372,38985,1,2,0:0:0:0:
320,369,39085,1,2,0:0:0:0:
292,359,39185,1,2,0:0:0:0:
269,343,39285,2,0,L|281:278,3,40.4999987640381,2|2|2|2,3:2|0:0|0:0|0:0,0:0:0:0:
148,255,39685,6,0,L|136:190,3,40.4999987640381,2|0|2|0,3:2|0:0|0:0|0:0,0:0:0:0:
323,173,40085,2,0,L|277:164,1,40.4999987640381,2|0,3:2|0:0,0:0:0:0:
136,109,40285,2,0,L|182:100,1,40.4999987640381,2|0,0:0|0:0,0:0:0:0:
410,22,40485,6,0,L|423:113,1,82.7999972204591,6|0,3:2|0:0,0:0:0:0:
427,129,40785,1,0,0:0:0:0:
430,145,40885,1,8,0:0:0:0:
319,298,41085,1,2,0:0:0:0:
319,298,41185,1,2,0:0:0:0:
319,298,41285,2,0,P|368:270|453:301,2,124.199995830689,2|2|2,3:2|0:0|0:0,0:0:0:0:
188,346,42085,6,0,P|139:366|91:343,1,82.7999972204591,2|0,3:2|0:0,0:0:0:0:
86,349,42385,1,0,0:0:0:0:
65,339,42485,1,8,0:0:0:0:
0,243,42685,1,2,0:0:0:0:
166,156,42885,6,0,L|154:246,1,82.7999972204591,2|2,3:2|0:0,0:0:0:0:
154,260,43185,1,2,0:0:0:0:
153,274,43285,1,10,0:0:0:0:
29,152,43485,1,2,0:0:0:0:
193,37,43685,2,0,P|150:27|93:50,1,82.7999972204591,2|0,3:2|0:0,0:0:0:0:
258,129,44085,2,0,P|288:96|296:35,1,82.7999972204591,10|2,0:0|0:0,0:0:0:0:
161,129,44485,1,2,3:2:0:0:
288,266,44685,1,2,0:0:0:0:
288,266,44785,1,2,0:0:0:0:
288,266,44885,2,0,P|242:255|161:294,1,124.199995830689,10|0,0:0|0:0,0:0:0:0:
294,276,45285,6,0,P|341:297|392:281,1,82.7999972204591,2|0,3:2|0:0,0:0:0:0:
392,288,45585,1,0,0:0:0:0:
415,282,45685,1,8,0:0:0:0:
311,149,45885,1,2,0:0:0:0:
295,140,45985,1,2,0:0:0:0:
279,129,46085,2,0,L|231:132,3,41.3999986102295,2|0|2|2,3:2|0:0|0:0|0:0,0:0:0:0:
412,48,46485,2,0,L|460:51,3,41.3999986102295,10|0|2|2,0:0|0:0|0:0|0:0,0:0:0:0:
212,36,46885,6,0,P|170:58|103:2,1,124.199995830689,6|0,3:2|0:0,0:0:0:0:
79,13,47285,2,0,P|90:56|66:114,1,82.7999972204591,8|2,0:0|0:0,0:0:0:0:
118,274,47685,2,0,B|71:258|71:258|42:264|42:264|-23:241,2,124.199995830689,2|2|2,3:2|0:0|0:0,0:0:0:0:
243,358,48485,2,0,L|344:344,1,82.7999972204591,2|2,3:2|0:0,0:0:0:0:
349,342,48785,1,2,0:0:0:0:
371,339,48885,1,10,0:0:0:0:
241,197,49085,1,2,0:0:0:0:
443,147,49285,6,0,L|425:248,1,82.7999972204591,2|2,3:2|0:0,0:0:0:0:
423,249,49585,1,2,0:0:0:0:
420,264,49685,1,10,0:0:0:0:
327,169,49885,1,2,0:0:0:0:
512,51,50085,6,0,P|456:59|411:1,1,124.199995830689,10|0,0:0|0:0,0:0:0:0:
375,17,50485,2,0,P|317:7|272:24,1,82.7999972204591,8|0,0:0|3:2,0:0:0:0:
153,168,50885,5,8,0:0:0:0:
236,73,51085,1,0,3:2:0:0:
82,108,51285,2,0,P|55:143|55:187,1,82.7999972204591,8|0,0:0|3:2,0:0:0:0:
110,346,51685,5,2,3:2:0:0:
110,346,51785,1,0,3:2:0:0:
110,346,51885,2,0,L|153:357,1,41.3999986102295,0|0,3:2|3:2,0:0:0:0:
229,282,52085,1,2,3:2:0:0:
229,282,52185,1,0,3:2:0:0:
229,282,52285,2,0,L|272:271,1,41.3999986102295,0|0,3:2|3:2,0:0:0:0:
473,356,52485,5,2,3:2:0:0:
425,359,52585,1,0,3:2:0:0:
388,330,52685,1,0,3:2:0:0:
379,285,52785,1,0,3:2:0:0:
401,244,52885,1,10,0:0:0:0:
411,249,52985,1,8,0:0:0:0:
422,255,53085,1,8,0:0:0:0:
432,261,53185,1,8,0:0:0:0:
443,267,53285,1,6,3:2:0:0:
101,86,54085,6,0,L|44:75,2,41.3999986102295,0|0|0,3:2|3:2|3:2,0:0:0:0:
279,36,54485,1,8,0:0:0:0:
307,54,54585,1,8,0:0:0:0:
326,81,54685,1,8,0:0:0:0:
330,115,54785,1,8,0:0:0:0:
319,146,54885,6,0,P|269:136|210:164,1,99.0000030212403,6|0,3:2|0:0,0:0:0:0:
210,169,55185,1,2,0:0:0:0:
196,178,55285,1,8,0:0:0:0:
315,286,55485,1,2,0:0:0:0:
176,353,55685,2,0,P|115:330|24:378,1,148.50000453186,2|2,3:2|0:0,0:0:0:0:
26,353,56085,2,0,P|34:299|18:249,1,99.0000030212403,8|2,0:0|0:0,0:0:0:0:
167,93,56485,5,2,3:2:0:0:
97,207,56685,1,0,0:0:0:0:
97,207,56785,1,2,0:0:0:0:
97,207,56885,1,8,0:0:0:0:
46,37,57085,1,2,0:0:0:0:
190,187,57285,2,0,B|240:170|240:170|282:207|282:207|362:193,1,148.50000453186,2|2,3:2|0:0,0:0:0:0:
359,191,57685,2,0,P|402:158|412:97,1,99.0000030212403,8|0,0:0|0:0,0:0:0:0:
221,324,58085,6,0,L|324:340,1,99.0000030212403,6|0,3:2|0:0,0:0:0:0:
344,343,58385,1,2,0:0:0:0:
375,347,58485,1,8,0:0:0:0:
496,222,58685,1,2,0:0:0:0:
305,131,58885,2,0,P|277:170|290:236,1,99.0000030212403,2|0,3:2|0:0,0:0:0:0:
294,244,59185,1,2,0:0:0:0:
300,256,59285,1,8,0:0:0:0:
440,147,59485,1,2,0:0:0:0:
222,60,59685,5,6,3:2:0:0:
373,207,59885,1,0,0:0:0:0:
373,207,59985,1,2,0:0:0:0:
373,207,60085,1,8,0:0:0:0:
186,171,60285,1,2,0:0:0:0:
429,358,60485,5,2,3:2:0:0:
281,249,60685,1,0,0:0:0:0:
281,249,60785,1,2,0:0:0:0:
281,249,60885,1,8,0:0:0:0:
154,363,61085,2,0,L|209:359,1,49.5000015106202,0|0,3:2|0:0,0:0:0:0:
440,269,61285,6,0,P|409:216|461:115,1,148.50000453186,6|2,3:2|0:0,0:0:0:0:
448,107,61685,2,0,P|388:108|348:80,1,99.0000030212403,8|2,0:0|0:0,0:0:0:0:
145,205,62085,1,2,3:2:0:0:
289,169,62285,1,0,0:0:0:0:
289,169,62385,1,2,0:0:0:0:
289,169,62485,1,8,0:0:0:0:
83,116,62685,1,2,0:0:0:0:
196,354,62885,6,0,L|221:250,1,99.0000030212403,6|0,3:2|0:0,0:0:0:0:
225,241,63185,1,2,0:0:0:0:
230,225,63285,1,8,0:0:0:0:
78,315,63485,1,2,0:0:0:0:
313,347,63685,2,0,P|382:325|464:374,1,148.50000453186,2|0,3:2|0:0,0:0:0:0:
470,357,64085,2,0,B|498:313|498:313|486:253,1,99.0000030212403,8|0,0:0|0:0,0:0:0:0:
286,116,64485,6,0,P|356:119|355:28,1,148.50000453186,6|2,3:2|0:0,0:0:0:0:
366,27,64885,2,0,P|316:34|260:19,1,99.0000030212403,8|2,0:0|0:0,0:0:0:0:
70,156,65285,1,2,3:2:0:0:
209,82,65485,1,0,0:0:0:0:
209,82,65585,1,2,0:0:0:0:
209,82,65685,1,8,0:0:0:0:
8,76,65885,1,2,0:0:0:0:
175,238,66085,6,0,P|228:230|285:259,1,99.0000030212403,6|0,3:2|0:0,0:0:0:0:
288,263,66385,1,2,0:0:0:0:
303,282,66485,1,8,0:0:0:0:
473,188,66685,1,0,0:0:0:0:
284,111,66885,5,2,3:2:0:0:
284,111,66985,1,2,3:2:0:0:
284,111,67085,2,0,L|293:175,1,49.5000015106202,2|2,3:2|3:2,0:0:0:0:
464,86,67285,2,0,L|473:22,1,49.5000015106202,8|8,0:0|0:0,0:0:0:0:
282,20,67485,5,8,0:0:0:0:
282,20,67585,1,8,0:0:0:0:
282,20,67685,2,0,P|216:10|134:39,1,148.50000453186,6|2,3:2|0:0,0:0:0:0:
113,38,68085,2,0,B|88:84|88:84|109:136,1,99.0000030212403,8|2,0:0|0:0,0:0:0:0:
215,291,68485,1,2,3:2:0:0:
260,144,68685,1,0,0:0:0:0:
260,144,68785,1,2,0:0:0:0:
260,144,68885,1,8,0:0:0:0:
109,228,69085,1,2,0:0:0:0:
313,292,69285,6,0,P|355:262|452:285,1,148.50000453186,2|2,3:2|0:0,0:0:0:0:
476,288,69685,2,0,P|504:243|485:184,1,99.0000030212403,8|2,0:0|0:0,0:0:0:0:
351,37,70085,2,0,B|300:20|300:20|253:48|253:48|211:45,1,148.50000453186,2|2,3:2|0:0,0:0:0:0:
184,29,70485,2,0,P|143:68|143:135,1,99.0000030212403,8|0,0:0|0:0,0:0:0:0:
299,255,70885,5,6,3:2:0:0:
226,151,71085,1,2,0:0:0:0:
226,151,71185,1,2,0:0:0:0:
226,151,71285,1,8,0:0:0:0:
198,317,71485,1,2,0:0:0:0:
368,180,71685,2,0,P|428:162|512:226,1,148.50000453186,2|2,3:2|0:0,0:0:0:0:
512,234,72085,2,0,B|498:356,1,99.0000030212403,8|2,0:0|0:0,0:0:0:0:
256,237,72485,5,6,3:2:0:0:
378,345,72685,1,0,0:0:0:0:
378,345,72785,1,2,0:0:0:0:
378,345,72885,1,8,0:0:0:0:
157,312,73085,1,2,0:0:0:0:
423,194,73285,5,2,3:2:0:0:
307,142,73485,1,0,0:0:0:0:
307,142,73585,1,2,0:0:0:0:
307,142,73685,1,8,0:0:0:0:
170,211,73885,2,0,L|102:202,1,49.5000015106202,2|0,0:0|0:0,0:0:0:0:
371,82,74085,6,0,P|423:99|478:81,1,99.0000030212403,6|0,3:2|0:0,0:0:0:0:
369,65,74385,2,0,P|328:40|278:49,1,99.0000030212403,2|0,3:2|0:0,0:0:0:0:
186,93,74685,1,2,3:2:0:0:
375,250,74885,6,0,B|405:204|405:204|376:145,1,99.0000030212403,6|0,3:2|0:0,0:0:0:0:
356,265,75185,2,0,P|330:304|356:362,1,99.0000030212403,2|0,3:2|0:0,0:0:0:0:
439,384,75485,1,2,3:2:0:0:
150,347,75685,6,0,P|99:340|30:369,1,99.0000030212403,6|0,3:2|0:0,0:0:0:0:
168,359,75985,2,0,P|219:372|278:356,1,99.0000030212403,2|0,3:2|0:0,0:0:0:0:
346,344,76285,1,2,3:2:0:0:
153,154,76485,6,0,B|129:197|129:197|162:254,1,99.0000030212403,6|0,3:2|0:0,0:0:0:0:
247,119,76885,1,0,3:2:0:0:
396,267,77085,5,0,3:2:0:0:
396,267,77185,1,2,0:0:0:0:
396,267,77285,1,6,3:2:0:0:
227,203,77485,1,2,0:0:0:0:
227,203,77585,1,2,3:2:0:0:
486,114,77885,1,0,3:2:0:0:
274,38,78085,5,6,3:2:0:0:
418,169,78285,1,0,0:0:0:0:
418,169,78385,1,2,3:2:0:0:
418,169,78485,1,0,0:0:0:0:
393,45,78685,1,2,3:2:0:0:
238,175,78885,6,0,B|179:114|104:156|104:156|118:182|148:178,1,198.000006042481,6|8,3:2|0:0,0:0:0:0:
320,363,79485,1,0,0:0:0:0:
128,265,79685,5,0,3:2:0:0:
128,265,79785,1,0,3:2:0:0:
128,265,79885,2,0,L|138:329,1,49.5000015106202,0|0,3:2|3:2,0:0:0:0:
341,215,80085,1,10,0:0:0:0:
341,215,80185,1,8,0:0:0:0:
341,215,80285,2,0,L|331:279,1,49.5000015106202,8|8,0:0|0:0,0:0:0:0:
162,145,80485,6,0,P|123:125|7:170,1,161.999995056153,6|0,3:2|3:2,0:0:0:0:
5,176,81085,1,2,0:0:0:0:
183,48,81285,2,0,B|246:19|246:86|327:53,1,121.499996292114,0|0,3:2|0:0,0:0:0:0:
334,49,81685,2,0,P|353:88|342:146,1,80.9999975280763,0|0,3:2|0:0,0:0:0:0:
206,281,82085,6,0,P|207:232|293:276,1,161.999995056153,2|0,3:2|3:2,0:0:0:0:
337,341,82685,1,2,0:0:0:0:
145,364,82885,2,0,P|96:339|7:365,1,121.499996292114,0|0,3:2|3:2,0:0:0:0:
15,352,83285,2,0,P|7:297|33:251,1,80.9999975280763,0|0,3:2|0:0,0:0:0:0:
204,101,83685,6,0,B|155:80|155:80|115:111|115:111|46:108,1,161.999995056153,2|0,3:2|3:2,0:0:0:0:
156,208,84285,1,2,0:0:0:0:
257,29,84485,2,0,P|308:52|421:16,1,161.999995056153,0|0,3:2|3:2,0:0:0:0:
482,202,85085,5,2,0:0:0:0:
482,202,85185,1,2,0:0:0:0:
482,202,85285,2,0,P|432:214|355:163,1,121.499996292114,2|0,3:2|0:0,0:0:0:0:
344,195,85685,2,0,P|369:251|365:290,1,80.9999975280763,2|0,3:2|0:0,0:0:0:0:
222,359,86085,2,0,B|176:346|176:346|150:363|150:363|73:350,1,121.499996292114,2|0,3:2|0:0,0:0:0:0:
79,351,86485,2,0,P|58:305|70:258,1,80.9999975280763,0|0,3:2|0:0,0:0:0:0:
66,241,86785,1,0,0:0:0:0:
80,223,86885,6,0,B|161:189|162:266|248:230,1,161.999995056153,2|0,3:2|3:2,0:0:0:0:
255,74,87485,2,0,P|219:109|209:157,1,80.9999975280763,2|0,0:0|3:2,0:0:0:0:
341,211,87885,1,0,0:0:0:0:
341,211,87985,1,0,3:2:0:0:
341,211,88085,2,0,P|408:200|458:235,1,121.499996292114,0|0,3:2|0:0,0:0:0:0:
470,243,88485,6,0,P|431:273|443:380,1,161.999995056153,2|0,3:2|3:2,0:0:0:0:
270,245,89085,2,0,P|255:283|347:343,1,161.999995056153,2|0,0:0|0:0,0:0:0:0:
152,327,89685,2,0,P|157:365|200:367,1,80.9999975280763,2|0,3:2|0:0,0:0:0:0:
180,198,90085,6,0,B|126:186|126:186|95:217|95:217|28:232,1,161.999995056153,2|0,3:2|3:2,0:0:0:0:
45,22,90685,2,0,P|15:54|100:86,1,161.999995056153,2|0,0:0|0:0,0:0:0:0:
193,28,91285,2,0,P|233:19|281:40,1,80.9999975280763,2|2,3:2|0:0,0:0:0:0:
402,137,91685,6,0,L|422:46,1,80.9999975280763,2|2,3:2|0:0,0:0:0:0:
252,207,92085,2,0,L|232:116,1,80.9999975280763,2|2,3:2|0:0,0:0:0:0:
407,274,92485,1,2,3:2:0:0:
339,199,92685,1,2,0:0:0:0:
245,316,92885,2,0,P|188:296|119:319,1,121.499996292114,0|0,3:2|0:0,0:0:0:0:
276,321,93285,6,0,B|329:317|329:317|370:355|370:355|451:352,1,161.999995056153,2|0,3:2|3:2,0:0:0:0:
449,175,93885,2,0,B|396:208|417:272|417:272|441:274|463:250,1,161.999995056153,2|0,0:0|0:0,0:0:0:0:
494,84,94485,2,0,P|453:71|396:92,1,80.9999975280763,0|0,3:2|0:0,0:0:0:0:
261,202,94885,2,0,P|328:191|301:94,1,161.999995056153,2|0,3:2|3:2,0:0:0:0:
168,130,95485,2,0,P|195:91|129:5,1,161.999995056153,2|0,0:0|0:0,0:0:0:0:
54,147,96085,2,0,P|59:95|39:58,1,80.9999975280763,2|0,3:2|0:0,0:0:0:0:
11,268,96485,6,0,B|95:286|89:200|182:231,1,161.999995056153,2|0,3:2|3:2,0:0:0:0:
220,338,97085,1,2,0:0:0:0:
303,280,97285,2,0,P|366:260|443:293,1,121.499996292114,0|0,3:2|3:2,0:0:0:0:
450,285,97685,2,0,P|480:243|467:190,1,80.9999975280763,0|0,3:2|0:0,0:0:0:0:
423,77,98085,2,0,P|371:68|323:88,1,80.9999975280763,0|2,3:2|0:0,0:0:0:0:
216,169,98485,5,2,3:2:0:0:
314,146,98685,1,2,0:0:0:0:
215,253,98885,5,2,3:2:0:0:
117,230,99085,1,2,0:0:0:0:
217,333,99285,5,2,3:2:0:0:
315,310,99485,1,2,0:0:0:0:
114,345,99685,6,0,B|64:299|1:341|1:341|15:368|56:371,1,161.999995056153,2|0,3:2|3:2,0:0:0:0:
74,120,100285,2,0,P|38:152|100:238,1,161.999995056153,2|0,0:0|0:0,0:0:0:0:
173,37,100885,2,0,P|151:78|219:106,1,121.499996292114,2|0,3:2|0:0,0:0:0:0:
229,123,101285,2,0,P|269:108|311:118,1,80.9999975280763,2|0,3:2|0:0,0:0:0:0:
412,257,101685,2,0,P|372:258|332:236,1,80.9999975280763,0|0,3:2|0:0,0:0:0:0:
193,299,102085,5,2,3:2:0:0:
281,367,102285,1,2,0:0:0:0:
231,222,102485,2,0,P|190:210|137:234,1,80.9999975280763,2|2,3:2|0:0,0:0:0:0:
18,342,102885,2,0,P|59:354|112:330,1,80.9999975280763,2|0,3:2|0:0,0:0:0:0:
7,142,103285,2,0,L|16:229,1,80.9999975280763,0|0,3:2|3:2,0:0:0:0:
18,243,103585,1,0,3:2:0:0:
21,259,103685,1,0,3:2:0:0:
116,121,103885,1,0,3:2:0:0:
116,121,103985,1,0,3:2:0:0:
116,121,104085,2,0,P|159:110|232:133,1,121.499996292114,0|0,3:2|0:0,0:0:0:0:
243,143,104485,6,0,P|234:167|232:187,1,40.4999987640381,2|2,3:2|0:0,0:0:0:0:
357,261,104685,2,0,P|350:238|338:219,1,40.4999987640381,2|2,0:0|0:0,0:0:0:0:
202,280,104885,2,0,L|249:291,3,40.4999987640381,2|2|2|2,3:2|0:0|0:0|0:0,0:0:0:0:
342,363,105285,2,0,L|294:369,3,40.4999987640381,2|0|2|0,3:2|0:0|0:0|0:0,0:0:0:0:
474,281,105685,1,2,3:2:0:0:
476,260,105785,1,0,0:0:0:0:
479,240,105885,1,2,0:0:0:0:
482,220,105985,1,0,0:0:0:0:
481,197,106085,6,0,B|443:175|443:175|380:190,1,82.7999972204591,6|0,3:2|0:0,0:0:0:0:
389,199,106385,1,0,0:0:0:0:
378,207,106485,1,8,0:0:0:0:
242,44,106685,1,2,0:0:0:0:
242,44,106785,1,2,0:0:0:0:
242,44,106885,2,0,L|371:64,2,124.199995830689,2|2|2,3:2|0:0|0:0,0:0:0:0:
46,89,107685,2,0,P|74:126|46:209,1,124.199995830689,2|0,3:2|0:0,0:0:0:0:
33,227,108085,2,0,L|129:212,1,82.7999972204591,8|2,0:0|0:0,0:0:0:0:
261,363,108485,5,2,3:2:0:0:
140,293,108685,1,2,0:0:0:0:
140,293,108785,1,2,0:0:0:0:
140,293,108885,1,10,0:0:0:0:
284,246,109085,1,2,0:0:0:0:
34,305,109285,6,0,P|21:264|40:215,1,82.7999972204591,2|0,3:2|0:0,0:0:0:0:
200,145,109685,2,0,P|170:175|119:183,1,82.7999972204591,10|2,0:0|0:0,0:0:0:0:
17,99,110085,1,2,3:2:0:0:
176,21,110285,1,2,0:0:0:0:
176,21,110385,1,2,0:0:0:0:
176,21,110485,2,0,P|239:45|301:17,1,124.199995830689,10|2,0:0|0:0,0:0:0:0:
314,23,110885,2,0,B|339:59|339:59|330:105,1,82.7999972204591,2|0,3:2|0:0,0:0:0:0:
167,147,111285,1,8,0:0:0:0:
307,231,111485,5,2,0:0:0:0:
307,231,111585,1,2,0:0:0:0:
307,231,111685,2,0,L|353:223,3,41.3999986102295,2|0|2|2,3:2|0:0|0:0|0:0,0:0:0:0:
137,270,112085,2,0,L|79:261,3,41.3999986102295,10|0|2|2,0:0|0:0|0:0|0:0,0:0:0:0:
297,343,112485,6,0,P|346:360|423:317,1,124.199995830689,6|0,3:2|0:0,0:0:0:0:
435,324,112885,2,0,B|477:312|477:312|516:330,1,82.7999972204591,8|2,0:0|0:0,0:0:0:0:
381,154,113285,2,0,B|373:202|373:202|355:223|355:223|342:291,2,124.199995830689,2|2|2,3:2|0:0|0:0,0:0:0:0:
176,96,114085,2,0,L|191:184,1,82.7999972204591,2|2,3:2|0:0,0:0:0:0:
195,196,114385,1,2,0:0:0:0:
201,217,114485,1,10,0:0:0:0:
315,106,114685,1,2,0:0:0:0:
226,309,114885,6,0,P|182:317|129:285,1,82.7999972204591,2|2,3:2|0:0,0:0:0:0:
127,286,115185,1,2,0:0:0:0:
106,272,115285,1,10,0:0:0:0:
15,120,115485,1,2,0:0:0:0:
210,67,115685,6,0,P|227:113|190:189,1,124.199995830689,10|0,0:0|0:0,0:0:0:0:
196,205,116085,2,0,P|241:191|282:210,1,82.7999972204591,8|0,0:0|3:2,0:0:0:0:
403,347,116485,5,8,0:0:0:0:
296,285,116685,1,0,3:2:0:0:
465,287,116885,2,0,P|492:332|487:370,1,82.7999972204591,8|0,0:0|3:2,0:0:0:0:
299,201,117285,5,2,3:2:0:0:
299,201,117385,1,0,3:2:0:0:
299,201,117485,2,0,L|359:189,1,41.3999986102295,0|0,3:2|3:2,0:0:0:0:
500,128,117685,1,2,3:2:0:0:
500,128,117785,1,0,3:2:0:0:
500,128,117885,2,0,L|440:116,1,41.3999986102295,0|0,3:2|3:2,0:0:0:0:
239,37,118085,5,2,3:2:0:0:
277,25,118185,1,0,3:2:0:0:
314,42,118285,1,0,3:2:0:0:
330,79,118385,1,0,3:2:0:0:
317,117,118485,1,10,0:0:0:0:
307,114,118585,1,8,0:0:0:0:
298,110,118685,1,8,0:0:0:0:
288,107,118785,1,8,0:0:0:0:
278,103,118885,1,6,3:2:0:0:
85,343,119685,6,0,L|39:351,2,41.3999986102295,0|0|0,3:2|3:2|3:2,0:0:0:0:
221,215,120085,1,8,0:0:0:0:
238,240,120185,1,8,0:0:0:0:
247,270,120285,1,8,0:0:0:0:
246,301,120385,1,8,0:0:0:0:
236,330,120485,6,0,P|299:317|375:369,1,148.50000453186,6|2,3:2|0:0,0:0:0:0:
396,359,120885,2,0,P|384:310|403:260,1,99.0000030212403,8|2,0:0|0:0,0:0:0:0:
502,74,121285,1,2,3:2:0:0:
477,200,121485,1,0,0:0:0:0:
477,200,121585,1,2,0:0:0:0:
477,200,121685,1,8,0:0:0:0:
358,44,121885,1,2,0:0:0:0:
296,252,122085,6,0,L|197:236,1,99.0000030212403,2|0,3:2|0:0,0:0:0:0:
172,233,122385,1,2,0:0:0:0:
146,231,122485,1,8,0:0:0:0:
20,129,122685,1,2,0:0:0:0:
216,16,122885,2,0,B|249:95|175:82|216:170,1,148.50000453186,2|2,3:2|0:0,0:0:0:0:
223,165,123285,2,0,B|273:177|273:177|316:150,1,99.0000030212403,8|0,0:0|0:0,0:0:0:0:
482,347,123685,6,0,P|434:326|375:352,1,99.0000030212403,6|0,3:2|0:0,0:0:0:0:
375,348,123985,1,2,0:0:0:0:
362,359,124085,1,8,0:0:0:0:
184,248,124285,1,2,0:0:0:0:
402,133,124485,2,0,L|386:231,1,99.0000030212403,2|0,3:2|0:0,0:0:0:0:
385,248,124785,1,2,0:0:0:0:
380,269,124885,1,8,0:0:0:0:
191,152,125085,1,2,0:0:0:0:
157,349,125285,5,6,3:2:0:0:
272,214,125485,1,0,0:0:0:0:
272,214,125585,1,2,0:0:0:0:
272,214,125685,1,8,0:0:0:0:
75,271,125885,1,2,0:0:0:0:
284,306,126085,5,2,3:2:0:0:
83,176,126285,1,0,0:0:0:0:
83,176,126385,1,2,0:0:0:0:
83,176,126485,1,8,0:0:0:0:
290,115,126685,2,0,L|240:108,1,49.5000015106202,0|0,3:2|0:0,0:0:0:0:
34,20,126885,6,0,P|76:51|42:159,1,148.50000453186,6|2,3:2|0:0,0:0:0:0:
83,176,127285,2,0,P|125:161|184:185,1,99.0000030212403,8|2,0:0|0:0,0:0:0:0:
252,361,127685,1,2,3:2:0:0:
129,259,127885,1,0,0:0:0:0:
129,259,127985,1,2,0:0:0:0:
129,259,128085,1,8,0:0:0:0:
261,225,128285,1,2,0:0:0:0:
15,316,128485,6,0,P|-4:270|11:220,1,99.0000030212403,6|0,3:2|0:0,0:0:0:0:
16,209,128785,1,2,0:0:0:0:
28,189,128885,1,8,0:0:0:0:
130,22,129085,1,2,0:0:0:0:
280,229,129285,2,0,P|231:189|129:231,1,148.50000453186,2|0,3:2|0:0,0:0:0:0:
118,205,129685,2,0,B|103:156|103:156|129:107,1,99.0000030212403,8|0,0:0|0:0,0:0:0:0:
474,52,130085,6,0,P|408:71|369:14,1,148.50000453186,6|2,3:2|0:0,0:0:0:0:
342,5,130485,2,0,L|322:121,1,99.0000030212403,8|2,0:0|0:0,0:0:0:0:
391,294,130885,1,2,3:2:0:0:
512,197,131085,1,0,0:0:0:0:
512,197,131185,1,2,0:0:0:0:
512,197,131285,1,8,0:0:0:0:
475,362,131485,1,2,0:0:0:0:
358,210,131685,6,0,P|299:201|258:225,1,99.0000030212403,6|0,3:2|0:0,0:0:0:0:
246,234,131985,1,2,0:0:0:0:
227,249,132085,1,8,0:0:0:0:
84,353,132285,1,0,0:0:0:0:
317,309,132485,5,2,3:2:0:0:
188,374,132685,1,2,3:2:0:0:
188,374,132785,1,2,3:2:0:0:
188,374,132885,1,8,0:0:0:0:
32,247,133085,2,0,L|44:193,1,49.5000015106202,8|8,0:0|0:0,0:0:0:0:
170,52,133285,6,0,B|232:85|232:85|276:81|305:34,1,148.50000453186,6|2,3:2|0:0,0:0:0:0:
323,40,133685,2,0,B|376:32|376:32|418:62,1,99.0000030212403,8|2,0:0|0:0,0:0:0:0:
357,284,134085,1,2,3:2:0:0:
316,149,134285,1,0,0:0:0:0:
316,149,134385,1,2,0:0:0:0:
316,149,134485,1,8,0:0:0:0:
466,267,134685,1,2,0:0:0:0:
281,354,134885,6,0,P|229:333|133:370,1,148.50000453186,6|2,3:2|0:0,0:0:0:0:
97,368,135285,2,0,B|65:326|65:326|98:273,1,99.0000030212403,8|2,0:0|0:0,0:0:0:0:
231,97,135685,2,0,P|161:128|142:17,1,198.000006042481,2|8,3:2|0:0,0:0:0:0:
232,210,136285,1,0,0:0:0:0:
343,25,136485,6,0,P|397:59|504:13,1,148.50000453186,2|2,3:2|0:0,0:0:0:0:
491,51,136885,2,0,P|505:97|483:153,1,99.0000030212403,8|2,0:0|0:0,0:0:0:0:
305,250,137285,1,2,3:2:0:0:
481,228,137485,1,0,0:0:0:0:
481,228,137585,1,2,0:0:0:0:
481,228,137685,2,0,L|503:344,1,99.0000030212403,8|2,0:0|0:0,0:0:0:0:
203,299,138085,5,6,3:2:0:0:
396,354,138285,1,0,0:0:0:0:
396,354,138385,1,2,0:0:0:0:
396,354,138485,1,8,0:0:0:0:
286,252,138685,1,2,0:0:0:0:
491,135,138885,1,2,3:2:0:0:
408,260,139085,1,0,0:0:0:0:
408,260,139185,1,2,0:0:0:0:
408,260,139285,1,8,0:0:0:0:
294,106,139485,1,2,0:0:0:0:
208,347,139685,6,0,P|258:328|322:353,1,99.0000030212403,6|0,3:2|0:0,0:0:0:0:
186,358,139985,2,0,P|140:370|84:346,1,99.0000030212403,2|0,3:2|0:0,0:0:0:0:
29,278,140285,1,2,3:2:0:0:
184,143,140485,6,0,B|200:190|200:190|170:249,1,99.0000030212403,6|0,3:2|0:0,0:0:0:0:
165,127,140785,2,0,B|143:83|143:83|171:27,1,99.0000030212403,2|0,3:2|0:0,0:0:0:0:
240,3,141085,1,2,3:2:0:0:
418,188,141285,6,0,P|467:198|518:176,1,99.0000030212403,6|0,3:2|0:0,0:0:0:0:
397,170,141585,2,0,B|347:153|347:153|296:183,1,99.0000030212403,2|0,3:2|0:0,0:0:0:0:
242,235,141885,1,2,3:2:0:0:
456,361,142085,2,0,P|481:320|458:256,1,99.0000030212403,6|0,3:2|0:0,0:0:0:0:
325,384,142485,1,0,3:2:0:0:
170,311,142685,5,0,3:2:0:0:
170,311,142785,1,2,0:0:0:0:
170,311,142885,1,6,3:2:0:0:
319,280,143085,1,2,0:0:0:0:
319,280,143185,1,2,3:2:0:0:
84,224,143485,1,2,3:2:0:0:
247,43,143685,5,6,3:2:0:0:
181,201,143885,1,0,0:0:0:0:
181,201,143985,1,2,3:2:0:0:
181,201,144085,1,0,0:0:0:0:
103,52,144285,1,2,3:2:0:0:
363,140,144485,6,0,B|324:78|324:78|290:212,1,198.000006042481,6|8,3:2|0:0,0:0:0:0:
435,382,145085,1,0,0:0:0:0:
318,334,145285,5,2,3:2:0:0:
318,334,145385,1,0,3:2:0:0:
318,334,145485,2,0,L|262:345,1,49.5000015106202,0|0,3:2|3:2,0:0:0:0:
172,384,145685,1,10,0:0:0:0:
172,384,145785,1,8,0:0:0:0:
172,384,145885,2,0,L|116:373,1,49.5000015106202,10|8,0:0|0:0,0:0:0:0:
0,164,146085,6,0,P|62:199|49:313,2,180,6|8|0,3:2|0:0|3:2,0:0:0:0:
202,23,147085,1,0,0:0:0:0:
202,23,147185,1,0,0:0:0:0:
202,23,147285,2,0,P|264:59|333:22,1,135,10|0,0:0|0:0,0:0:0:0:
189,122,147685,6,0,P|140:111|88:135,1,90,2|0,3:2|0:0,0:0:0:0:
86,132,147985,1,0,0:0:0:0:
72,140,148085,1,10,0:0:0:0:
181,337,148285,1,2,0:0:0:0:
181,337,148385,1,0,0:0:0:0:
181,337,148485,2,0,P|242:305|325:347,1,135,0|0,3:2|0:0,0:0:0:0:
331,346,148885,2,0,B|379:361|379:361|422:340,1,90,8|0,0:0|0:0,0:0:0:0:
377,136,149285,6,0,P|411:185|491:136,1,135,6|0,3:2|0:0,0:0:0:0:
491,140,149685,2,0,L|501:96,3,45,8|0|2|2,0:0|0:0|0:0|0:0,0:0:0:0:
362,43,150085,2,0,L|352:-1,3,45,0|2|2|2,3:2|0:0|0:0|0:0,0:0:0:0:
247,142,150485,2,0,L|257:98,3,45,8|2|2|2,0:0|0:0|0:0|0:0,0:0:0:0:
56,85,150885,5,2,3:2:0:0:
176,250,151085,1,0,0:0:0:0:
176,250,151185,1,2,0:0:0:0:
176,250,151285,1,8,0:0:0:0:
58,226,151485,1,2,0:0:0:0:
284,193,151685,5,2,3:2:0:0:
206,143,151885,1,2,0:0:0:0:
206,143,151985,1,2,0:0:0:0:
206,143,152085,1,8,0:0:0:0:
338,360,152285,5,2,0:0:0:0:
338,360,152385,1,0,0:0:0:0:
338,360,152485,2,0,P|392:375|446:353,1,90,6|0,3:2|0:0,0:0:0:0:
372,138,152885,2,0,P|332:177|324:235,1,90,10|2,0:0|0:0,0:0:0:0:
502,76,153285,2,0,B|452:63|452:63|434:38|434:38|350:17,2,135,2|2|2,3:2|0:0|0:0,0:0:0:0:
501,237,154085,2,0,B|458:252|458:252|396:205,1,90,2|2,3:2|0:0,0:0:0:0:
219,145,154485,1,10,0:0:0:0:
300,263,154685,1,2,0:0:0:0:
273,64,154885,2,0,P|223:44|127:114,1,180,6|8,3:2|0:0,0:0:0:0:
94,334,155485,1,2,0:0:0:0:
219,145,155685,6,0,L|327:159,1,90,6|0,3:2|0:0,0:0:0:0:
336,162,155985,1,0,0:0:0:0:
367,168,156085,2,0,L|376:215,1,45,10|2,0:0|0:0,0:0:0:0:
214,300,156285,2,0,L|223:253,1,45,2|0,0:0|0:0,0:0:0:0:
364,352,156485,1,0,3:2:0:0:
364,352,156585,1,0,0:0:0:0:
364,352,156685,2,0,L|311:341,1,45,2|2,0:0|0:0,0:0:0:0:
131,359,156885,2,0,L|76:371,3,45,10|0|2|2,0:0|0:0|0:0|0:0,0:0:0:0:
39,142,157285,5,6,3:2:0:0:
156,204,157485,1,2,0:0:0:0:
156,204,157585,1,2,0:0:0:0:
156,204,157685,1,10,0:0:0:0:
34,238,157885,1,2,0:0:0:0:
264,134,158085,1,6,3:2:0:0:
144,64,158285,1,2,0:0:0:0:
147,89,158385,1,2,0:0:0:0:
149,110,158485,1,10,0:0:0:0:
286,279,158685,1,0,0:0:0:0:
289,254,158785,1,0,0:0:0:0:
292,231,158885,6,0,P|345:217|389:232,1,90,2|0,3:2|0:0,0:0:0:0:
401,236,159185,1,2,0:0:0:0:
427,247,159285,2,0,L|470:261,1,45,10|2,0:0|0:0,0:0:0:0:
479,46,159485,1,2,0:0:0:0:
446,27,159585,1,2,0:0:0:0:
409,21,159685,1,0,3:2:0:0:
373,27,159785,1,2,0:0:0:0:
340,46,159885,1,2,0:0:0:0:
316,74,159985,1,2,0:0:0:0:
303,109,160085,1,10,0:0:0:0:
411,146,160285,1,2,0:0:0:0:
176,201,160485,5,6,3:2:0:0:
206,176,160585,1,2,0:0:0:0:
220,142,160685,1,2,0:0:0:0:
214,105,160785,1,2,0:0:0:0:
198,77,160885,2,0,B|155:62|155:62|101:80,1,90,10|2,0:0|0:0,0:0:0:0:
43,99,161185,1,2,0:0:0:0:
29,111,161285,2,0,L|20:162,1,45,2|0,3:2|0:0,0:0:0:0:
145,266,161485,2,0,L|136:215,1,45,2|2,0:0|0:0,0:0:0:0:
2,340,161685,1,10,0:0:0:0:
2,340,161785,1,0,0:0:0:0:
2,340,161885,2,0,L|51:352,1,45,2|0,0:0|0:0,0:0:0:0:
234,292,162085,6,0,P|277:276|354:338,1,135,2|2,3:2|0:0,0:0:0:0:
374,323,162485,2,0,L|398:219,1,90,10|2,0:0|0:0,0:0:0:0:
403,212,162785,1,0,0:0:0:0:
408,189,162885,2,0,L|419:142,1,45,2|0,3:2|0:0,0:0:0:0:
257,87,163085,2,0,L|268:134,1,45,2|2,0:0|0:0,0:0:0:0:
481,62,163285,2,0,P|439:41|378:55,1,90,10|0,0:0|0:0,0:0:0:0:
146,227,163685,5,6,3:2:0:0:
351,148,163885,1,0,0:0:0:0:
351,148,163985,1,2,0:0:0:0:
351,148,164085,1,10,0:0:0:0:
203,294,164285,1,2,0:0:0:0:
268,51,164485,5,6,3:2:0:0:
337,242,164685,1,2,0:0:0:0:
337,242,164785,1,2,0:0:0:0:
337,242,164885,1,10,0:0:0:0:
200,140,165085,2,0,L|138:145,1,45,2|2,0:0|0:0,0:0:0:0:
154,368,165285,6,0,P|198:375|247:358,1,90,6|0,3:2|0:0,0:0:0:0:
138,353,165585,2,0,P|97:342|50:368,1,90,0|0,3:2|0:0,0:0:0:0:
0,273,165885,1,0,3:2:0:0:
187,142,166085,6,0,B|208:180|208:180|177:239,1,90,6|0,3:2|0:0,0:0:0:0:
160,125,166385,2,0,B|131:84|131:84|151:41,1,90,0|0,3:2|0:0,0:0:0:0:
231,4,166685,1,0,3:2:0:0:
368,201,166885,6,0,P|316:214|277:192,1,90,6|0,3:2|0:0,0:0:0:0:
392,188,167185,2,0,B|437:172|437:172|492:198,1,90,0|0,3:2|0:0,0:0:0:0:
504,272,167485,1,0,3:2:0:0:
237,288,167685,5,6,3:2:0:0:
310,360,167885,1,0,0:0:0:0:
254,204,168085,2,0,P|213:201|157:232,1,90,0|0,3:2|3:2,0:0:0:0:
103,270,168385,5,0,0:0:0:0:
86,245,168485,2,0,B|57:206|57:206|81:153,1,90,6|2,3:2|0:0,0:0:0:0:
87,142,168785,1,2,3:2:0:0:
101,118,168885,1,2,0:0:0:0:
305,80,169085,1,0,3:2:0:0:
35,31,169285,5,6,3:2:0:0:
249,153,169485,1,2,0:0:0:0:
249,153,169585,1,2,3:2:0:0:
249,153,169685,1,2,0:0:0:0:
145,210,169885,1,0,3:2:0:0:
485,323,170085,6,0,B|427:251|329:295|329:295|325:336|398:359,1,270,6|0,3:2|0:0,0:0:0:0:
311,176,170885,5,10,0:0:0:0:
269,159,170985,1,8,0:0:0:0:
225,164,171085,1,8,0:0:0:0:
187,188,171185,1,8,0:0:0:0:
163,232,171285,1,8,0:3:0:0:
140,270,171385,1,8,0:3:0:0:
102,294,171485,1,8,0:3:0:0:
58,298,171585,1,8,0:3:0:0:
16,282,171685,6,0,L|-1:188,1,94.4999971160889,6|0,3:1|0:0,0:0:0:0:
100,48,173285,6,0,L|60:64,1,40.4999987640381,2|0,0:0|0:0,0:0:0:0:
57,144,174085,6,0,L|90:170,1,40.4999987640381,2|0,0:0|0:0,0:0:0:0:
168,118,174885,6,0,B|236:93|236:158|305:140,1,144,2|0,0:0|0:0,0:0:0:0:
458,342,177285,6,0,L|439:340,1,18,2|0,0:0|0:0,0:0:0:0:
369,364,177685,2,0,L|348:368,1,18,2|0,0:0|0:0,0:0:0:0:
219,279,178085,6,0,P|245:303|300:298,1,90,2|0,0:0|0:0,0:0:0:0:
308,205,179285,6,0,L|291:214,1,18,2|0,0:0|0:0,0:0:0:0:
468,171,179685,6,0,L|507:166,1,36,2|2,0:0|0:0,0:0:0:0:
448,254,180285,6,0,L|392:240,1,54,2|0,0:0|0:0,0:0:0:0:
265,99,181085,5,2,0:0:0:0:
265,99,181285,2,0,B|315:87|352:133|352:133|336:150|307:147,1,144,2|0,0:0|0:1,0:0:0:0:
40,287,184485,6,0,L|45:336,2,40.4999987640381,2|2|2,0:0|0:0|0:0,0:0:0:0:
35,195,185285,2,0,L|21:161,1,26.9999991760254
130,120,185685,2,0,L|107:149,1,26.9999991760254,2|0,0:0|0:0,0:0:0:0:
169,262,186085,6,0,L|225:243,1,53.9999983520508,2|0,0:0|0:0,0:0:0:0:
147,265,186685,2,0,L|102:226,1,53.9999983520508,2|0,0:0|0:0,0:0:0:0:
159,282,187285,2,0,L|151:319,1,26.9999991760254,2|0,0:0|0:0,0:0:0:0:
267,362,187685,6,0,P|306:344|323:345,1,53.9999983520508,2|2,0:0|0:0,0:0:0:0:
426,284,188285,2,0,P|403:316|394:361,1,80.9999975280763,2|0,0:0|0:0,0:0:0:0:
488,206,189085,5,2,0:0:0:0:
488,206,189285,2,0,L|445:196,2,40.4999987640381,2|2|2,0:0|0:0|0:0,0:0:0:0:
423,118,190085,2,0,L|395:121,1,26.9999991760254,2|2,0:0|0:0,0:0:0:0:
311,185,190485,6,0,L|267:175,1,40.4999987640381
203,141,190885,6,0,B|190:184|190:184|211:230,1,90,6|0,3:2|0:0,0:0:0:0:
270,274,191185,2,0,B|289:323|289:323|262:370,1,90,6|0,3:2|0:0,0:0:0:0:
197,380,191485,1,6,3:2:0:0:
51,236,191685,6,0,B|26:279|26:279|49:333,1,90,6|0,3:2|0:0,0:0:0:0:
80,220,191985,2,0,P|106:174|92:128,1,90,6|0,3:2|0:0,0:0:0:0:
24,73,192285,1,6,3:2:0:0:
208,123,192485,6,0,P|255:139|310:111,1,90,6|0,3:2|0:0,0:0:0:0:
349,69,192785,2,0,B|392:55|392:55|442:78,1,90,6|0,3:2|0:0,0:0:0:0:
487,131,193085,1,6,3:2:0:0:
300,309,193285,6,0,B|257:294|257:294|193:328,1,90,6|0,3:2|0:0,0:0:0:0:
324,329,193585,2,0,P|367:348|472:296,1,135,6|0,0:0|0:0,0:0:0:0:
243,129,194085,6,0,P|282:152|303:49,1,180,6|0,3:2|0:0,0:0:0:0:
321,59,194685,1,2,3:2:0:0:
56,54,194885,6,0,B|97:109|97:109|39:213,1,180,6|0,3:2|0:0,0:0:0:0:
42,206,195485,1,2,3:2:0:0:
207,363,195685,6,0,P|258:334|341:361,1,135,6|0,3:2|0:0,0:0:0:0:
357,363,196085,2,0,B|386:322|386:322|375:273,1,90,0|2,3:2|0:0,0:0:0:0:
196,117,196485,2,0,P|184:168|209:217,1,90,14|0,0:0|3:2,0:0:0:0:
210,224,196785,1,0,3:2:0:0:
221,241,196885,1,14,0:0:0:0:
355,80,197085,2,0,L|310:93,1,45,0|0,3:2|3:2,0:0:0:0:
459,259,197285,5,2,3:2:0:0:
459,255,197385,1,0,3:2:0:0:
460,251,197485,1,0,3:2:0:0:
461,247,197585,1,0,3:2:0:0:
461,244,197685,1,8,0:3:0:0:
462,240,197785,1,8,0:3:0:0:
463,236,197885,1,8,0:3:0:0:
463,233,197985,1,8,0:3:0:0:
464,229,198085,1,10,0:0:0:0:
465,225,198185,1,8,0:0:0:0:
465,222,198285,1,8,0:0:0:0:
466,218,198385,1,8,0:0:0:0:
467,214,198485,1,8,0:0:0:0:
357,332,198885,6,0,P|318:316|224:363,1,148.50000453186,6|2,3:2|0:0,0:0:0:0:
191,369,199285,2,0,L|168:264,1,99.0000030212403,8|2,0:0|0:0,0:0:0:0:
321,90,199685,1,2,3:2:0:0:
278,195,199885,1,0,0:0:0:0:
278,195,199985,1,2,0:0:0:0:
278,195,200085,1,8,0:0:0:0:
212,47,200285,1,2,0:0:0:0:
363,175,200485,6,0,P|388:228|343:308,1,148.50000453186,2|2,3:2|0:0,0:0:0:0:
360,338,200885,2,0,P|421:324|474:351,1,99.0000030212403,8|2,0:0|0:0,0:0:0:0:
223,359,201285,2,0,B|180:334|180:334|133:365|133:365|65:351,1,148.50000453186,2|2,3:2|0:0,0:0:0:0:
57,352,201685,2,0,P|30:297|50:249,1,99.0000030212403,8|0,0:0|0:0,0:0:0:0:
237,76,202085,6,0,B|183:58|183:58|124:80,1,99.0000030212403,6|0,3:2|0:0,0:0:0:0:
120,82,202385,1,2,0:0:0:0:
100,97,202485,1,8,0:0:0:0:
170,263,202685,1,2,0:0:0:0:
303,146,202885,2,0,L|410:127,1,99.0000030212403,2|0,3:2|0:0,0:0:0:0:
423,125,203185,1,2,0:0:0:0:
445,120,203285,1,8,0:0:0:0:
364,279,203485,1,2,0:0:0:0:
151,186,203685,5,6,3:2:0:0:
265,293,203885,1,0,0:0:0:0:
265,293,203985,1,2,0:0:0:0:
265,293,204085,1,8,0:0:0:0:
151,307,204285,1,2,0:0:0:0:
415,213,204485,5,2,3:2:0:0:
311,204,204685,1,0,0:0:0:0:
311,204,204785,1,2,0:0:0:0:
311,204,204885,1,8,0:0:0:0:
458,357,205085,2,0,L|478:305,1,49.5000015106202,0|0,3:2|0:0,0:0:0:0:
512,112,205285,6,0,P|462:127|419:40,1,148.50000453186,6|2,3:2|0:0,0:0:0:0:
395,37,205685,2,0,L|280:21,1,99.0000030212403,8|2,0:0|0:0,0:0:0:0:
152,175,206085,1,2,3:2:0:0:
277,120,206285,1,0,0:0:0:0:
277,120,206385,1,2,0:0:0:0:
277,120,206485,1,8,0:0:0:0:
128,71,206685,1,2,0:0:0:0:
269,221,206885,6,0,P|325:214|395:281,1,148.50000453186,6|2,3:2|0:0,0:0:0:0:
416,294,207285,2,0,L|448:179,1,99.0000030212403,8|2,0:0|0:0,0:0:0:0:
262,348,207685,2,0,B|199:315|190:377|86:344,1,148.50000453186,2|0,3:2|0:0,0:0:0:0:
79,344,208085,2,0,P|48:308|66:245,1,99.0000030212403,8|0,0:0|0:0,0:0:0:0:
230,108,208485,6,0,P|168:112|140:40,1,148.50000453186,6|2,3:2|0:0,0:0:0:0:
154,14,208885,2,0,L|269:-2,1,99.0000030212403,8|2,0:0|0:0,0:0:0:0:
463,188,209285,1,2,3:2:0:0:
341,123,209485,1,0,0:0:0:0:
341,123,209585,1,2,0:0:0:0:
341,123,209685,2,0,L|324:233,1,99.0000030212403,8|2,0:0|0:0,0:0:0:0:
126,366,210085,5,6,3:2:0:0:
242,210,210285,1,0,0:0:0:0:
242,210,210385,1,2,0:0:0:0:
242,210,210485,1,8,0:0:0:0:
274,308,210685,1,0,0:0:0:0:
9,220,210885,5,2,3:2:0:0:
9,220,210985,1,2,3:2:0:0:
9,220,211085,2,0,L|18:273,1,49.5000015106202,2|2,3:2|3:2,0:0:0:0:
153,183,211285,2,0,L|162:130,1,49.5000015106202,8|8,0:0|0:0,0:0:0:0:
21,47,211485,1,8,0:0:0:0:
21,47,211585,1,8,0:0:0:0:
21,47,211685,6,0,B|80:26|80:26|108:51|108:51|170:46,1,148.50000453186,6|2,3:2|0:0,0:0:0:0:
194,46,212085,2,0,P|249:33|304:57,1,99.0000030212403,8|2,0:0|0:0,0:0:0:0:
422,225,212485,1,2,3:2:0:0:
312,151,212685,1,0,0:0:0:0:
312,151,212785,1,2,0:0:0:0:
312,151,212885,1,8,0:0:0:0:
459,125,213085,1,2,0:0:0:0:
278,272,213285,6,0,P|217:251|145:299,1,148.50000453186,6|2,3:2|0:0,0:0:0:0:
132,319,213685,2,0,B|80:333|80:333|29:289,1,99.0000030212403,8|2,0:0|0:0,0:0:0:0:
8,78,214085,2,0,P|56:89|56:184,1,148.50000453186,2|2,3:2|0:0,0:0:0:0:
73,203,214485,2,0,L|175:180,1,99.0000030212403,8|0,0:0|0:0,0:0:0:0:
390,27,214885,6,0,P|338:47|321:106,1,99.0000030212403,2|0,3:2|0:0,0:0:0:0:
314,108,215185,1,2,0:0:0:0:
320,133,215285,1,8,0:0:0:0:
487,228,215485,1,2,0:0:0:0:
334,323,215685,2,0,P|266:306|187:363,1,148.50000453186,2|2,3:2|0:0,0:0:0:0:
170,363,216085,2,0,B|113:377|113:377|68:346,1,99.0000030212403,8|2,0:0|0:0,0:0:0:0:
21,116,216485,5,6,3:2:0:0:
193,186,216685,1,0,0:0:0:0:
193,186,216785,1,2,0:0:0:0:
193,186,216885,1,8,0:0:0:0:
60,219,217085,1,2,0:0:0:0:
308,57,217285,1,2,3:2:0:0:
161,76,217485,1,0,0:0:0:0:
161,76,217585,1,2,0:0:0:0:
161,76,217685,1,8,0:0:0:0:
275,203,217885,2,0,L|341:195,1,49.5000015106202,2|0,0:0|0:0,0:0:0:0:
481,125,218085,6,0,P|455:82|477:22,1,99.0000030212403,6|0,3:2|0:0,0:0:0:0:
493,157,218385,2,0,B|510:202|510:202|478:257,1,99.0000030212403,2|0,3:2|0:0,0:0:0:0:
448,329,218685,1,2,3:2:0:0:
260,291,218885,6,0,P|313:281|368:316,1,99.0000030212403,6|0,3:2|0:0,0:0:0:0:
242,307,219185,2,0,P|190:330|143:312,1,99.0000030212403,2|0,3:2|0:0,0:0:0:0:
78,264,219485,1,2,3:2:0:0:
232,104,219685,6,0,B|260:59|260:59|232:-13,1,99.0000030212403,6|0,3:2|0:0,0:0:0:0:
210,130,219985,2,0,P|185:174|201:239,1,99.0000030212403,2|0,3:2|0:0,0:0:0:0:
242,307,220285,1,2,3:2:0:0:
412,154,220485,6,0,P|467:139|521:184,1,99.0000030212403,6|0,3:2|0:0,0:0:0:0:
396,266,220885,1,0,3:2:0:0:
331,73,221085,5,0,3:2:0:0:
331,73,221185,1,2,0:0:0:0:
331,73,221285,1,6,3:2:0:0:
170,144,221485,1,2,0:0:0:0:
170,144,221585,1,2,3:2:0:0:
299,217,221885,1,0,3:2:0:0:
0,326,222085,5,6,3:2:0:0:
139,248,222285,1,0,0:0:0:0:
139,248,222385,1,2,3:2:0:0:
139,248,222485,1,0,0:0:0:0:
13,200,222685,1,2,3:2:0:0:
332,278,222885,6,0,P|267:264|225:393,1,198.000006042481,6|10,3:2|0:0,0:0:0:0:
201,183,223485,1,0,0:0:0:0:
449,139,223685,5,2,3:2:0:0:
416,177,223785,1,0,3:2:0:0:
368,194,223885,1,0,3:2:0:0:
317,182,223985,1,0,3:2:0:0:
283,144,224085,1,10,0:0:0:0:
247,105,224185,1,8,0:0:0:0:
198,92,224285,1,8,0:0:0:0:
148,110,224385,1,8,0:0:0:0:
118,149,224485,1,6,3:1:0:0:
