osu file format v14

[General]
AudioFilename: audio.mp3
AudioLeadIn: 0
PreviewTime: 52751
Countdown: 0
SampleSet: None
StackLeniency: 0.7
Mode: 3
LetterboxInBreaks: 0
SpecialStyle: 0
WidescreenStoryboard: 0

[Editor]
DistanceSpacing: 1
BeatDivisor: 4
GridSize: 4
TimelineZoom: 1.7

[Metadata]
Title:Opposite World
TitleUnicode:Opposite World
Artist:senya
ArtistUnicode:senya
Creator:Kyousuke-
Version:Kaleidoscope
Source:
Tags:
BeatmapID:1883484
BeatmapSetID:902105

[Difficulty]
HPDrainRate:8
CircleSize:4
OverallDifficulty:7
ApproachRate:5
SliderMultiplier:1.4
SliderTickRate:1

[Events]
//Background and Video events
0,0,"713367.jpg",0,0
//Break Periods
//Storyboard Layer 0 (Background)
//Storyboard Layer 1 (Fail)
//Storyboard Layer 2 (Pass)
//Storyboard Layer 3 (Foreground)
//Storyboard Sound Samples

[TimingPoints]
-58,495.867768595041,4,1,0,40,1,0
53495,-100,4,1,0,40,0,1
85107,-100,4,1,0,40,0,0

[HitObjects]
448,192,1429,128,0,2917:0:0:0:0:
64,192,3165,128,0,3413:0:0:0:0:
192,192,3413,128,0,3661:0:0:0:0:
320,192,3661,128,0,3908:0:0:0:0:
64,192,3908,128,0,4652:0:0:0:0:
448,192,3908,1,0,0:0:0:0:
192,192,4156,128,0,4652:0:0:0:0:
448,192,4404,128,0,4900:0:0:0:0:
320,192,4652,128,0,5148:0:0:0:0:
64,192,4900,128,0,5644:0:0:0:0:
448,192,5148,128,0,5644:0:0:0:0:
192,192,5396,128,0,5892:0:0:0:0:
320,192,5644,128,0,6140:0:0:0:0:
64,192,5892,128,0,6636:0:0:0:0:
448,192,6140,128,0,6388:0:0:0:0:
192,192,6388,128,0,6636:0:0:0:0:
448,192,6636,1,0,0:0:0:0:
320,192,6636,128,0,7380:0:0:0:0:
192,192,7132,128,0,7380:0:0:0:0:
448,192,7380,128,0,7875:0:0:0:0:
64,192,7380,128,0,7627:0:0:0:0:
320,192,7627,128,0,7875:0:0:0:0:
64,192,7875,128,0,8619:0:0:0:0:
192,192,7875,1,0,0:0:0:0:
448,192,8123,128,0,8619:0:0:0:0:
320,192,8371,128,0,8867:0:0:0:0:
192,192,8619,128,0,9115:0:0:0:0:
448,192,8867,128,0,9611:0:0:0:0:
320,192,9115,128,0,9611:0:0:0:0:
64,192,9363,128,0,9859:0:0:0:0:
192,192,9611,128,0,10107:0:0:0:0:
448,192,9859,128,0,10603:0:0:0:0:
64,192,10107,128,0,10355:0:0:0:0:
320,192,10355,128,0,10603:0:0:0:0:
192,192,10603,128,0,11099:0:0:0:0:
64,192,10603,1,0,0:0:0:0:
320,192,11099,128,0,11346:0:0:0:0:
448,192,11346,128,0,11594:0:0:0:0:
192,192,11594,128,0,11842:0:0:0:0:
320,192,11842,128,0,12338:0:0:0:0:
64,192,11842,1,0,0:0:0:0:
192,192,12090,128,0,12586:0:0:0:0:
64,192,12338,128,0,12586:0:0:0:0:
448,192,12338,1,0,0:0:0:0:
448,192,12586,128,0,13082:0:0:0:0:
320,192,12586,1,0,0:0:0:0:
320,192,13082,128,0,13578:0:0:0:0:
192,192,13330,128,0,13826:0:0:0:0:
448,192,13578,128,0,13826:0:0:0:0:
64,192,13826,128,0,14322:0:0:0:0:
320,192,13826,1,0,0:0:0:0:
192,192,14074,128,0,14570:0:0:0:0:
320,192,14322,128,0,14570:0:0:0:0:
448,192,14322,1,0,0:0:0:0:
448,192,14570,128,0,15065:0:0:0:0:
64,192,14570,1,0,0:0:0:0:
192,192,15065,128,0,15313:0:0:0:0:
64,192,15313,128,0,15561:0:0:0:0:
320,192,15561,128,0,15809:0:0:0:0:
192,192,15809,128,0,16305:0:0:0:0:
448,192,15809,1,0,0:0:0:0:
320,192,16057,128,0,16553:0:0:0:0:
448,192,16305,128,0,16801:0:0:0:0:
64,192,16305,1,0,0:0:0:0:
64,192,16553,128,0,17049:0:0:0:0:
192,192,16801,128,0,17297:0:0:0:0:
320,192,16801,1,0,0:0:0:0:
448,192,17049,128,0,17545:0:0:0:0:
320,192,17297,128,0,17793:0:0:0:0:
64,192,17297,1,0,0:0:0:0:
192,192,17545,128,0,18041:0:0:0:0:
64,192,17793,128,0,18289:0:0:0:0:
448,192,17793,1,0,0:0:0:0:
320,192,18041,128,0,18537:0:0:0:0:
448,192,18289,128,0,18537:0:0:0:0:
192,192,18289,1,0,0:0:0:0:
192,192,18537,128,0,18784:0:0:0:0:
64,192,18784,128,0,19032:0:0:0:0:
320,192,18784,1,0,0:0:0:0:
192,192,19032,128,0,19280:0:0:0:0:
448,192,19032,1,0,0:0:0:0:
320,192,19280,128,0,19528:0:0:0:0:
64,192,19280,1,0,0:0:0:0:
448,192,19528,128,0,19776:0:0:0:0:
192,192,19528,1,0,0:0:0:0:
64,192,19776,128,0,20520:0:0:0:0:
320,192,19776,1,0,0:0:0:0:
448,192,20024,128,0,20272:0:0:0:0:
320,192,20272,128,0,20520:0:0:0:0:
192,192,20520,128,0,20768:0:0:0:0:
448,192,20520,1,0,0:0:0:0:
320,192,20768,128,0,21512:0:0:0:0:
64,192,20768,1,0,0:0:0:0:
448,192,21016,128,0,21264:0:0:0:0:
192,192,21264,128,0,21512:0:0:0:0:
64,192,21512,128,0,21760:0:0:0:0:
448,192,21512,1,0,0:0:0:0:
192,192,21760,128,0,22503:0:0:0:0:
320,192,21760,1,0,0:0:0:0:
448,192,22008,128,0,22256:0:0:0:0:
64,192,22256,128,0,22503:0:0:0:0:
320,192,22503,128,0,23247:0:0:0:0:
448,192,22503,1,0,0:0:0:0:
192,192,22999,128,0,23247:0:0:0:0:
64,192,23247,128,0,23743:0:0:0:0:
448,192,23247,128,0,23495:0:0:0:0:
320,192,23495,128,0,23743:0:0:0:0:
192,192,23743,128,0,24487:0:0:0:0:
448,192,23743,1,0,0:0:0:0:
64,192,23991,128,0,24239:0:0:0:0:
448,192,24239,128,0,24487:0:0:0:0:
320,192,24487,128,0,24735:0:0:0:0:
64,192,24487,1,0,0:0:0:0:
448,192,24735,128,0,25479:0:0:0:0:
192,192,24735,1,0,0:0:0:0:
64,192,24983,128,0,25231:0:0:0:0:
192,192,25231,128,0,25479:0:0:0:0:
64,192,25479,1,0,0:0:0:0:
320,192,25479,128,0,25727:0:0:0:0:
192,192,25727,128,0,26470:0:0:0:0:
448,192,25727,1,0,0:0:0:0:
448,192,25975,128,0,26222:0:0:0:0:
320,192,26222,128,0,26470:0:0:0:0:
64,192,26470,128,0,26966:0:0:0:0:
448,192,26470,1,0,0:0:0:0:
192,192,26966,128,0,27214:0:0:0:0:
320,192,27214,128,0,27462:0:0:0:0:
448,192,27462,128,0,27710:0:0:0:0:
192,192,27710,128,0,28206:0:0:0:0:
64,192,27710,1,0,0:0:0:0:
320,192,27958,128,0,28454:0:0:0:0:
448,192,28206,1,0,0:0:0:0:
64,192,28206,128,0,28950:0:0:0:0:
192,192,28454,128,0,28950:0:0:0:0:
448,192,28950,128,0,29446:0:0:0:0:
320,192,28950,128,0,29198:0:0:0:0:
64,192,29198,128,0,29446:0:0:0:0:
192,192,29446,128,0,29694:0:0:0:0:
320,192,29694,128,0,30189:0:0:0:0:
448,192,29694,1,0,0:0:0:0:
192,192,29941,128,0,30437:0:0:0:0:
448,192,30189,128,0,30933:0:0:0:0:
64,192,30189,1,0,0:0:0:0:
320,192,30437,128,0,30933:0:0:0:0:
64,192,30933,128,0,31429:0:0:0:0:
192,192,30933,128,0,31181:0:0:0:0:
448,192,31181,128,0,31429:0:0:0:0:
320,192,31429,128,0,31677:0:0:0:0:
192,192,31677,128,0,32173:0:0:0:0:
64,192,31677,1,0,0:0:0:0:
320,192,31925,128,0,32421:0:0:0:0:
448,192,32173,128,0,32669:0:0:0:0:
64,192,32173,128,0,32421:0:0:0:0:
192,192,32421,128,0,32917:0:0:0:0:
320,192,32669,128,0,32917:0:0:0:0:
64,192,32669,128,0,33165:0:0:0:0:
448,192,32917,128,0,33413:0:0:0:0:
320,192,33165,128,0,33661:0:0:0:0:
192,192,33165,128,0,33413:0:0:0:0:
64,192,33413,128,0,33908:0:0:0:0:
192,192,33661,128,0,34156:0:0:0:0:
448,192,33661,128,0,33908:0:0:0:0:
320,192,33908,128,0,34156:0:0:0:0:
448,192,34156,128,0,34652:0:0:0:0:
64,192,34156,128,0,34404:0:0:0:0:
320,192,34404,128,0,34652:0:0:0:0:
64,192,34652,128,0,35520:0:0:0:0:
192,192,34652,128,0,35520:0:0:0:0:
320,192,35148,128,0,35520:0:0:0:0:
448,192,35396,128,0,35520:0:0:0:0:
64,192,35644,128,0,36140:0:0:0:0:
192,192,35644,1,0,0:0:0:0:
320,192,35644,1,0,0:0:0:0:
448,192,35644,1,0,0:0:0:0:
192,192,35892,128,0,36388:0:0:0:0:
320,192,35892,1,0,0:0:0:0:
320,192,36140,128,0,36512:0:0:0:0:
448,192,36140,1,0,0:0:0:0:
448,192,36388,128,0,36636:0:0:0:0:
64,192,36388,1,0,0:0:0:0:
192,192,36636,128,0,37008:0:0:0:0:
64,192,36636,128,0,36884:0:0:0:0:
320,192,36636,1,0,0:0:0:0:
64,192,37008,128,0,37380:0:0:0:0:
320,192,37008,128,0,37256:0:0:0:0:
448,192,37008,128,0,37256:0:0:0:0:
192,192,37380,128,0,37627:0:0:0:0:
320,192,37380,128,0,37627:0:0:0:0:
448,192,37380,1,0,0:0:0:0:
448,192,37627,128,0,38123:0:0:0:0:
64,192,37627,1,0,0:0:0:0:
320,192,37875,128,0,38371:0:0:0:0:
192,192,37875,1,0,0:0:0:0:
192,192,38123,128,0,38495:0:0:0:0:
64,192,38123,1,0,0:0:0:0:
448,192,38371,1,0,0:0:0:0:
64,192,38371,128,0,38619:0:0:0:0:
320,192,38619,128,0,38991:0:0:0:0:
448,192,38619,128,0,38867:0:0:0:0:
192,192,38619,1,0,0:0:0:0:
64,192,38991,128,0,39239:0:0:0:0:
192,192,38991,128,0,39239:0:0:0:0:
448,192,38991,128,0,39363:0:0:0:0:
192,192,39363,128,0,39611:0:0:0:0:
320,192,39363,128,0,39611:0:0:0:0:
64,192,39363,1,0,0:0:0:0:
64,192,39611,128,0,40107:0:0:0:0:
448,192,39611,1,0,0:0:0:0:
192,192,39859,128,0,40107:0:0:0:0:
320,192,39983,128,0,40355:0:0:0:0:
448,192,40107,1,0,0:0:0:0:
192,192,40355,128,0,40603:0:0:0:0:
64,192,40479,128,0,40603:0:0:0:0:
448,192,40603,1,0,0:0:0:0:
320,192,40603,128,0,41099:0:0:0:0:
64,192,40851,128,0,41099:0:0:0:0:
448,192,40975,128,0,41346:0:0:0:0:
192,192,41099,1,0,0:0:0:0:
192,192,41346,128,0,41594:0:0:0:0:
320,192,41470,128,0,41594:0:0:0:0:
64,192,41594,128,0,42090:0:0:0:0:
448,192,41594,1,0,0:0:0:0:
448,192,41842,128,0,42090:0:0:0:0:
320,192,41966,128,0,42090:0:0:0:0:
192,192,42090,128,0,42338:0:0:0:0:
320,192,42338,128,0,42586:0:0:0:0:
64,192,42338,1,0,0:0:0:0:
192,192,42462,1,0,0:0:0:0:
64,192,42586,128,0,42834:0:0:0:0:
448,192,42586,1,0,0:0:0:0:
320,192,42710,1,0,0:0:0:0:
192,192,42834,128,0,43082:0:0:0:0:
448,192,42958,1,0,0:0:0:0:
320,192,43082,128,0,43330:0:0:0:0:
64,192,43082,128,0,43206:0:0:0:0:
448,192,43330,128,0,43578:0:0:0:0:
192,192,43330,128,0,43454:0:0:0:0:
64,192,43578,128,0,44074:0:0:0:0:
320,192,43578,1,0,0:0:0:0:
192,192,43578,1,0,0:0:0:0:
448,192,43826,128,0,44322:0:0:0:0:
192,192,43826,1,0,0:0:0:0:
192,192,44074,128,0,44446:0:0:0:0:
320,192,44074,1,0,0:0:0:0:
320,192,44322,128,0,44570:0:0:0:0:
64,192,44322,1,0,0:0:0:0:
448,192,44570,128,0,44941:0:0:0:0:
64,192,44570,128,0,44818:0:0:0:0:
192,192,44570,1,0,0:0:0:0:
64,192,44941,128,0,45313:0:0:0:0:
192,192,44941,128,0,45189:0:0:0:0:
320,192,44941,128,0,45189:0:0:0:0:
320,192,45313,128,0,45561:0:0:0:0:
192,192,45313,128,0,45561:0:0:0:0:
448,192,45313,1,0,0:0:0:0:
448,192,45561,128,0,46057:0:0:0:0:
64,192,45561,1,0,0:0:0:0:
64,192,45809,128,0,46305:0:0:0:0:
320,192,45809,1,0,0:0:0:0:
320,192,46057,128,0,46429:0:0:0:0:
192,192,46057,1,0,0:0:0:0:
448,192,46305,1,0,0:0:0:0:
192,192,46305,128,0,46553:0:0:0:0:
448,192,46553,128,0,46801:0:0:0:0:
64,192,46553,128,0,46925:0:0:0:0:
320,192,46553,1,0,0:0:0:0:
320,192,46925,128,0,47173:0:0:0:0:
192,192,46925,128,0,47173:0:0:0:0:
448,192,46925,128,0,47297:0:0:0:0:
320,192,47297,128,0,47545:0:0:0:0:
192,192,47297,128,0,47545:0:0:0:0:
64,192,47297,1,0,0:0:0:0:
64,192,47545,128,0,48041:0:0:0:0:
448,192,47545,1,0,0:0:0:0:
448,192,47793,128,0,48041:0:0:0:0:
320,192,47917,128,0,48289:0:0:0:0:
192,192,48041,1,0,0:0:0:0:
64,192,48289,128,0,48537:0:0:0:0:
192,192,48413,128,0,48537:0:0:0:0:
448,192,48537,128,0,49032:0:0:0:0:
320,192,48537,1,0,0:0:0:0:
192,192,48784,128,0,49032:0:0:0:0:
64,192,48908,128,0,49280:0:0:0:0:
320,192,49032,1,0,0:0:0:0:
320,192,49280,128,0,49528:0:0:0:0:
192,192,49280,128,0,49528:0:0:0:0:
448,192,49528,128,0,50024:0:0:0:0:
64,192,49528,1,0,0:0:0:0:
320,192,49776,128,0,50272:0:0:0:0:
192,192,50024,128,0,50520:0:0:0:0:
64,192,50024,1,0,0:0:0:0:
64,192,50272,128,0,50768:0:0:0:0:
448,192,50272,1,0,0:0:0:0:
320,192,50520,128,0,51016:0:0:0:0:
448,192,50520,1,0,0:0:0:0:
192,192,50768,128,0,51264:0:0:0:0:
448,192,51016,1,0,0:0:0:0:
320,192,51264,1,0,0:0:0:0:
448,192,51264,1,0,0:0:0:0:
64,192,51264,128,0,53371:0:0:0:0:
192,192,52256,128,0,53371:0:0:0:0:
320,192,52999,128,0,53371:0:0:0:0:
448,192,53247,128,0,53371:0:0:0:0:
64,192,53495,128,0,54487:0:0:0:0:
320,192,53495,1,0,0:0:0:0:
448,192,53495,1,0,0:0:0:0:
192,192,53495,128,0,53743:0:0:0:0:
320,192,53743,128,0,54115:0:0:0:0:
448,192,53991,128,0,54363:0:0:0:0:
192,192,53991,1,0,0:0:0:0:
320,192,54239,128,0,54363:0:0:0:0:
192,192,54363,128,0,54487:0:0:0:0:
320,192,54487,128,0,55479:0:0:0:0:
448,192,54487,128,0,54735:0:0:0:0:
192,192,54735,128,0,55107:0:0:0:0:
448,192,54983,1,0,0:0:0:0:
64,192,54983,128,0,55355:0:0:0:0:
192,192,55231,128,0,55355:0:0:0:0:
448,192,55355,128,0,55479:0:0:0:0:
64,192,55479,128,0,55975:0:0:0:0:
192,192,55479,128,0,55727:0:0:0:0:
448,192,55727,128,0,55975:0:0:0:0:
320,192,55851,1,0,0:0:0:0:
192,192,55975,128,0,56470:0:0:0:0:
320,192,55975,128,0,56222:0:0:0:0:
64,192,56222,128,0,56470:0:0:0:0:
448,192,56346,1,0,0:0:0:0:
448,192,56470,128,0,56966:0:0:0:0:
320,192,56470,128,0,56718:0:0:0:0:
192,192,56594,1,0,0:0:0:0:
64,192,56718,128,0,56966:0:0:0:0:
192,192,56842,1,0,0:0:0:0:
320,192,56966,128,0,57090:0:0:0:0:
192,192,56966,128,0,57214:0:0:0:0:
448,192,57214,128,0,57462:0:0:0:0:
320,192,57214,128,0,57338:0:0:0:0:
64,192,57462,128,0,58454:0:0:0:0:
192,192,57462,128,0,57710:0:0:0:0:
320,192,57462,1,0,0:0:0:0:
320,192,57710,128,0,58082:0:0:0:0:
448,192,57958,1,0,0:0:0:0:
192,192,57958,128,0,58330:0:0:0:0:
320,192,58206,128,0,58330:0:0:0:0:
448,192,58330,128,0,58454:0:0:0:0:
192,192,58454,128,0,59446:0:0:0:0:
320,192,58454,128,0,58702:0:0:0:0:
448,192,58702,128,0,59074:0:0:0:0:
64,192,58826,1,0,0:0:0:0:
320,192,58950,128,0,59322:0:0:0:0:
448,192,59198,128,0,59322:0:0:0:0:
64,192,59322,128,0,59446:0:0:0:0:
448,192,59446,128,0,59818:0:0:0:0:
320,192,59446,128,0,59570:0:0:0:0:
192,192,59570,128,0,59694:0:0:0:0:
64,192,59694,128,0,59818:0:0:0:0:
320,192,59818,128,0,59941:0:0:0:0:
192,192,59941,128,0,60313:0:0:0:0:
448,192,59941,128,0,60065:0:0:0:0:
64,192,60065,128,0,60189:0:0:0:0:
320,192,60189,128,0,60313:0:0:0:0:
448,192,60313,128,0,60437:0:0:0:0:
64,192,60437,128,0,60933:0:0:0:0:
320,192,60437,128,0,60685:0:0:0:0:
192,192,60437,128,0,60809:0:0:0:0:
448,192,60685,1,0,0:0:0:0:
320,192,60809,1,0,0:0:0:0:
448,192,60933,128,0,61181:0:0:0:0:
192,192,60933,1,0,0:0:0:0:
320,192,61057,1,0,0:0:0:0:
64,192,61181,128,0,61429:0:0:0:0:
192,192,61305,1,0,0:0:0:0:
192,192,61429,128,0,62421:0:0:0:0:
320,192,61429,128,0,61677:0:0:0:0:
448,192,61429,1,0,0:0:0:0:
64,192,61677,128,0,62049:0:0:0:0:
448,192,61925,128,0,62297:0:0:0:0:
320,192,61925,1,0,0:0:0:0:
64,192,62173,128,0,62297:0:0:0:0:
320,192,62297,128,0,62421:0:0:0:0:
64,192,62421,128,0,63413:0:0:0:0:
448,192,62421,128,0,62669:0:0:0:0:
320,192,62669,128,0,63041:0:0:0:0:
192,192,62793,1,0,0:0:0:0:
448,192,62917,128,0,63289:0:0:0:0:
320,192,63165,128,0,63289:0:0:0:0:
192,192,63289,128,0,63413:0:0:0:0:
320,192,63413,128,0,63784:0:0:0:0:
448,192,63413,1,0,0:0:0:0:
192,192,63537,128,0,63661:0:0:0:0:
448,192,63661,128,0,63784:0:0:0:0:
192,192,63784,128,0,63908:0:0:0:0:
64,192,63908,128,0,64280:0:0:0:0:
320,192,63908,1,0,0:0:0:0:
448,192,64032,128,0,64156:0:0:0:0:
192,192,64156,128,0,64280:0:0:0:0:
448,192,64280,128,0,64404:0:0:0:0:
320,192,64404,128,0,64900:0:0:0:0:
192,192,64404,1,0,0:0:0:0:
448,192,64652,128,0,65148:0:0:0:0:
64,192,64652,1,0,0:0:0:0:
64,192,64900,128,0,65396:0:0:0:0:
192,192,64900,1,0,0:0:0:0:
192,192,65148,128,0,65396:0:0:0:0:
320,192,65148,1,0,0:0:0:0:
448,192,65396,128,0,65892:0:0:0:0:
320,192,65396,128,0,65644:0:0:0:0:
192,192,65644,128,0,65892:0:0:0:0:
64,192,65644,1,0,0:0:0:0:
64,192,65892,128,0,66140:0:0:0:0:
320,192,65892,1,0,0:0:0:0:
448,192,66016,128,0,66140:0:0:0:0:
320,192,66140,128,0,66388:0:0:0:0:
192,192,66140,1,0,0:0:0:0:
64,192,66264,128,0,66388:0:0:0:0:
192,192,66388,128,0,66760:0:0:0:0:
448,192,66388,128,0,66512:0:0:0:0:
320,192,66512,128,0,66636:0:0:0:0:
64,192,66636,128,0,66760:0:0:0:0:
320,192,66760,128,0,66884:0:0:0:0:
64,192,66884,128,0,67008:0:0:0:0:
448,192,66884,128,0,67256:0:0:0:0:
192,192,67008,128,0,67132:0:0:0:0:
320,192,67132,128,0,67256:0:0:0:0:
192,192,67256,128,0,67380:0:0:0:0:
64,192,67380,128,0,67627:0:0:0:0:
448,192,67380,128,0,67751:0:0:0:0:
320,192,67503,128,0,67751:0:0:0:0:
192,192,67627,128,0,67875:0:0:0:0:
64,192,67751,128,0,67999:0:0:0:0:
448,192,67875,128,0,68123:0:0:0:0:
320,192,67875,128,0,67999:0:0:0:0:
192,192,67999,128,0,68247:0:0:0:0:
64,192,68123,128,0,68371:0:0:0:0:
320,192,68123,128,0,68247:0:0:0:0:
448,192,68247,128,0,68495:0:0:0:0:
320,192,68371,128,0,68619:0:0:0:0:
192,192,68371,128,0,68495:0:0:0:0:
64,192,68495,128,0,68743:0:0:0:0:
448,192,68619,128,0,68743:0:0:0:0:
192,192,68619,128,0,68867:0:0:0:0:
320,192,68743,128,0,68867:0:0:0:0:
64,192,68867,128,0,69239:0:0:0:0:
448,192,68867,128,0,69239:0:0:0:0:
192,192,68991,128,0,69239:0:0:0:0:
320,192,69115,128,0,69239:0:0:0:0:
448,192,69363,128,0,70355:0:0:0:0:
320,192,69363,128,0,69611:0:0:0:0:
192,192,69363,1,0,0:0:0:0:
64,192,69363,1,0,0:0:0:0:
192,192,69611,128,0,69983:0:0:0:0:
320,192,69859,1,0,0:0:0:0:
64,192,69859,128,0,70231:0:0:0:0:
192,192,70107,128,0,70231:0:0:0:0:
320,192,70231,128,0,70355:0:0:0:0:
64,192,70355,128,0,70603:0:0:0:0:
192,192,70355,128,0,71346:0:0:0:0:
320,192,70603,128,0,70975:0:0:0:0:
64,192,70851,1,0,0:0:0:0:
448,192,70851,128,0,71222:0:0:0:0:
320,192,71099,128,0,71222:0:0:0:0:
64,192,71222,128,0,71346:0:0:0:0:
320,192,71346,128,0,71594:0:0:0:0:
448,192,71346,128,0,71842:0:0:0:0:
64,192,71594,128,0,71842:0:0:0:0:
192,192,71718,1,0,0:0:0:0:
192,192,71842,128,0,72090:0:0:0:0:
320,192,71842,128,0,72338:0:0:0:0:
448,192,72090,128,0,72338:0:0:0:0:
64,192,72214,1,0,0:0:0:0:
192,192,72338,128,0,72586:0:0:0:0:
64,192,72338,128,0,72834:0:0:0:0:
320,192,72462,1,0,0:0:0:0:
448,192,72586,128,0,72834:0:0:0:0:
320,192,72710,1,0,0:0:0:0:
192,192,72834,128,0,72958:0:0:0:0:
320,192,72834,128,0,73082:0:0:0:0:
64,192,73082,128,0,73330:0:0:0:0:
192,192,73082,128,0,73206:0:0:0:0:
448,192,73330,128,0,74322:0:0:0:0:
192,192,73330,1,0,0:0:0:0:
320,192,73330,128,0,73578:0:0:0:0:
192,192,73578,128,0,73950:0:0:0:0:
320,192,73826,128,0,74198:0:0:0:0:
64,192,73826,1,0,0:0:0:0:
192,192,74074,128,0,74198:0:0:0:0:
64,192,74198,128,0,74322:0:0:0:0:
320,192,74322,128,0,75313:0:0:0:0:
192,192,74322,128,0,74570:0:0:0:0:
64,192,74570,128,0,74941:0:0:0:0:
448,192,74694,1,0,0:0:0:0:
192,192,74818,128,0,75189:0:0:0:0:
64,192,75065,128,0,75189:0:0:0:0:
448,192,75189,128,0,75313:0:0:0:0:
192,192,75313,128,0,75437:0:0:0:0:
64,192,75313,128,0,75685:0:0:0:0:
320,192,75437,128,0,75561:0:0:0:0:
448,192,75561,128,0,75685:0:0:0:0:
192,192,75685,128,0,75809:0:0:0:0:
320,192,75809,128,0,76181:0:0:0:0:
64,192,75809,128,0,75933:0:0:0:0:
448,192,75933,128,0,76057:0:0:0:0:
192,192,76057,128,0,76181:0:0:0:0:
64,192,76181,128,0,76305:0:0:0:0:
448,192,76305,128,0,76801:0:0:0:0:
320,192,76305,128,0,76677:0:0:0:0:
192,192,76305,128,0,76553:0:0:0:0:
64,192,76553,1,0,0:0:0:0:
192,192,76677,1,0,0:0:0:0:
64,192,76801,128,0,77049:0:0:0:0:
320,192,76801,1,0,0:0:0:0:
192,192,76925,1,0,0:0:0:0:
448,192,77049,128,0,77297:0:0:0:0:
320,192,77173,1,0,0:0:0:0:
320,192,77297,128,0,78289:0:0:0:0:
64,192,77297,1,0,0:0:0:0:
192,192,77297,128,0,77545:0:0:0:0:
448,192,77545,128,0,77917:0:0:0:0:
64,192,77793,128,0,78165:0:0:0:0:
192,192,77793,1,0,0:0:0:0:
448,192,78041,128,0,78165:0:0:0:0:
192,192,78165,128,0,78289:0:0:0:0:
448,192,78289,128,0,79280:0:0:0:0:
64,192,78289,128,0,78537:0:0:0:0:
192,192,78537,128,0,78908:0:0:0:0:
320,192,78661,1,0,0:0:0:0:
64,192,78784,128,0,79156:0:0:0:0:
192,192,79032,128,0,79156:0:0:0:0:
320,192,79156,128,0,79280:0:0:0:0:
64,192,79280,1,0,0:0:0:0:
192,192,79280,128,0,79652:0:0:0:0:
320,192,79404,128,0,79528:0:0:0:0:
64,192,79528,128,0,79652:0:0:0:0:
320,192,79652,128,0,79776:0:0:0:0:
448,192,79776,128,0,80148:0:0:0:0:
192,192,79776,1,0,0:0:0:0:
64,192,79900,128,0,80024:0:0:0:0:
320,192,80024,128,0,80148:0:0:0:0:
64,192,80148,128,0,80272:0:0:0:0:
192,192,80272,128,0,80768:0:0:0:0:
320,192,80272,1,0,0:0:0:0:
448,192,80520,1,0,0:0:0:0:
64,192,80520,128,0,81016:0:0:0:0:
448,192,80768,128,0,81264:0:0:0:0:
320,192,80768,1,0,0:0:0:0:
192,192,81016,1,0,0:0:0:0:
320,192,81016,128,0,81264:0:0:0:0:
64,192,81264,128,0,81760:0:0:0:0:
192,192,81264,128,0,81512:0:0:0:0:
320,192,81512,128,0,81760:0:0:0:0:
448,192,81512,1,0,0:0:0:0:
192,192,81760,1,0,0:0:0:0:
448,192,81760,128,0,82008:0:0:0:0:
64,192,81884,128,0,82008:0:0:0:0:
320,192,82008,1,0,0:0:0:0:
192,192,82008,128,0,82256:0:0:0:0:
448,192,82132,128,0,82256:0:0:0:0:
64,192,82256,128,0,82380:0:0:0:0:
320,192,82256,128,0,82627:0:0:0:0:
192,192,82380,128,0,82503:0:0:0:0:
448,192,82503,128,0,82627:0:0:0:0:
192,192,82627,128,0,82751:0:0:0:0:
64,192,82751,128,0,83123:0:0:0:0:
448,192,82751,128,0,82875:0:0:0:0:
320,192,82875,128,0,82999:0:0:0:0:
192,192,82999,128,0,83123:0:0:0:0:
320,192,83123,128,0,83247:0:0:0:0:
64,192,83247,128,0,83619:0:0:0:0:
448,192,83247,128,0,83495:0:0:0:0:
192,192,83371,128,0,83619:0:0:0:0:
320,192,83495,128,0,83743:0:0:0:0:
448,192,83619,128,0,83867:0:0:0:0:
64,192,83743,128,0,83991:0:0:0:0:
192,192,83743,128,0,83867:0:0:0:0:
320,192,83867,128,0,84115:0:0:0:0:
448,192,83991,128,0,84239:0:0:0:0:
192,192,83991,128,0,84115:0:0:0:0:
64,192,84115,128,0,84363:0:0:0:0:
320,192,84239,128,0,84363:0:0:0:0:
192,192,84239,128,0,84487:0:0:0:0:
448,192,84363,128,0,84611:0:0:0:0:
320,192,84487,128,0,84735:0:0:0:0:
64,192,84487,128,0,84611:0:0:0:0:
192,192,84611,128,0,84735:0:0:0:0:
448,192,84735,128,0,85107:0:0:0:0:
64,192,84735,128,0,85107:0:0:0:0:
192,192,84859,128,0,85107:0:0:0:0:
320,192,84983,128,0,85107:0:0:0:0:
64,192,85231,128,0,85975:0:0:0:0:
448,192,85231,1,0,0:0:0:0:
192,192,85479,128,0,85975:0:0:0:0:
320,192,85727,128,0,85975:0:0:0:0:
448,192,85975,128,0,86718:0:0:0:0:
320,192,86966,128,0,87214:0:0:0:0:
192,192,87090,128,0,87338:0:0:0:0:
64,192,87214,128,0,87710:0:0:0:0:
448,192,87462,128,0,87710:0:0:0:0:
192,192,87710,128,0,88206:0:0:0:0:
320,192,87958,128,0,88206:0:0:0:0:
64,192,88206,128,0,88702:0:0:0:0:
448,192,88454,128,0,88702:0:0:0:0:
192,192,88702,128,0,89198:0:0:0:0:
320,192,88950,128,0,89198:0:0:0:0:
448,192,89198,128,0,89446:0:0:0:0:
64,192,89446,128,0,89694:0:0:0:0:
448,192,89694,128,0,89941:0:0:0:0:
192,192,89941,128,0,90189:0:0:0:0:
448,192,90189,128,0,91181:0:0:0:0:
64,192,90437,128,0,91181:0:0:0:0:
320,192,90685,128,0,91181:0:0:0:0:
192,192,90933,128,0,91181:0:0:0:0:
448,192,91677,128,0,91925:0:0:0:0:
192,192,92173,128,0,92421:0:0:0:0:
320,192,92669,128,0,92917:0:0:0:0:
64,192,93165,128,0,93413:0:0:0:0:
448,192,93413,128,0,93661:0:0:0:0:
192,192,93661,128,0,93908:0:0:0:0:
320,192,93908,128,0,94156:0:0:0:0:
448,192,94156,128,0,94404:0:0:0:0:
320,192,94652,128,0,94900:0:0:0:0:
192,192,95148,128,0,95396:0:0:0:0:
64,192,95396,128,0,95644:0:0:0:0:
320,192,95644,128,0,95892:0:0:0:0:
192,192,95892,128,0,96140:0:0:0:0:
64,192,96140,128,0,96388:0:0:0:0:
320,192,96636,128,0,96884:0:0:0:0:
448,192,96884,128,0,97132:0:0:0:0:
192,192,97132,128,0,97380:0:0:0:0:
320,192,97380,128,0,97503:0:0:0:0:
448,192,97627,128,0,97751:0:0:0:0:
192,192,97875,128,0,97999:0:0:0:0:
64,192,98123,128,0,98619:0:0:0:0:
