osu file format v14

[General]
AudioFilename: audio.mp3
AudioLeadIn: 0
PreviewTime: 160221
Countdown: 0
SampleSet: Soft
StackLeniency: 0.4
Mode: 0
LetterboxInBreaks: 0
WidescreenStoryboard: 1

[Editor]
Bookmarks: 92815,110815
DistanceSpacing: 1.1
BeatDivisor: 4
GridSize: 32
TimelineZoom: 2.3

[Metadata]
Title:Musou no Hana
TitleUnicode:夢想ノ華
Artist:senya
ArtistUnicode:senya
Creator:PaRaDogi
Version:Erisu's Normal
Source:東方夢時空 ~ Pantasmagria of Dim.Dream
Tags:東方Project touhou Mayumi Morinaga 森永真由美 dagger-gazel Mayuzumi Fuyuko Daoski Megafan Satellite Erisu video game japanese female vocals osu japanese tournament quarterfinals dt1 ojt ojt2021 Flower of 幽閉サテライト Yuuhei HiZuMi Vanishing 夢消失 Lost Dreams ZUN Kana Anaberal カナ・アナベラル ZUN Shinrabanshou ni Furete phantasmagoria doujin pop
BeatmapID:2994866
BeatmapSetID:1376085

[Difficulty]
HPDrainRate:4
CircleSize:3
OverallDifficulty:4.5
ApproachRate:5
SliderMultiplier:0.999999999999999
SliderTickRate:1

[Events]
//Background and Video events
0,0,"BG.jpg",0,0
//Break Periods
2,87015,90115
2,150015,154615
//Storyboard Layer 0 (Background)
//Storyboard Layer 1 (Fail)
//Storyboard Layer 2 (Pass)
//Storyboard Layer 3 (Foreground)
//Storyboard Layer 4 (Overlay)
//Storyboard Sound Samples

[TimingPoints]
2065,375,4,2,1,75,1,0
2065,-100,4,2,1,75,0,0
14065,-100,4,2,1,65,0,0
20065,-100,4,2,1,75,0,0
26065,-100,4,2,1,60,0,0
31690,-100,4,2,1,70,0,0
32065,-100,4,2,1,60,0,0
50815,375,4,2,1,80,1,1
50815,-100,4,2,1,80,0,1
68815,-100,4,2,1,80,0,1
71815,-100,4,2,1,75,0,1
74815,-100,4,2,1,75,0,0
80815,-100,4,2,1,55,0,0
83815,-100,4,2,1,75,0,0
86815,-100,4,2,1,50,0,0
91315,-100,4,2,1,60,0,0
92440,-100,4,2,1,75,0,0
92815,-100,4,2,1,60,0,0
104815,-100,4,2,1,60,0,0
107065,-100,4,2,1,75,0,0
110065,-100,4,2,1,75,0,0
110815,-100,4,2,1,80,0,1
128815,-100,4,2,1,80,0,1
131815,-100,4,2,1,75,0,1
134815,-100,4,2,1,75,0,0
155815,-100,4,2,1,55,0,0
160315,-100,4,2,1,75,0,0
160596,-100,4,2,1,75,0,0
161815,-100,4,2,11,75,0,0
162096,-100,4,2,12,75,0,0
162377,-100,4,2,13,75,0,0
162565,-100,4,2,14,85,0,0
162846,-100,4,2,15,85,0,0
163127,-100,4,2,16,85,0,0
163315,-100,4,2,1,85,0,1
181315,-100,4,2,1,75,0,1
187315,-100,4,2,1,65,0,0
193315,-100,4,2,1,5,0,0

[Colours]
Combo1 : 192,192,192
Combo2 : 0,128,192
Combo3 : 255,128,0

[HitObjects]
103,233,2065,5,6,1:1:0:0:
48,137,2440,2,0,L|-13:152,2,50,2|2|2,0:2|0:2|0:2,0:0:0:0:
123,56,3190,1,2,0:2:0:0:
229,28,3565,2,0,B|283:-1|335:22|315:44|360:78|430:55,1,200,2|0,0:2|0:0,0:0:0:0:
488,141,4690,1,2,0:2:0:0:
388,187,5065,6,0,L|332:175,2,50,2|2|2,0:2|0:2|0:2,0:0:0:0:
485,237,5815,2,0,P|496:287|474:343,1,99.9999999999999,2|2,0:2|0:2,0:0:0:0:
371,319,6565,2,0,B|327:303|327:303|318:310|318:310|264:289,1,99.9999999999999,6|0,1:2|0:0,0:0:0:0:
228,271,7127,1,2,0:2:0:0:
228,271,7315,1,6,1:1:0:0:
143,341,7690,1,0,0:0:0:0:
51,280,8065,6,0,L|36:161,1,99.9999999999999,6|0,1:2|0:0,0:0:0:0:
25,127,8627,1,0,0:2:0:0:
25,127,8815,1,4,1:1:0:0:
110,57,9190,1,2,0:2:0:0:
187,134,9565,2,0,B|200:182|200:182|192:248,1,99.9999999999999,6|0,1:2|0:0,0:0:0:0:
181,285,10127,1,2,0:2:0:0:
181,285,10315,1,4,1:1:0:0:
277,337,10690,1,2,0:2:0:0:
378,295,11065,6,0,P|422:292|475:323,2,99.9999999999999,6|8|4,1:2|0:1|1:1,0:0:0:0:
287,233,12190,2,0,L|279:166,1,50,10|2,0:1|0:2,0:0:0:0:
268,129,12565,2,0,L|162:118,1,99.9999999999999,6|12,1:2|1:1,0:0:0:0:
73,175,13315,2,0,L|55:125,1,50,4|0,1:2|0:0,0:0:0:0:
8,99,13690,2,0,L|24:51,1,50,12|0,1:1|0:0,0:0:0:0:
69,19,14065,6,0,B|121:10|121:10|176:35,1,99.9999999999999,4|8,1:2|0:1,0:0:0:0:
245,103,14815,1,0,1:0:0:0:
332,35,15190,1,8,0:1:0:0:
424,94,15565,2,0,P|449:137|445:198,1,99.9999999999999,0|8,1:0|0:1,0:0:0:0:
416,291,16315,2,0,L|311:306,1,99.9999999999999,0|8,1:0|0:1,0:0:0:0:
216,258,17065,5,0,1:0:0:0:
140,338,17440,2,0,P|80:331|27:360,1,99.9999999999999,8|0,0:1|1:0,0:0:0:0:
22,237,18190,2,0,L|29:168,1,50,8|0,0:1|0:0,0:0:0:0:
43,134,18565,2,0,P|94:128|149:161,1,99.9999999999999,0|8,1:0|0:1,0:0:0:0:
204,234,19315,2,0,L|271:247,1,50,0|0,1:0|0:0,0:0:0:0:
295,278,19690,2,0,L|362:265,1,50,8|8,0:1|0:2,0:0:0:0:
398,257,20065,6,0,P|418:212|405:150,1,99.9999999999999,4|8,1:2|0:1,0:0:0:0:
328,90,20815,2,0,L|213:70,1,99.9999999999999,4|8,1:1|0:1,0:0:0:0:
121,52,21565,2,0,B|143:108|90:99|137:160,1,99.9999999999999,4|8,1:2|0:1,0:0:0:0:
81,246,22315,2,0,B|71:299|71:299|105:348,1,99.9999999999999,4|8,1:1|0:1,0:0:0:0:
206,346,23065,5,4,1:2:0:0:
285,270,23440,1,8,0:1:0:0:
363,347,23815,1,4,1:1:0:0:
433,262,24190,2,0,L|421:207,1,50,8|0,0:1|0:0,0:0:0:0:
379,178,24565,2,0,L|391:57,1,99.9999999999999,4|12,1:2|1:1,0:0:0:0:
292,24,25315,2,0,P|260:22|228:37,1,50,4|0,1:2|0:0,0:0:0:0:
223,78,25690,2,0,P|191:80|159:65,1,50,12|0,1:1|0:0,0:0:0:0:
126,46,26065,5,6,1:2:0:0:
24,87,26440,2,0,L|36:146,1,50,8|2,0:1|0:2,0:0:0:0:
66,174,26815,2,0,B|78:230|37:222|56:280,1,99.9999999999999,2|8,1:2|0:1,0:0:0:0:
120,344,27565,2,0,L|233:330,1,99.9999999999999,2|8,1:2|0:1,0:0:0:0:
273,331,28127,1,2,0:2:0:0:
273,331,28315,1,2,1:2:0:0:
320,242,28690,1,8,0:1:0:0:
408,288,29065,5,2,1:2:0:0:
484,223,29440,2,0,L|473:163,1,50,8|2,0:1|0:2,0:0:0:0:
435,142,29815,2,0,P|385:145|323:125,1,99.9999999999999,2|8,1:2|0:1,0:0:0:0:
296,114,30377,1,2,0:2:0:0:
296,114,30565,1,2,1:2:0:0:
202,77,30940,2,0,P|147:74|104:119,1,99.9999999999999,8|10,0:1|1:2,0:0:0:0:
71,124,31502,1,8,0:2:0:0:
71,124,31690,2,0,L|83:181,1,50,8|0,0:1|0:0,0:0:0:0:
66,222,32065,5,6,1:2:0:0:
82,320,32440,2,0,P|110:328|148:323,1,50,8|2,0:1|0:2,0:0:0:0:
167,293,32815,2,0,P|216:290|274:309,1,99.9999999999999,2|8,1:2|0:1,0:0:0:0:
344,244,33565,2,0,L|322:130,1,99.9999999999999,2|8,1:2|0:1,0:0:0:0:
300,109,34127,1,2,0:2:0:0:
300,109,34315,1,2,1:2:0:0:
356,26,34690,1,8,0:1:0:0:
451,55,35065,5,2,1:2:0:0:
453,154,35440,2,0,L|446:217,1,50,8|2,0:1|0:2,0:0:0:0:
428,249,35815,2,0,P|375:257|324:227,1,99.9999999999999,2|8,1:2|0:1,0:0:0:0:
240,203,36565,2,0,B|233:171|233:171|236:155|236:155|225:119,2,74.9999999999999,2|2|2,1:3|1:3|1:3,0:0:0:0:
201,233,37315,2,0,B|208:265|208:265|205:280|205:280|216:317,2,74.9999999999999,2|2|2,1:3|1:3|1:3,0:0:0:0:
168,194,38065,6,0,B|119:217|119:217|63:211,1,99.9999999999999,6|8,1:1|0:1,0:0:0:0:
86,112,38815,2,0,P|132:94|180:104,1,99.9999999999999,2|10,1:2|0:1,0:0:0:0:
268,152,39565,2,0,L|287:38,1,99.9999999999999,2|8,1:2|0:1,0:0:0:0:
378,19,40315,1,2,1:2:0:0:
455,81,40690,1,10,0:1:0:0:
385,152,41065,6,0,L|379:265,1,99.9999999999999,2|8,1:2|0:1,0:0:0:0:
352,294,41627,1,2,0:2:0:0:
352,294,41815,2,0,P|304:283|244:279,1,99.9999999999999,2|8,1:2|0:1,0:0:0:0:
157,252,42565,2,0,B|137:204|178:212|168:155,1,99.9999999999999,2|8,1:2|0:1,0:0:0:0:
142,120,43127,1,2,0:2:0:0:
142,120,43315,2,0,P|88:112|40:149,1,99.9999999999999,2|8,1:2|0:1,0:0:0:0:
50,234,44065,6,0,B|84:223|135:238|135:269|96:269|96:238|144:223|181:238,1,150,6|0,1:1|0:0,0:0:0:0:
226,257,44815,1,6,1:2:0:0:
308,313,45190,1,2,0:2:0:0:
374,238,45565,2,0,P|410:231|469:247,2,74.9999999999999,6|2|2,1:1|0:2|0:2,0:0:0:0:
332,209,46315,1,6,1:2:0:0:
355,111,46690,1,10,0:2:0:0:
246,91,47065,6,0,L|258:14,2,74.9999999999999,6|2|2,1:1|0:2|0:2,0:0:0:0:
236,145,47815,2,0,P|292:153|346:127,1,99.9999999999999,2|0,0:2|0:0,0:0:0:0:
432,93,48565,2,0,L|439:4,2,74.9999999999999,2|2|2,1:3|1:3|1:3,0:0:0:0:
471,131,49315,2,0,L|478:220,2,74.9999999999999,2|2|2,1:3|1:3|1:3,0:0:0:0:
209,57,50815,6,0,B|157:40|157:40|95:64,1,99.9999999999999,6|10,1:2|1:1,0:0:0:0:
67,84,51377,1,2,0:2:0:0:
67,84,51565,1,2,1:2:0:0:
27,186,51940,2,0,L|37:246,1,50,10|0,1:1|0:0,0:0:0:0:
46,289,52315,2,0,B|89:282|89:282|104:287|104:287|150:276,1,99.9999999999999,2|8,1:2|1:1,0:0:0:0:
242,326,53065,1,0,1:0:0:0:
327,256,53440,2,0,P|355:258|383:272,1,50,10|0,1:1|0:0,0:0:0:0:
417,301,53815,6,0,L|480:289,1,50,2|2,1:2|0:2,0:0:0:0:
505,252,54190,2,0,L|506:185,1,50,10|2,1:1|0:2,0:0:0:0:
499,147,54564,1,2,1:2:0:0:
414,75,54940,2,0,P|390:59|351:63,1,50,10|2,1:1|0:2,0:0:0:0:
331,96,55315,2,0,P|279:108|231:83,1,99.9999999999999,2|8,1:2|1:1,0:0:0:0:
137,45,56065,1,0,1:0:0:0:
60,123,56440,1,10,1:1:0:0:
133,205,56815,6,0,B|182:218|182:218|246:194,1,99.9999999999999,6|10,1:1|1:1,0:0:0:0:
275,180,57377,1,2,0:2:0:0:
275,180,57565,1,2,1:2:0:0:
367,217,57940,1,10,1:1:0:0:
326,308,58315,2,0,P|275:298|237:327,1,99.9999999999999,2|10,1:2|1:1,0:0:0:0:
207,363,58877,1,2,0:2:0:0:
207,363,59065,1,2,1:2:0:0:
99,340,59440,1,8,1:1:0:0:
135,239,59815,6,0,L|193:231,2,50,2|2|10,1:2|0:2|1:1,0:0:0:0:
83,219,60377,1,2,0:2:0:0:
117,114,60752,1,2,0:2:0:0:
117,114,60940,1,10,1:1:0:0:
220,151,61315,6,0,B|268:162|268:162|331:140,1,99.9999999999999,2|8,1:2|1:1,0:0:0:0:
368,124,61877,1,2,0:2:0:0:
368,124,62065,1,2,1:2:0:0:
319,25,62440,2,0,L|249:14,1,50,10|2,1:1|0:2,0:0:0:0:
215,16,62815,6,0,B|167:26|167:26|160:37|160:37|107:54,1,99.9999999999999,6|10,1:2|1:1,0:0:0:0:
68,48,63377,1,2,0:2:0:0:
68,48,63565,1,2,1:2:0:0:
15,144,63940,1,10,1:1:0:0:
84,229,64315,2,0,B|93:288|55:282|76:345,2,99.9999999999999,2|8|0,1:2|1:1|1:0,0:0:0:0:
154,314,65440,1,10,1:1:0:0:
248,369,65815,2,0,P|276:367|304:353,1,50,2|2,1:2|0:2,0:0:0:0:
330,315,66190,6,0,L|393:336,1,50,10|2,1:1|0:2,0:0:0:0:
424,348,66565,2,0,L|475:329,1,50,2|0,1:2|0:0,0:0:0:0:
505,288,66939,1,10,1:1:0:0:
492,178,67315,2,0,P|482:128|473:69,1,99.9999999999999,2|8,1:2|1:1,0:0:0:0:
436,48,67877,1,2,0:2:0:0:
436,48,68065,2,0,P|381:39|324:67,1,99.9999999999999,2|8,1:2|1:1,0:0:0:0:
276,143,68815,6,0,B|226:121|226:121|167:130,1,99.9999999999999,6|0,1:2|0:0,0:0:0:0:
134,148,69377,1,2,0:2:0:0:
134,148,69565,1,4,1:1:0:0:
70,237,69940,1,2,0:2:0:0:
147,314,70315,2,0,P|174:327|252:302,1,99.9999999999999,6|0,1:2|0:0,0:0:0:0:
265,264,70877,1,2,0:2:0:0:
265,264,71065,1,4,1:1:0:0:
187,186,71440,1,2,0:2:0:0:
88,235,71815,6,0,L|79:122,1,99.9999999999999,6|8,1:2|0:1,0:0:0:0:
53,87,72377,1,2,0:2:0:0:
53,87,72565,1,4,1:1:0:0:
150,35,72940,2,0,L|214:54,1,50,10|2,0:1|0:2,0:0:0:0:
237,87,73315,2,0,B|289:97|289:97|348:78,1,99.9999999999999,6|12,1:2|1:1,0:0:0:0:
443,90,74065,1,4,1:2:0:0:
431,199,74440,1,12,1:1:0:0:
348,271,74815,6,0,B|229:254,1,99.9999999999999,4|8,1:2|0:1,0:0:0:0:
139,262,75565,1,0,1:0:0:0:
97,160,75940,1,8,0:1:0:0:
187,96,76315,2,0,P|236:88|291:113,1,99.9999999999999,0|8,1:0|0:1,0:0:0:0:
325,207,77065,2,0,L|220:222,1,99.9999999999999,0|8,1:0|0:1,0:0:0:0:
151,302,77815,5,0,1:0:0:0:
253,341,78190,2,0,P|299:357|348:348,1,99.9999999999999,8|0,0:1|1:0,0:0:0:0:
455,324,78940,2,0,L|440:261,1,50,8|0,0:1|0:0,0:0:0:0:
472,228,79315,2,0,L|452:127,1,99.9999999999999,0|8,1:0|0:1,0:0:0:0:
368,58,80065,2,0,P|340:54|318:48,1,50,0|0,1:0|0:0,0:0:0:0:
271,25,80440,2,0,P|242:30|221:34,1,50,8|0,0:1|0:0,0:0:0:0:
166,36,80815,6,0,B|119:62|119:62|59:53,1,99.9999999999999,4|8,1:2|0:1,0:0:0:0:
10,145,81565,2,0,L|31:253,1,99.9999999999999,4|8,1:1|0:1,0:0:0:0:
95,331,82315,2,0,B|143:305|143:305|203:312,1,99.9999999999999,4|8,1:2|0:1,0:0:0:0:
271,238,83065,2,0,B|316:244|316:244|327:252|327:252|378:260,1,99.9999999999999,4|8,1:1|0:1,0:0:0:0:
460,199,83815,5,4,1:2:0:0:
380,123,84190,1,8,0:1:0:0:
409,27,84565,1,4,1:1:0:0:
311,4,84940,2,0,L|246:16,1,50,8|0,0:1|0:0,0:0:0:0:
226,48,85315,2,0,P|170:59|116:31,1,99.9999999999999,4|12,1:2|1:1,0:0:0:0:
36,77,86065,2,0,L|46:134,1,50,4|0,1:2|0:0,0:0:0:0:
86,154,86440,2,0,L|77:203,1,50,12|0,1:1|0:0,0:0:0:0:
57,249,86815,5,6,1:2:0:0:
460,322,91315,6,0,B|412:345|412:345|345:332,1,99.9999999999999,6|0,1:2|0:0,0:0:0:0:
281,265,92065,2,0,B|233:242|233:242|166:255,1,99.9999999999999,6|0,1:1|0:0,0:0:0:0:
79,225,92815,5,6,1:2:0:0:
48,117,93190,2,0,P|21:117|-6:131,2,50,8|2|2,0:1|0:2|1:2,0:0:0:0:
141,59,93940,1,8,0:1:0:0:
239,108,94315,2,0,B|291:94|291:94|348:121,1,99.9999999999999,2|8,1:2|0:1,0:0:0:0:
390,104,94877,1,2,0:2:0:0:
390,104,95065,1,2,1:2:0:0:
452,194,95440,1,8,0:1:0:0:
379,277,95815,5,2,1:2:0:0:
274,244,96190,2,0,L|266:183,2,50,8|2|2,0:1|0:2|1:2,0:0:0:0:
220,340,96940,2,0,L|167:325,1,50,8|2,0:1|0:2,0:0:0:0:
128,291,97315,2,0,L|138:205,2,74.9999999999999,2|2|2,1:3|1:3|1:3,0:0:0:0:
75,306,98065,2,0,L|85:392,2,74.9999999999999,2|2|2,1:3|1:3|1:3,0:0:0:0:
27,278,98815,6,0,B|40:171,1,99.9999999999999,6|8,1:1|0:1,0:0:0:0:
80,76,99565,2,0,B|126:58|126:58|179:72,1,99.9999999999999,2|10,1:2|0:1,0:0:0:0:
250,150,100315,2,0,P|303:159|358:131,1,99.9999999999999,2|8,1:2|0:1,0:0:0:0:
434,77,101065,1,2,1:2:0:0:
482,175,101440,1,10,0:1:0:0:
419,265,101815,6,0,P|368:253|314:292,1,99.9999999999999,2|8,1:2|0:1,0:0:0:0:
303,325,102377,1,2,0:2:0:0:
303,325,102565,2,0,P|251:342|192:314,1,99.9999999999999,2|8,1:2|0:1,0:0:0:0:
101,304,103315,2,0,B|92:255|92:255|112:207,1,99.9999999999999,2|8,1:2|0:1,0:0:0:0:
114,158,103877,1,2,0:2:0:0:
114,158,104065,2,0,P|65:148|22:172,1,99.9999999999999,2|8,1:2|0:1,0:0:0:0:
19,282,104815,6,0,B|45:282|66:305|66:305|92:306|127:285,1,99.9999999999999,6|0,1:2|0:0,0:0:0:0:
206,240,105565,1,6,1:1:0:0:
277,323,105940,1,2,0:2:0:0:
372,268,106315,2,0,P|408:261|467:277,2,74.9999999999999,6|2|2,1:2|0:2|0:2,0:0:0:0:
327,235,107065,1,6,1:1:0:0:
367,132,107440,1,2,0:2:0:0:
265,89,107815,6,0,L|277:12,2,74.9999999999999,6|2|2,1:2|0:2|0:2,0:0:0:0:
241,138,108565,2,0,P|192:129|145:144,1,99.9999999999999,2|0,0:2|0:0,0:0:0:0:
42,184,109315,2,0,L|25:98,2,74.9999999999999,2|2|2,1:3|1:3|1:3,0:0:0:0:
75,228,110065,2,0,L|55:321,2,74.9999999999999,2|2|2,1:3|1:3|1:3,0:0:0:0:
125,206,110815,6,0,B|169:220|169:220|224:212,1,99.9999999999999,6|10,1:2|1:1,0:0:0:0:
270,183,111377,1,2,0:2:0:0:
270,183,111565,1,2,1:2:0:0:
339,97,111940,2,0,L|402:108,1,50,10|0,1:1|0:0,0:0:0:0:
442,114,112315,2,0,B|458:169|417:156|441:218,1,99.9999999999999,2|8,1:2|1:1,0:0:0:0:
395,312,113065,1,0,1:0:0:0:
293,355,113440,2,0,P|269:369|244:365,1,50,10|0,1:1|0:0,0:0:0:0:
211,324,113815,6,0,P|177:323|147:344,1,50,2|2,1:2|0:2,0:0:0:0:
112,332,114190,2,0,L|103:282,1,50,10|2,1:1|0:2,0:0:0:0:
74,242,114564,1,2,1:2:0:0:
20,156,114940,2,0,L|29:96,1,50,10|2,1:1|0:2,0:0:0:0:
61,69,115315,2,0,P|106:50|154:62,1,99.9999999999999,2|8,1:2|1:1,0:0:0:0:
232,124,116065,1,0,1:0:0:0:
313,65,116440,1,10,1:1:0:0:
402,108,116815,6,0,B|400:159|400:159|394:171|394:171|390:226,1,99.9999999999999,6|10,1:1|1:1,0:0:0:0:
429,247,117377,1,2,0:2:0:0:
429,247,117565,1,2,1:2:0:0:
366,324,117940,1,10,1:1:0:0:
271,291,118315,2,0,L|261:188,1,99.9999999999999,2|8,1:2|1:1,0:0:0:0:
239,152,118877,1,2,0:2:0:0:
239,152,119065,1,2,1:2:0:0:
151,200,119440,1,8,1:1:0:0:
63,151,119815,6,0,L|54:95,2,50,2|2|10,1:2|0:2|1:1,0:0:0:0:
52,200,120377,1,2,0:2:0:0:
75,297,120752,1,2,0:2:0:0:
75,297,120940,1,10,1:1:0:0:
162,346,121315,6,0,B|190:338|209:322|209:322|234:344|272:341,1,99.9999999999999,2|8,1:2|1:1,0:0:0:0:
305,349,121877,1,2,0:2:0:0:
305,349,122065,1,2,1:2:0:0:
397,310,122440,2,0,L|401:260,1,50,10|2,1:1|0:2,0:0:0:0:
382,213,122815,6,0,B|369:161|369:161|391:98,1,99.9999999999999,6|10,1:2|1:1,0:0:0:0:
421,83,123377,1,2,0:2:0:0:
421,83,123565,1,2,1:2:0:0:
338,14,123940,1,10,1:1:0:0:
243,70,124315,2,0,B|203:65|203:65|192:52|192:52|132:46,2,99.9999999999999,2|8|0,1:2|1:1|1:0,0:0:0:0:
290,169,125440,1,10,1:1:0:0:
193,221,125815,6,0,L|196:284,1,50,2|2,1:2|0:2,0:0:0:0:
210,324,126190,2,0,P|235:338|269:336,1,50,10|2,1:1|0:2,0:0:0:0:
297,311,126565,2,0,L|346:319,1,50,2|0,1:2|0:0,0:0:0:0:
389,345,126939,1,10,1:1:0:0:
470,270,127315,2,0,P|487:223|458:176,1,99.9999999999999,2|8,1:2|1:1,0:0:0:0:
418,162,127877,1,2,0:2:0:0:
418,162,128065,2,0,L|306:138,1,99.9999999999999,2|8,1:2|1:1,0:0:0:0:
251,57,128815,6,0,B|202:49|202:49|151:80,1,99.9999999999999,6|0,1:2|0:0,0:0:0:0:
120,115,129377,1,2,0:2:0:0:
120,115,129565,1,4,1:1:0:0:
53,202,129940,1,2,0:2:0:0:
117,291,130315,2,0,P|144:304|222:279,1,99.9999999999999,6|0,1:2|0:0,0:0:0:0:
265,273,130877,1,2,0:2:0:0:
265,273,131065,1,4,1:1:0:0:
314,174,131440,1,2,0:2:0:0:
248,85,131815,6,0,P|290:54|345:57,1,99.9999999999999,6|8,1:2|0:1,0:0:0:0:
391,78,132377,1,2,0:2:0:0:
391,78,132565,1,4,1:1:0:0:
465,158,132940,2,0,L|457:216,1,50,10|2,0:1|0:2,0:0:0:0:
450,262,133315,2,0,B|391:278|391:278|353:266,1,99.9999999999999,6|12,1:2|1:1,0:0:0:0:
254,220,134065,1,4,1:2:0:0:
170,291,134440,1,12,1:1:0:0:
82,224,134815,6,0,B|84:184|84:184|93:169|93:169|91:124,1,99.9999999999999,2|2,1:3|1:3,0:0:0:0:
76,73,135377,1,2,1:3:0:0:
177,30,135752,2,0,P|236:20|289:46,1,99.9999999999999,2|2,1:3|1:3,0:0:0:0:
314,68,136315,2,0,B|326:129|276:113|306:176,1,99.9999999999999,4|8,1:1|0:1,0:0:0:0:
369,248,137065,1,0,1:0:0:0:
289,323,137440,1,8,0:1:0:0:
207,249,137815,6,0,B|152:257|152:257|95:236,1,99.9999999999999,2|2,1:3|1:3,0:0:0:0:
64,211,138377,1,2,1:3:0:0:
141,133,138752,2,0,L|259:117,1,99.9999999999999,2|2,1:3|1:3,0:0:0:0:
287,91,139315,2,0,P|343:84|391:129,1,99.9999999999999,4|8,1:1|0:1,0:0:0:0:
463,176,140065,1,0,1:0:0:0:
426,279,140440,1,8,0:1:0:0:
323,238,140815,6,0,B|270:249|270:249|210:230,1,99.9999999999999,4|8,1:2|0:1,0:0:0:0:
118,255,141565,1,0,1:0:0:0:
125,145,141940,2,0,L|173:131,1,50,8|0,0:1|0:0,0:0:0:0:
228,130,142315,2,0,P|224:86|231:6,2,99.9999999999999,0|8|0,1:0|0:1|1:0,0:0:0:0:
293,219,143440,1,8,0:1:0:0:
383,156,143815,6,0,P|432:146|484:167,2,99.9999999999999,0|8|0,1:0|0:1|1:0,0:0:0:0:
291,94,144940,1,8,0:1:0:0:
214,173,145315,2,0,B|168:192|168:192|91:190,1,99.9999999999999,0|8,1:0|0:1,0:0:0:0:
7,197,146065,1,0,1:0:0:0:
53,296,146440,1,8,0:1:0:0:
162,307,146815,5,4,1:2:0:0:
256,192,147002,12,6,149815,1:1:0:0:
83,119,155815,6,0,P|128:96|182:108,1,99.9999999999999,6|0,1:2|0:0,0:0:0:0:
270,49,156565,1,6,1:1:0:0:
352,122,156940,1,2,0:2:0:0:
452,76,157315,2,0,P|449:36|457:-2,2,74.9999999999999,6|2|2,1:2|0:2|0:2,0:0:0:0:
486,118,158065,2,0,P|498:168|474:224,1,99.9999999999999,6|2,1:1|0:2,0:0:0:0:
403,289,158815,6,0,L|416:376,2,74.9999999999999,6|2|2,1:2|0:2|0:2,0:0:0:0:
363,250,159565,2,0,P|309:243|271:277,1,99.9999999999999,2|0,0:2|0:0,0:0:0:0:
165,278,160315,2,0,L|175:183,2,74.9999999999999,2|2|2,1:3|1:3|1:3,0:0:0:0:
112,294,161065,2,0,L|122:389,2,74.9999999999999,2|2|2,1:3|1:3|1:3,0:0:0:0:
305,326,163315,6,0,B|354:318|354:318|368:322|368:322|416:311,1,99.9999999999999,6|10,1:2|1:1,0:0:0:0:
441,274,163877,1,2,0:2:0:0:
441,274,164065,1,2,1:2:0:0:
420,165,164440,2,0,P|396:144|359:144,1,50,10|0,1:1|0:0,0:0:0:0:
337,176,164815,2,0,B|293:198|293:198|233:189,1,99.9999999999999,2|8,1:2|1:1,0:0:0:0:
197,90,165565,1,0,1:0:0:0:
93,128,165940,2,0,L|103:187,1,50,10|0,1:1|0:0,0:0:0:0:
109,231,166315,6,0,P|114:261|133:278,1,50,2|2,1:2|0:2,0:0:0:0:
170,307,166690,2,0,L|220:296,1,50,10|2,1:1|0:2,0:0:0:0:
256,256,167065,1,2,1:2:0:0:
346,193,167440,2,0,L|409:205,1,50,10|2,1:1|0:2,0:0:0:0:
449,195,167815,2,0,L|466:293,1,99.9999999999999,2|8,1:2|1:1,0:0:0:0:
398,380,168565,1,0,1:0:0:0:
317,304,168940,1,10,1:1:0:0:
216,349,169315,6,0,P|170:368|118:346,1,99.9999999999999,6|10,1:1|1:1,0:0:0:0:
87,320,169877,1,2,0:2:0:0:
87,320,170065,1,2,1:2:0:0:
121,225,170440,1,10,1:1:0:0:
34,175,170815,2,0,L|21:58,1,99.9999999999999,2|8,1:2|1:1,0:0:0:0:
52,37,171377,1,2,0:2:0:0:
52,37,171565,1,2,1:2:0:0:
145,71,171940,1,8,1:1:0:0:
237,109,172315,6,0,L|242:172,2,50,2|2|10,1:2|0:2|1:1,0:0:0:0:
279,82,172877,1,2,0:2:0:0:
372,118,173252,1,2,0:2:0:0:
372,118,173440,1,10,1:1:0:0:
371,217,173815,6,0,B|357:330,1,99.9999999999999,2|8,1:2|1:1,0:0:0:0:
328,355,174377,1,2,0:2:0:0:
328,355,174565,1,2,1:2:0:0:
234,320,174940,2,0,P|207:320|184:329,1,50,10|2,1:1|0:2,0:0:0:0:
136,338,175315,6,0,B|126:290|126:290|144:234,1,99.9999999999999,6|10,1:2|1:1,0:0:0:0:
164,201,175877,1,2,0:2:0:0:
164,201,176065,1,2,1:2:0:0:
90,118,176440,1,10,1:1:0:0:
163,36,176815,2,0,B|205:38|205:38|227:48|227:48|275:53,2,99.9999999999999,2|8|0,1:2|1:1|1:0,0:0:0:0:
58,71,177940,1,10,1:1:0:0:
41,179,178315,2,0,L|54:239,1,50,2|2,1:2|0:2,0:0:0:0:
102,249,178690,6,0,L|87:302,1,50,10|2,1:1|0:2,0:0:0:0:
109,353,179065,2,0,P|133:358|157:356,1,50,2|0,1:2|0:0,0:0:0:0:
206,330,179440,1,10,1:1:0:0:
281,250,179815,2,0,P|331:240|373:276,1,99.9999999999999,2|8,1:2|1:1,0:0:0:0:
427,275,180377,1,2,0:2:0:0:
427,275,180565,2,0,B|436:220|436:220|408:163,1,99.9999999999999,2|8,1:2|1:1,0:0:0:0:
368,84,181315,6,0,B|344:61|344:61|261:82,1,99.9999999999999,6|0,1:2|0:0,0:0:0:0:
245,121,181877,1,2,0:2:0:0:
245,121,182065,1,4,1:1:0:0:
321,200,182440,1,2,0:2:0:0:
242,276,182815,2,0,P|215:289|137:264,1,99.9999999999999,6|0,1:2|0:0,0:0:0:0:
105,250,183377,1,2,0:2:0:0:
105,250,183565,1,4,1:1:0:0:
38,162,183940,1,2,0:2:0:0:
103,73,184315,6,0,B|153:62|153:62|215:83,1,99.9999999999999,6|8,1:2|0:1,0:0:0:0:
253,105,184877,1,2,0:2:0:0:
253,105,185065,1,4,1:1:0:0:
336,177,185440,2,0,L|331:231,1,50,10|2,0:1|0:2,0:0:0:0:
304,274,185815,6,0,P|251:275|201:229,1,99.9999999999999,6|12,1:2|1:1,0:0:0:0:
126,182,186565,1,4,1:2:0:0:
159,77,186940,1,12,1:1:0:0:
268,62,187315,6,0,P|317:72|387:79,1,99.9999999999999,6|0,1:2|0:0,0:0:0:0:
405,116,187877,2,0,B|415:177|375:160|401:223,1,99.9999999999999,2|0,0:2|0:0,0:0:0:0:
373,262,188440,1,2,0:2:0:0:
272,307,188815,6,0,P|223:297|153:290,1,99.9999999999999,2|0,0:2|0:0,0:0:0:0:
135,253,189377,2,0,B|125:192|165:209|139:146,1,99.9999999999999,2|0,0:2|0:0,0:0:0:0:
167,107,189940,1,2,0:2:0:0:
80,39,190315,6,0,P|25:46|6:89,1,99.9999999999999,6|0,1:1|0:0,0:0:0:0:
38,126,190877,2,0,P|28:181|25:246,1,99.9999999999999,2|0,0:2|0:0,0:0:0:0:
70,256,191440,2,0,L|134:246,1,50,2|2,0:2|0:2,0:0:0:0:
155,206,191815,1,2,0:2:0:0:
256,192,192002,12,0,193315,0:0:0:0:
