osu file format v14

[General]
AudioFilename: audio.mp3
AudioLeadIn: 0
PreviewTime: 160221
Countdown: 0
SampleSet: Soft
StackLeniency: 0.4
Mode: 0
LetterboxInBreaks: 0
WidescreenStoryboard: 0

[Editor]
DistanceSpacing: 1.4
BeatDivisor: 8
GridSize: 32
TimelineZoom: 2.200001

[Metadata]
Title:Musou no Hana
TitleUnicode:夢想ノ華
Artist:senya
ArtistUnicode:senya
Creator:PaRaDogi
Version:Endless Night
Source:東方夢時空 ~ Pantasmagria of Dim.Dream
Tags:東方Project touhou Mayumi Morinaga 森永真由美 dagger-gazel Mayuzumi Fuyuko Daoski Megafan Satellite Erisu video game japanese female vocals osu japanese tournament quarterfinals dt1 ojt ojt2021 Flower of 幽閉サテライト Yuuhei HiZuMi Vanishing 夢消失 Lost Dreams ZUN Kana Anaberal カナ・アナベラル ZUN Shinrabanshou ni Furete phantasmagoria doujin pop
BeatmapID:2844217
BeatmapSetID:1376085

[Difficulty]
HPDrainRate:5.5
CircleSize:4
OverallDifficulty:8.5
ApproachRate:9
SliderMultiplier:1.8
SliderTickRate:1

[Events]
//Background and Video events
0,0,"BG.jpg",0,0
//Break Periods
2,75015,80140
2,150015,153640
//Storyboard Layer 0 (Background)
//Storyboard Layer 1 (Fail)
//Storyboard Layer 2 (Pass)
//Storyboard Layer 3 (Foreground)
//Storyboard Layer 4 (Overlay)
//Storyboard Sound Samples

[TimingPoints]
2065,375,4,2,1,75,1,0
2065,-133.333333333333,4,2,1,75,0,0
14065,-100,4,2,1,65,0,0
16596,-100,4,2,1,5,0,0
16690,-100,4,2,1,65,0,0
19736,-100,4,2,1,30,0,0
20065,-100,4,2,1,75,0,0
26065,-100,4,2,1,60,0,0
31690,-100,4,2,1,70,0,0
31971,-100,4,2,99,5,0,0
32065,-100,4,2,1,60,0,0
36752,-100,4,2,1,5,0,0
36846,-100,4,2,1,60,0,0
37033,-100,4,2,1,5,0,0
37127,-100,4,2,1,60,0,0
37502,-100,4,2,1,5,0,0
37596,-100,4,2,1,60,0,0
37783,-100,4,2,1,5,0,0
37877,-100,4,2,1,60,0,0
42190,-100,4,2,1,60,0,0
42471,-100,4,2,1,60,0,0
42565,-100,4,2,1,60,0,0
43596,-100,4,2,99,5,0,0
43690,-100,4,2,1,60,0,0
46690,-100,4,2,1,60,0,0
46736,-100,4,2,1,30,0,0
47065,-100,4,2,1,60,0,0
48752,-100,4,2,99,5,0,0
48846,-100,4,2,1,60,0,0
49033,-100,4,2,99,5,0,0
49127,-100,4,2,1,60,0,0
49502,-100,4,2,99,5,0,0
49596,-100,4,2,1,60,0,0
49783,-100,4,2,99,5,0,0
49877,-100,4,2,1,60,0,0
50815,375,4,2,1,80,1,1
50815,-83.3333333333333,4,2,1,80,0,1
52596,-100,4,2,99,5,0,1
52690,-83.3333333333333,4,2,1,80,0,1
53721,-83.3333333333333,4,2,99,5,0,1
53815,-83.3333333333333,4,2,1,80,0,1
56346,-100,4,2,1,5,0,1
56440,-83.3333333333333,4,2,1,80,0,1
59721,-100,4,2,1,5,0,1
59815,-83.3333333333333,4,2,1,80,0,1
61596,-83.3333333333333,4,2,99,5,0,1
61690,-83.3333333333333,4,2,1,80,0,1
63096,-100,4,2,99,5,0,1
63190,-83.3333333333333,4,2,1,80,0,1
64690,-83.3333333333333,4,2,1,80,0,1
66940,-83.3333333333333,4,2,1,80,0,1
68815,-100,4,2,1,80,0,1
71815,-100,4,2,1,75,0,1
74815,-100,4,2,1,75,0,0
80815,-100,4,2,1,55,0,0
83815,-100,4,2,1,75,0,0
84846,-100,4,2,99,5,0,0
84940,-100,4,2,1,75,0,0
86815,-133.333333333333,4,2,1,50,0,0
87002,-133.333333333333,4,2,2,50,0,0
91315,-133.333333333333,4,2,1,60,0,0
92440,-133.333333333333,4,2,1,75,0,0
92721,-100,4,2,99,5,0,0
92815,-100,4,2,1,60,0,0
104486,-76.9230769230769,4,2,1,30,0,0
104815,-133.333333333333,4,2,1,60,0,0
107065,-133.333333333333,4,2,1,75,0,0
107486,-133.333333333333,4,2,1,30,0,0
107815,-133.333333333333,4,2,1,75,0,0
109502,-100,4,2,99,5,0,0
109596,-133.333333333333,4,2,1,75,0,0
109783,-100,4,2,99,5,0,0
109877,-133.333333333333,4,2,1,75,0,0
110065,-100,4,2,1,75,0,0
110252,-100,4,2,99,5,0,0
110346,-100,4,2,1,75,0,0
110533,-100,4,2,99,5,0,0
110627,-100,4,2,1,75,0,0
110815,-83.3333333333333,4,2,1,80,0,1
112221,-100,4,2,99,5,0,1
112315,-83.3333333333333,4,2,1,80,0,1
116346,-100,4,2,99,5,0,1
116440,-83.3333333333333,4,2,1,80,0,1
116486,-83.3333333333333,4,2,1,30,0,1
116815,-83.3333333333333,4,2,1,80,0,1
117190,-83.3333333333333,4,2,1,80,0,1
119721,-100,4,2,99,5,0,1
119815,-83.3333333333333,4,2,1,80,0,1
121596,-100,4,2,1,5,0,1
121690,-83.3333333333333,4,2,1,80,0,1
123096,-100,4,2,99,5,0,1
123190,-83.3333333333333,4,2,1,80,0,1
128815,-100,4,2,1,80,0,1
131815,-100,4,2,1,75,0,1
134815,-100,4,2,1,75,0,0
143346,-100,4,2,1,5,0,0
143440,-100,4,2,1,75,0,0
145221,-100,4,2,1,5,0,0
145315,-100,4,2,1,75,0,0
146721,-100,4,2,1,5,0,0
146815,-100,4,2,1,75,0,0
154315,-100,4,2,1,55,0,0
155111,-100,4,2,1,30,0,0
155815,-153.846153846153,4,2,1,55,0,0
158111,-153.846153846153,4,2,1,30,0,0
158440,-153.846153846153,4,2,1,55,0,0
158486,-153.846153846153,4,2,1,30,0,0
158815,-153.846153846153,4,2,1,55,0,0
160315,-100,4,2,1,75,0,0
160502,-100,4,2,99,5,0,0
160596,-100,4,2,1,75,0,0
160783,-100,4,2,99,5,0,0
160877,-100,4,2,1,75,0,0
161065,-100,4,2,1,75,0,0
161252,-100,4,2,99,5,0,0
161346,-100,4,2,1,75,0,0
161533,-100,4,2,99,5,0,0
161627,-100,4,2,1,75,0,0
161815,-100,4,2,11,75,0,0
162096,-100,4,2,12,75,0,0
162377,-100,4,2,13,75,0,0
162565,-100,4,2,14,85,0,0
162846,-100,4,2,15,85,0,0
163127,-100,4,2,16,85,0,0
163315,-83.3333333333333,4,2,1,85,0,1
169596,-100,4,2,99,5,0,1
169690,-83.3333333333333,4,2,1,85,0,1
172221,-100,4,2,99,5,0,1
172315,-83.3333333333333,4,2,1,85,0,1
181315,-100,4,2,1,75,0,1
187315,-153.846153846153,4,2,1,65,0,0
193315,-153.846153846153,4,2,1,5,0,0

[Colours]
Combo1 : 192,192,192
Combo2 : 0,128,192
Combo3 : 255,128,0

[HitObjects]
34,22,2065,6,0,L|46:93,1,67.5000025749208,6|0,1:1|0:0,0:0:0:0:
199,165,2440,1,2,0:2:0:0:
181,5,2627,1,2,0:2:0:0:
181,5,2815,2,0,L|250:9,1,67.5000025749208,2|0,0:2|0:0,0:0:0:0:
381,92,3190,2,0,L|312:96,1,67.5000025749208,2|0,0:2|0:0,0:0:0:0:
117,117,3565,6,0,B|141:103|152:72|152:72|182:94|211:144|177:218,1,202.500007724762,2|0,0:2|0:0,0:0:0:0:
140,360,4315,1,0,0:0:0:0:
140,360,4690,2,0,L|220:375,1,67.5000025749208,2|0,0:2|0:0,0:0:0:0:
353,312,5065,5,2,0:2:0:0:
302,235,5252,1,2,0:2:0:0:
357,160,5440,1,2,0:2:0:0:
444,193,5627,1,2,0:2:0:0:
444,288,5815,2,0,L|523:296,1,67.5000025749208,2|0,0:2|0:0,0:0:0:0:
301,234,6190,2,0,L|234:241,1,67.5000025749208,2|0,0:2|0:0,0:0:0:0:
78,347,6565,6,0,P|110:320|97:208,1,135.000005149842,6|0,1:2|0:0,0:0:0:0:
37,89,7127,1,0,0:0:0:0:
37,89,7315,2,0,B|97:94|128:61|110:40|150:-4|234:20,1,202.500007724762,6|0,1:1|3:0,0:0:0:0:
354,85,8065,6,0,P|390:100|312:146,1,202.500007724762,6|2,1:2|0:2,0:0:0:0:
189,96,8815,2,0,P|206:128|198:174,1,67.5000025749208,4|0,1:1|0:0,0:0:0:0:
59,247,9190,2,0,P|42:215|50:169,1,67.5000025749208,2|0,0:2|0:0,0:0:0:0:
272,228,9565,6,0,B|246:253|218:255|218:255|360:275,1,202.500007724762,6|2,1:2|0:2,0:0:0:0:
510,227,10315,2,0,P|519:187|511:163,1,67.5000025749208,4|0,1:1|0:0,0:0:0:0:
353,120,10690,2,0,P|344:160|352:184,1,67.5000025749208,2|0,0:2|0:0,0:0:0:0:
433,61,11065,2,0,P|397:29|304:34,1,135.000005149842,6|8,1:2|0:1,0:0:0:0:
168,93,11627,1,2,0:2:0:0:
168,93,11815,2,0,P|156:56|167:17,1,67.5000025749208,4|0,1:1|0:0,0:0:0:0:
353,120,12190,2,0,P|354:157|344:171,1,33.7500012874604,10|0,0:1|0:0,0:0:0:0:
227,255,12377,2,0,P|226:218|236:204,1,33.7500012874604,2|0,0:2|0:0,0:0:0:0:
259,84,12565,5,6,1:2:0:0:
335,259,12752,1,0,0:0:0:0:
146,201,12940,1,12,1:1:0:0:
232,375,13127,1,0,0:0:0:0:
281,191,13315,1,4,1:2:0:0:
109,293,13502,1,0,0:0:0:0:
129,101,13690,1,12,1:1:0:0:
238,300,13877,1,0,3:0:0:0:
238,300,13971,1,0,3:0:0:0:
238,300,14065,6,0,P|285:313|331:292,1,90,4|0,1:2|0:0,0:0:0:0:
188,85,14440,2,0,P|153:119|148:169,1,90,8|0,0:1|0:0,0:0:0:0:
396,159,14815,2,0,P|383:111|342:82,1,90,0|0,1:0|0:0,0:0:0:0:
156,15,15190,1,8,0:1:0:0:
156,15,15565,6,0,L|65:6,1,90,0|0,1:0|0:0,0:0:0:0:
181,152,15940,2,0,L|90:161,1,90,8|0,0:1|0:0,0:0:0:0:
233,324,16315,2,0,L|96:312,1,135,0|0,1:0|0:0,0:0:0:0:
33,349,16690,2,0,P|23:302|47:261,1,90,8|0,0:1|0:0,0:0:0:0:
254,120,17065,6,0,P|265:165|239:206,1,90,0|0,1:0|0:0,0:0:0:0:
41,266,17440,2,0,P|77:238|125:242,1,90,8|0,0:1|0:0,0:0:0:0:
282,374,17815,2,0,P|237:361|215:318,1,90,0|0,1:0|0:0,0:0:0:0:
114,138,18190,1,8,0:1:0:0:
114,138,18565,6,0,L|208:125,1,90,0|0,1:0|0:0,0:0:0:0:
388,158,18940,1,8,0:1:0:0:
218,257,19127,1,0,3:0:0:0:
218,257,19221,1,0,3:0:0:0:
218,257,19315,2,0,P|205:294|223:344,1,90,0|0,1:0|0:0,0:0:0:0:
403,281,19690,6,0,L|406:257,6,22.5,8|0|0|0|0|0|0,3:1|3:0|3:0|3:0|3:0|3:0|3:0,0:0:0:0:
410,232,20065,5,4,1:2:0:0:
316,287,20252,1,0,0:0:0:0:
245,182,20440,2,0,P|191:171|148:173,1,90,8|0,0:1|0:0,0:0:0:0:
316,287,20815,1,4,1:1:0:0:
321,201,21002,1,0,0:0:0:0:
462,251,21190,2,0,P|474:295|466:348,1,90,8|0,0:1|0:0,0:0:0:0:
321,201,21565,5,4,1:2:0:0:
414,176,21752,1,0,0:0:0:0:
341,29,21940,2,0,P|289:32|241:49,1,90,8|0,0:1|0:0,0:0:0:0:
130,196,22315,1,4,1:1:0:0:
109,105,22502,1,0,0:0:0:0:
250,129,22690,2,0,P|266:182|273:227,1,90,8|0,0:1|0:0,0:0:0:0:
212,365,23065,5,4,1:2:0:0:
130,196,23252,1,0,0:0:0:0:
298,298,23440,1,8,0:1:0:0:
355,117,23627,1,0,0:0:0:0:
205,258,23815,2,0,P|228:213|217:158,1,90,4|0,1:1|0:0,0:0:0:0:
57,135,24190,2,0,P|34:180|45:235,1,90,8|0,0:1|0:0,0:0:0:0:
170,26,24565,5,12,1:2:0:0:
149,70,24658,1,0,3:0:0:0:
167,116,24752,1,0,3:0:0:0:
210,139,24846,1,0,3:0:0:0:
259,134,24940,1,12,1:1:0:0:
294,99,25033,1,0,3:0:0:0:
315,54,25127,1,0,3:0:0:0:
355,25,25221,1,0,3:0:0:0:
404,19,25315,1,12,1:2:0:0:
451,30,25408,1,0,3:0:0:0:
486,65,25502,1,0,3:0:0:0:
492,114,25596,1,0,3:0:0:0:
473,160,25690,1,12,1:1:0:0:
433,188,25783,1,0,3:0:0:0:
409,231,25877,1,0,3:0:0:0:
418,279,25971,1,0,3:0:0:0:
437,324,26065,6,0,L|326:341,1,90,6|0,1:2|0:0,0:0:0:0:
298,345,26346,1,2,0:2:0:0:
298,345,26440,1,8,0:1:0:0:
136,275,26627,2,0,L|182:262,1,45,2|0,0:2|0:0,0:0:0:0:
286,173,26815,2,0,P|271:220|280:265,1,90,2|0,1:2|0:0,0:0:0:0:
477,210,27190,2,0,P|492:163|483:118,1,90,8|0,0:1|0:0,0:0:0:0:
352,17,27565,6,0,L|251:28,1,90,2|0,1:2|0:0,0:0:0:0:
213,32,27846,1,2,0:2:0:0:
213,32,27940,1,8,0:1:0:0:
101,159,28127,2,0,L|161:166,1,45,2|0,0:2|0:0,0:0:0:0:
203,230,28315,2,0,P|233:185|227:139,1,90,2|0,1:2|0:0,0:0:0:0:
45,94,28690,2,0,P|15:139|21:185,1,90,8|0,0:1|0:0,0:0:0:0:
48,354,29065,6,0,L|152:371,1,90,2|0,1:2|0:0,0:0:0:0:
185,379,29346,1,2,0:2:0:0:
185,379,29440,1,8,0:1:0:0:
363,286,29627,1,2,0:2:0:0:
188,215,29815,1,2,1:2:0:0:
188,215,29908,1,0,0:0:0:0:
188,215,30002,2,0,L|200:270,1,45,0|2,0:0|0:2,0:0:0:0:
357,373,30190,1,8,0:1:0:0:
335,186,30377,1,2,0:2:0:0:
257,331,30565,5,2,1:2:0:0:
223,138,30752,1,0,3:0:0:0:
223,138,30846,1,2,3:2:0:0:
223,138,30940,2,0,P|251:94|297:77,1,90,8|2,0:1|0:2,0:0:0:0:
475,114,31315,1,10,1:2:0:0:
495,158,31408,1,0,3:2:0:0:
504,206,31502,1,0,3:2:0:0:
496,254,31596,1,0,3:2:0:0:
467,294,31690,2,2,B|410:310|410:310|383:298|383:298|323:322,1,135,8|0,0:1|0:0,0:1:0:0:
285,370,32065,6,0,L|188:360,1,90,6|0,1:2|0:0,0:0:0:0:
146,352,32346,1,2,0:2:0:0:
146,352,32440,1,8,0:1:0:0:
12,220,32627,2,0,L|66:210,1,45,2|0,0:2|0:0,0:0:0:0:
197,162,32815,2,0,P|172:200|174:260,1,90,2|0,1:2|0:0,0:0:0:0:
328,154,33190,2,0,P|324:109|300:72,1,90,8|0,0:1|0:0,0:0:0:0:
104,39,33565,6,0,L|208:22,1,90,2|0,1:2|0:0,0:0:0:0:
241,14,33846,1,2,0:2:0:0:
241,14,33940,1,8,0:1:0:0:
424,71,34127,2,0,L|414:115,1,45,2|0,0:2|0:0,0:0:0:0:
372,267,34315,1,2,1:2:0:0:
372,267,34408,1,0,3:0:0:0:
372,267,34502,1,0,3:0:0:0:
247,185,34690,2,0,P|290:157|338:155,1,90,8|0,0:1|0:0,0:0:0:0:
355,360,35065,6,0,L|263:349,1,90,2|0,1:2|0:0,0:0:0:0:
216,342,35346,1,2,0:2:0:0:
216,342,35440,1,8,0:1:0:0:
72,222,35627,2,0,L|124:209,1,45,2|0,0:2|0:0,0:0:0:0:
247,185,35815,1,2,1:2:0:0:
247,185,35908,1,0,3:0:0:0:
247,185,36002,1,0,3:0:0:0:
61,126,36190,1,8,0:1:0:0:
195,264,36377,1,2,0:2:0:0:
295,118,36565,6,0,P|342:100|380:115,1,90,2|0,1:3|0:0,0:0:0:0:
329,190,36846,2,0,P|286:202|246:184,1,90,2|0,1:3|0:0,0:0:0:0:
209,114,37127,1,2,1:3:0:0:
115,257,37315,2,0,L|136:351,1,90,2|0,1:3|0:0,0:0:0:0:
214,351,37596,2,0,L|194:263,1,90,2|0,1:3|0:0,0:0:0:0:
157,195,37877,1,2,1:3:0:0:
338,175,38065,6,0,P|385:184|418:224,1,90,6|0,1:1|0:0,0:0:0:0:
270,302,38440,2,0,P|223:293|190:253,1,90,8|0,0:1|0:0,0:0:0:0:
112,95,38815,1,2,1:2:0:0:
251,176,39002,1,0,0:0:0:0:
103,255,39190,2,0,P|106:198|86:161,1,90,10|0,0:1|0:0,0:0:0:0:
245,11,39565,6,0,P|242:68|262:105,1,90,2|0,1:2|0:0,0:0:0:0:
405,253,39940,2,0,P|357:221|315:220,1,90,8|0,0:1|0:0,0:0:0:0:
116,275,40315,2,0,P|166:249|188:213,1,90,2|0,1:2|0:0,0:0:0:0:
159,69,40690,1,10,0:1:0:0:
251,176,40877,1,0,0:0:0:0:
72,115,41065,5,2,1:2:0:0:
248,40,41252,1,0,3:0:0:0:
248,40,41346,1,2,3:2:0:0:
248,40,41440,2,0,P|308:33|347:48,1,90,8|2,0:1|0:2,0:0:0:0:
418,213,41815,2,0,P|358:220|319:205,1,90,2|0,1:2|0:0,0:0:0:0:
168,151,42190,6,0,B|190:125|190:125|203:243,1,135,8|0,0:1|0:0,0:0:0:0:
205,251,42565,1,2,1:2:0:0:
94,374,42752,1,0,3:0:0:0:
94,374,42846,1,2,3:2:0:0:
94,374,42940,2,0,L|0:366,1,90,8|2,0:1|0:2,0:0:0:0:
205,251,43315,2,0,P|260:230|335:269,1,135,2|0,1:2|0:0,0:0:0:0:
358,297,43690,2,0,L|455:288,1,90,8|0,0:1|0:0,0:0:0:0:
480,148,44065,6,0,B|509:110|476:57|476:57|384:55|416:122|305:114,1,270,6|0,1:1|0:0,0:0:0:0:
146,30,44815,2,0,P|186:50|210:103,1,90,6|0,1:2|0:0,0:0:0:0:
211,285,45190,2,0,P|208:240|242:193,1,90,2|0,0:2|0:0,0:0:0:0:
432,64,45565,6,0,P|376:114|314:113,2,135,6|2|2,1:1|0:2|0:2,0:0:0:0:
243,91,46315,6,0,P|243:141|256:160,3,45,6|0|0|0,1:2|3:0|3:0|3:0,0:0:0:0:
196,196,46690,6,0,P|206:224|205:236,6,22.5,2|0|0|0|0|0|0,3:2|3:0|3:0|3:0|3:0|3:0|3:0,0:0:0:0:
257,275,47065,5,6,1:1:0:0:
256,192,47158,12,0,48190,0:0:0:0:
234,162,48565,6,0,P|266:116|256:74,1,90,2|0,1:3|0:0,0:0:0:0:
173,104,48846,2,0,P|141:150|151:192,1,90,2|0,1:3|0:0,0:0:0:0:
167,257,49127,1,2,1:3:0:0:
299,332,49315,6,0,L|396:316,1,90,2|0,1:3|0:0,0:0:0:0:
255,242,49596,2,0,L|166:256,1,90,2|0,1:3|0:0,0:0:0:0:
88,268,49877,1,2,1:3:0:0:
453,371,50815,6,0,B|436:290|436:290|447:255|447:255|428:154,1,215.999993408203,6|10,1:2|1:1,0:0:0:0:
306,18,51377,1,2,0:2:0:0:
236,208,51565,2,0,P|299:230|339:213,1,107.999996704102,2|0,1:2|0:0,0:0:0:0:
485,89,51940,2,0,P|422:67|382:84,1,107.999996704102,10|0,1:1|0:0,0:0:0:0:
236,208,52315,6,0,B|211:79|211:79|167:55,1,161.999995056153,2|0,1:2|0:0,0:0:0:0:
145,48,52690,2,0,L|36:67,1,107.999996704102,8|0,1:1|0:0,0:0:0:0:
236,208,53065,1,0,1:0:0:0:
366,79,53252,1,0,3:0:0:0:
366,79,53346,1,0,3:0:0:0:
366,79,53440,2,0,P|399:123|376:204,1,107.999996704102,10|0,1:1|0:0,0:0:0:0:
490,327,53815,5,2,1:2:0:0:
299,302,54002,1,2,0:2:0:0:
499,207,54190,1,10,1:1:0:0:
297,179,54377,1,2,0:2:0:0:
400,296,54565,2,0,P|407:244|380:199,1,107.999996704102,2|0,1:2|0:0,0:0:0:0:
240,275,54940,2,0,P|233:327|261:373,1,107.999996704102,10|2,1:1|0:2,0:0:0:0:
299,82,55315,6,0,B|258:139|203:122|197:102|151:93|93:149,1,215.999993408203,2|8,1:2|1:1,0:0:0:0:
66,315,55877,1,0,3:0:0:0:
66,315,55971,1,0,3:0:0:0:
66,315,56065,2,0,P|115:353|204:316,1,161.999995056153,0|0,1:0|0:0,0:0:0:0:
240,275,56440,2,0,L|360:290,1,107.999996704102,10|0,1:1|0:0,0:0:0:0:
503,182,56815,6,0,P|509:126|475:81,1,107.999996704102,6|0,1:1|0:0,0:0:0:0:
307,22,57190,1,10,1:1:0:0:
278,184,57377,1,2,0:2:0:0:
373,70,57565,2,0,P|318:104|255:84,1,107.999996704102,2|0,1:2|0:0,0:0:0:0:
127,73,57940,2,0,P|183:103|198:168,1,107.999996704102,10|0,1:1|0:0,0:0:0:0:
254,280,58315,6,0,P|252:215|300:170,1,107.999996704102,2|0,1:2|0:0,0:0:0:0:
378,351,58690,1,10,1:1:0:0:
442,206,58877,1,2,0:2:0:0:
360,70,59065,2,0,L|233:52,1,107.999996704102,2|0,1:2|0:0,0:0:0:0:
129,224,59440,2,2,B|195:193|195:193|222:206|222:206|296:175,1,161.999995056153,8|0,1:1|0:0,0:1:0:0:
319,168,59815,5,2,1:2:0:0:
128,115,60002,1,2,0:2:0:0:
210,292,60190,1,10,1:1:0:0:
249,103,60377,2,0,P|247:50|226:-1,1,107.999996704102,2|0,0:2|1:0,0:0:0:0:
119,201,60752,1,2,0:2:0:0:
234,353,60940,2,0,L|355:371,1,107.999996704102,10|0,1:1|0:0,0:0:0:0:
477,292,61315,6,0,P|495:233|468:186,1,107.999996704102,2|0,1:2|0:0,0:0:0:0:
286,104,61690,2,0,P|268:163|295:210,1,107.999996704102,8|2,1:1|0:2,0:0:0:0:
381,340,62065,5,10,1:2:0:0:
335,302,62158,1,0,3:0:0:0:
276,293,62252,1,0,3:0:0:0:
222,319,62346,1,0,3:0:0:0:
170,349,62440,1,10,1:1:0:0:
111,356,62533,1,0,3:2:0:0:
56,332,62627,1,2,3:2:0:0:
34,276,62721,1,0,3:2:0:0:
46,217,62815,6,0,B|83:178|83:178|222:201,1,161.999995056153,6|0,1:2|0:0,0:0:0:0:
247,211,63190,1,10,1:1:0:0:
421,139,63377,1,2,0:2:0:0:
265,17,63565,2,0,P|234:62|246:116,1,107.999996704102,2|0,1:2|0:0,0:0:0:0:
348,277,63940,1,10,1:1:0:0:
358,79,64127,1,0,3:0:0:0:
358,79,64221,1,0,3:0:0:0:
358,79,64315,6,0,P|406:52|475:69,1,107.999996704102,2|0,1:2|0:0,0:0:0:0:
446,256,64690,2,0,P|398:283|329:266,1,107.999996704102,8|0,1:1|0:0,0:0:0:0:
175,36,65065,2,0,P|222:64|242:132,1,107.999996704102,0|0,1:0|0:0,0:0:0:0:
199,298,65440,1,10,1:1:0:0:
126,155,65627,1,0,3:0:0:0:
126,155,65721,1,0,3:0:0:0:
126,155,65815,5,2,1:2:0:0:
87,343,66002,1,2,0:2:0:0:
252,230,66190,1,10,1:1:0:0:
46,206,66377,1,2,0:2:0:0:
242,86,66565,2,0,B|226:153|226:153|238:193,1,107.999996704102,2|0,1:2|0:0,0:0:0:0:
354,362,66940,1,10,1:1:0:0:
495,222,67127,1,0,3:0:0:0:
495,222,67221,1,0,3:0:0:0:
495,222,67315,6,0,P|515:160|490:117,1,107.999996704102,2|0,1:2|0:0,0:0:0:0:
237,190,67690,2,0,P|217:252|242:295,1,107.999996704102,8|2,1:1|0:2,0:0:0:0:
428,125,68065,5,10,1:2:0:0:
395,76,68158,1,0,3:0:0:0:
335,68,68252,1,0,3:0:0:0:
281,94,68346,1,0,3:0:0:0:
239,136,68440,1,8,1:1:0:0:
183,155,68533,1,0,3:0:0:0:
123,148,68627,1,0,3:0:0:0:
80,106,68721,1,0,3:0:0:0:
80,45,68815,6,0,B|157:27|157:27|183:35|183:35|274:17,1,180,6|0,1:2|0:0,0:0:0:0:
429,97,69377,1,2,0:2:0:0:
297,197,69565,2,0,P|317:148|298:93,1,90,4|0,1:1|0:0,0:0:0:0:
132,162,69940,2,0,P|112:211|131:266,1,90,2|0,0:2|0:0,0:0:0:0:
237,364,70315,6,0,B|282:384|326:362|321:346|357:320|421:339,1,180,6|0,1:2|0:0,0:0:0:0:
504,200,70877,1,2,0:2:0:0:
347,171,71065,2,0,L|336:264,1,90,4|0,1:1|0:0,0:0:0:0:
201,185,71440,2,0,L|191:96,1,90,2|0,0:2|0:0,0:0:0:0:
94,317,71815,5,6,1:2:0:0:
32,100,72002,1,0,0:0:0:0:
200,259,72190,1,8,0:1:0:0:
208,37,72377,1,2,0:2:0:0:
39,183,72565,1,4,1:1:0:0:
326,160,72752,1,0,3:0:0:0:
326,160,72846,1,0,3:0:0:0:
326,160,72940,2,0,P|340:104|326:64,1,90,10|2,0:1|0:2,0:0:0:0:
138,123,73315,5,14,1:2:0:0:
108,162,73408,1,0,3:0:0:0:
105,211,73502,1,0,3:0:0:0:
125,256,73596,1,0,3:0:0:0:
169,277,73690,1,12,1:1:0:0:
218,275,73783,1,0,3:0:0:0:
259,248,73877,1,0,3:0:0:0:
292,211,73971,1,0,3:0:0:0:
333,184,74065,1,12,1:2:0:0:
381,178,74158,1,0,3:0:0:0:
427,195,74252,1,0,3:0:0:0:
462,229,74346,1,0,3:0:0:0:
469,278,74440,1,12,1:1:0:0:
450,323,74533,1,0,3:0:0:0:
409,352,74627,1,0,3:0:0:0:
360,363,74721,1,0,3:0:0:0:
312,348,74815,5,4,1:2:0:0:
269,153,80815,5,4,1:2:0:0:
201,221,81002,1,0,0:0:0:0:
215,26,81190,2,0,P|181:64|169:108,1,90,8|0,0:1|0:0,0:0:0:0:
147,304,81565,1,4,1:1:0:0:
201,221,81752,1,0,0:0:0:0:
98,142,81940,2,0,P|54:156|12:189,1,90,8|0,0:1|0:0,0:0:0:0:
147,304,82315,5,4,1:2:0:0:
224,360,82502,1,0,0:0:0:0:
367,281,82690,2,0,P|388:335|380:376,1,90,8|0,0:1|0:0,0:0:0:0:
253,224,83065,1,4,1:1:0:0:
342,187,83252,1,0,0:0:0:0:
246,102,83440,2,0,P|197:95|154:102,1,90,8|0,0:1|0:0,0:0:0:0:
410,9,83815,5,4,1:2:0:0:
350,202,84002,1,0,0:0:0:0:
274,26,84190,1,8,0:1:0:0:
434,135,84377,1,0,0:0:0:0:
245,188,84565,2,0,L|149:178,1,90,4|0,1:1|0:0,0:0:0:0:
304,319,84940,2,0,L|400:309,1,90,8|0,0:1|0:0,0:0:0:0:
161,360,85315,5,12,1:2:0:0:
120,332,85408,1,0,3:0:0:0:
103,285,85502,1,0,3:0:0:0:
109,235,85596,1,0,3:0:0:0:
137,194,85690,1,12,1:1:0:0:
182,176,85783,1,0,3:0:0:0:
231,179,85877,1,0,3:0:0:0:
272,205,85971,1,0,3:0:0:0:
315,229,86065,1,12,1:2:0:0:
364,229,86158,1,0,3:0:0:0:
412,217,86252,1,0,3:0:0:0:
453,189,86346,1,0,3:0:0:0:
475,144,86440,1,12,1:1:0:0:
483,95,86533,1,0,3:0:0:0:
457,52,86627,1,0,3:0:0:0:
412,30,86721,1,0,3:0:0:0:
360,25,86815,5,4,1:2:0:0:
274,67,87002,1,2,0:2:0:0:
333,144,87190,1,0,0:0:0:0:
246,187,87377,2,2,P|216:164|113:145,1,135.000005149842,2|2,0:2|0:2,0:1:0:0:
126,291,87940,2,0,P|165:271|186:241,2,67.5000025749208,0|2|0,0:0|0:2|0:0,0:0:0:0:
19,196,88502,5,2,0:2:0:0:
19,196,88690,2,2,L|10:124,1,67.5000025749208,0|2,0:0|0:2,0:1:0:0:
126,291,89065,2,2,L|135:219,1,67.5000025749208,0|2,0:0|0:2,0:1:0:0:
245,170,89440,2,2,L|236:98,1,67.5000025749208,0|2,0:0|0:2,0:1:0:0:
359,253,89815,5,0,0:0:0:0:
439,115,90002,1,2,0:2:0:0:
439,115,90190,2,2,P|479:113|510:133,1,67.5000025749208,0|2,0:0|0:2,0:1:0:0:
351,110,90565,2,2,P|362:70|393:41,1,67.5000025749208,0|2,0:0|0:2,0:1:0:0:
290,170,90940,2,2,P|267:132|272:97,1,67.5000025749208,0|2,0:0|0:2,0:1:0:0:
75,162,91315,6,0,B|149:132|149:132|182:137|182:137|287:103,1,202.500007724762,6|0,1:2|0:0,0:0:0:0:
363,240,92065,2,0,P|324:230|294:238,1,67.5000025749208,6|0,1:1|0:0,0:0:0:0:
198,290,92440,2,2,B|185:242|185:242|193:227|193:227|186:182,1,101.250003862381,0|0,0:0|0:0,0:1:0:0:
194,151,92815,6,0,L|210:59,1,90,6|0,1:2|0:0,0:0:0:0:
242,25,93096,1,2,0:2:0:0:
242,25,93190,2,0,P|296:20|350:56,1,90,8|2,0:1|0:2,0:0:0:0:
425,200,93565,2,0,P|371:205|317:169,1,90,2|0,1:2|0:0,0:0:0:0:
158,72,93940,2,0,P|189:116|185:181,1,90,8|0,0:1|0:0,0:0:0:0:
109,288,94315,5,2,1:2:0:0:
106,139,94502,1,0,3:0:0:0:
106,139,94596,1,2,3:2:0:0:
106,139,94690,2,0,L|13:133,1,90,8|2,0:1|0:2,0:0:0:0:
186,244,95065,1,2,3:2:0:0:
186,244,95158,1,0,3:0:0:0:
186,244,95252,1,0,3:0:0:0:
261,97,95440,2,0,P|269:39|250:0,1,90,8|0,0:1|0:0,0:0:0:0:
344,196,95815,5,2,1:2:0:0:
412,48,96002,1,0,3:0:0:0:
412,48,96096,1,2,3:2:0:0:
412,48,96190,2,0,P|465:48|495:75,1,90,8|2,0:1|0:2,0:0:0:0:
423,218,96565,2,0,P|370:218|340:191,1,90,2|0,1:2|0:0,0:0:0:0:
313,155,96846,1,2,0:2:0:0:
313,155,96940,2,0,L|213:166,1,90,8|2,0:1|0:2,0:0:0:0:
49,176,97315,5,2,1:3:0:0:
118,322,97596,1,2,1:3:0:0:
274,328,97877,1,2,1:3:0:0:
199,263,98065,5,2,1:3:0:0:
148,116,98346,1,2,1:3:0:0:
276,11,98627,1,2,1:3:0:0:
276,11,98815,6,0,L|367:2,1,90,6|0,1:1|0:0,0:0:0:0:
512,128,99190,2,0,L|421:119,1,90,8|0,0:1|0:0,0:0:0:0:
266,165,99565,2,0,B|301:127|301:127|289:259,1,180,2|10,1:2|0:1,0:0:0:0:
168,368,100127,1,0,0:0:0:0:
120,213,100315,5,2,1:2:0:0:
243,318,100502,1,0,0:0:0:0:
77,361,100690,2,0,P|59:318|72:272,1,90,8|0,0:1|0:0,0:0:0:0:
192,162,101065,2,0,L|292:169,1,90,2|0,1:2|0:0,0:0:0:0:
331,171,101346,1,0,0:0:0:0:
331,171,101440,2,0,B|362:137|362:137|357:89,1,90,10|0,0:1|0:0,0:0:0:0:
134,97,101815,6,0,B|103:131|103:131|129:222,1,135,2|2,1:2|0:2,0:0:0:0:
146,262,102190,1,8,0:1:0:0:
272,365,102377,1,2,0:2:0:0:
246,208,102565,1,2,1:2:0:0:
181,354,102752,1,0,3:0:0:0:
181,354,102846,1,0,3:0:0:0:
181,354,102940,2,0,L|83:368,1,90,8|0,0:1|0:0,0:0:0:0:
246,208,103315,5,2,1:2:0:0:
95,248,103502,1,0,0:0:0:0:
177,113,103690,2,0,P|218:91|272:97,1,90,8|2,0:1|0:2,0:0:0:0:
400,164,104065,1,2,1:2:0:0:
250,229,104252,1,0,3:0:0:0:
250,229,104346,1,0,3:0:0:0:
250,229,104440,6,0,L|243:190,6,22.5,8|0|0|0|0|0|0,3:1|3:0|3:0|3:0|3:0|3:0|3:0,0:0:0:0:
378,275,104815,6,0,B|344:284|322:263|322:263|307:298|273:315|234:320|185:281,1,202.500007724762,6|0,1:2|0:0,0:0:0:0:
259,162,105565,2,0,L|247:247,1,67.5000025749208,6|0,1:1|0:0,0:0:0:0:
111,306,105940,2,0,L|101:239,1,67.5000025749208,2|0,0:2|0:0,0:0:0:0:
3,126,106315,6,0,B|57:145|101:93|86:85|125:38|208:76,1,202.500007724762,6|2,1:2|0:2,0:0:0:0:
319,13,107065,6,2,L|331:49,3,33.7500012874604,6|0|0|0,1:1|3:0|3:0|3:0,0:0:0:0:
395,78,107440,6,0,L|390:106,6,16.8750006437302,2|0|0|0|0|0|0,3:2|3:0|3:0|3:0|3:0|3:0|3:0,0:0:0:0:
379,169,107815,5,6,1:2:0:0:
256,192,107908,12,0,108940,0:0:0:0:
132,78,109315,6,0,L|50:73,1,67.5000025749208,2|0,1:3|0:0,0:0:0:0:
124,158,109596,2,0,L|191:162,1,67.5000025749208,2|0,1:3|0:0,0:0:0:0:
269,168,109877,1,2,1:3:0:0:
412,290,110065,6,0,P|395:237|417:195,1,90,2|0,1:3|0:0,0:0:0:0:
495,246,110346,2,0,P|512:299|490:341,1,90,2|0,1:3|0:0,0:0:0:0:
437,373,110627,1,2,1:3:0:0:
210,371,110815,6,0,B|130:348|130:348|107:328|107:328|75:331|75:331|-3:309,1,215.999993408203,6|10,1:2|1:1,0:0:0:0:
195,258,111377,1,2,0:2:0:0:
32,115,111565,2,0,P|7:164|30:221,1,107.999996704102,2|0,1:2|0:0,0:0:0:0:
263,321,111940,2,0,P|288:272|241:177,1,161.999995056153,10|0,1:1|0:0,0:0:0:0:
196,149,112315,6,0,L|90:169,1,107.999996704102,2|0,1:2|0:0,0:0:0:0:
231,17,112690,2,0,L|337:37,1,107.999996704102,8|0,1:1|0:0,0:0:0:0:
489,152,113065,2,0,P|503:211|470:263,1,107.999996704102,0|0,1:0|0:0,0:0:0:0:
438,290,113346,1,0,0:0:0:0:
438,290,113440,2,0,L|319:277,1,107.999996704102,10|0,1:1|0:0,0:0:0:0:
145,186,113815,5,2,1:2:0:0:
339,145,114002,1,2,0:2:0:0:
204,280,114190,1,10,1:1:0:0:
167,93,114377,1,2,0:2:0:0:
48,247,114565,2,0,P|39:315|68:353,1,107.999996704102,2|0,1:2|0:0,0:0:0:0:
275,323,114940,2,0,P|284:255|255:217,1,107.999996704102,10|2,1:1|0:2,0:0:0:0:
76,53,115315,6,0,P|130:94|177:88,1,107.999996704102,2|0,1:2|0:0,0:0:0:0:
403,13,115690,2,0,P|339:39|321:83,1,107.999996704102,8|0,1:1|0:0,0:0:0:0:
381,261,116065,6,0,L|407:100,1,161.999995056153,0|0,1:0|0:0,0:0:0:0:
482,99,116440,2,0,L|475:138,6,26.9999991760254,10|0|0|0|0|0|0,1:1|3:0|3:0|3:0|3:0|3:0|3:0,0:0:0:0:
496,196,116815,6,0,P|446:193|408:96,1,161.999995056153,6|0,1:1|0:0,0:0:0:0:
416,41,117190,1,10,1:0:0:0:
291,187,117377,1,2,0:2:0:0:
379,363,117565,1,2,1:2:0:0:
197,302,117752,1,0,3:0:0:0:
197,302,117846,1,0,3:0:0:0:
197,302,117940,2,0,L|308:284,1,107.999996704102,10|0,1:1|0:0,0:0:0:0:
406,100,118315,6,0,P|337:63|246:78,1,161.999995056153,2|2,1:2|0:2,0:0:0:0:
199,90,118690,1,8,1:1:0:0:
64,227,118877,1,2,0:2:0:0:
10,41,119065,2,0,P|62:22|114:35,1,107.999996704102,2|0,1:2|0:0,0:0:0:0:
274,261,119440,2,2,B|201:254|201:254|180:229|180:229|99:228,1,161.999995056153,8|0,1:1|0:0,0:1:0:0:
64,227,119815,5,2,1:2:0:0:
190,377,120002,1,2,0:2:0:0:
241,180,120190,1,10,1:1:0:0:
11,331,120377,2,0,L|127:311,1,107.999996704102,2|0,0:2|1:0,0:0:0:0:
296,239,120752,1,2,0:2:0:0:
140,124,120940,2,0,P|180:81|236:91,1,107.999996704102,10|0,1:1|0:0,0:0:0:0:
499,225,121315,6,0,P|502:286|419:328,1,161.999995056153,2|0,1:2|0:0,0:0:0:0:
365,306,121690,2,0,L|248:329,1,107.999996704102,8|2,1:1|0:2,0:0:0:0:
74,268,122065,5,10,1:2:0:0:
45,216,122158,1,0,3:0:0:0:
42,156,122252,1,0,3:0:0:0:
73,105,122346,1,0,3:0:0:0:
127,80,122440,1,10,1:1:0:0:
185,82,122533,1,0,3:2:0:0:
238,109,122627,1,2,3:2:0:0:
263,163,122721,1,0,3:2:0:0:
265,222,122815,6,0,B|188:218|188:218|176:209|176:209|75:205,1,161.999995056153,6|0,1:2|0:0,0:0:0:0:
46,202,123190,1,10,1:1:0:0:
238,82,123377,1,2,0:2:0:0:
199,301,123565,2,0,P|146:323|90:308,1,107.999996704102,2|0,1:2|0:0,0:0:0:0:
238,82,123940,2,0,P|290:72|338:93,1,107.999996704102,10|0,1:1|0:0,0:0:0:0:
478,247,124315,6,0,L|492:128,1,107.999996704102,2|0,1:2|0:0,0:0:0:0:
501,81,124596,1,0,0:0:0:0:
501,81,124690,2,0,B|459:51|459:51|401:64,1,107.999996704102,8|0,1:1|0:0,0:0:0:0:
282,272,125065,2,0,B|337:284|337:284|379:254,1,107.999996704102,0|0,1:0|0:0,0:0:0:0:
219,58,125440,2,0,L|213:176,1,107.999996704102,10|0,1:1|0:0,0:0:0:0:
210,225,125721,1,0,0:0:0:0:
210,225,125815,5,2,1:2:0:0:
40,343,126002,1,2,0:2:0:0:
67,149,126190,1,10,1:1:0:0:
188,304,126377,1,2,0:2:0:0:
240,124,126565,2,0,P|234:60|196:22,1,107.999996704102,2|0,1:2|0:0,0:0:0:0:
53,235,126940,2,0,P|59:299|97:337,1,107.999996704102,10|0,1:1|0:0,0:0:0:0:
142,350,127221,1,0,0:0:0:0:
142,350,127315,6,0,L|269:337,1,107.999996704102,2|0,1:2|0:0,0:0:0:0:
432,185,127690,2,0,L|305:172,1,107.999996704102,8|2,1:1|0:2,0:0:0:0:
157,75,128065,1,10,1:2:0:0:
105,103,128158,1,0,3:0:0:0:
82,158,128252,1,0,3:0:0:0:
101,214,128346,1,0,3:0:0:0:
151,244,128440,1,8,1:1:0:0:
209,235,128533,1,0,3:0:0:0:
261,207,128627,1,0,3:0:0:0:
320,206,128721,1,0,3:0:0:0:
358,248,128815,6,0,P|363:305|261:340,1,180,6|0,1:2|0:0,0:0:0:0:
188,163,129377,1,2,0:2:0:0:
302,59,129565,2,0,P|287:125|300:153,1,90,4|0,1:1|0:0,0:0:0:0:
437,212,129940,2,0,P|452:146|439:118,1,90,2|0,0:2|0:0,0:0:0:0:
299,259,130315,6,0,B|224:252|224:252|208:243|208:243|110:234,1,180,6|0,1:2|0:0,0:0:0:0:
6,80,130877,1,2,0:2:0:0:
201,75,131065,2,0,L|185:167,1,90,4|0,1:1|0:0,0:0:0:0:
36,252,131440,2,0,L|21:164,1,90,2|0,0:2|0:0,0:0:0:0:
210,363,131815,5,6,1:2:0:0:
241,135,132002,1,0,0:0:0:0:
377,322,132190,1,8,0:1:0:0:
414,97,132377,1,2,0:2:0:0:
239,240,132565,1,4,1:1:0:0:
290,30,132752,1,0,3:0:0:0:
290,30,132846,1,0,3:0:0:0:
290,30,132940,1,10,0:1:0:0:
116,176,133127,1,2,0:2:0:0:
414,21,133315,5,14,1:2:0:0:
457,43,133408,1,0,3:0:0:0:
482,85,133502,1,0,3:0:0:0:
478,134,133596,1,0,3:0:0:0:
446,172,133690,1,12,1:1:0:0:
398,183,133783,1,0,3:0:0:0:
360,216,133877,1,0,3:0:0:0:
337,260,133971,1,0,3:0:0:0:
342,309,134065,1,12,1:2:0:0:
372,347,134158,1,0,3:0:0:0:
420,359,134252,1,0,3:0:0:0:
469,356,134346,1,0,3:0:0:0:
501,318,134440,1,12,1:1:0:0:
504,269,134533,1,0,3:0:0:0:
482,224,134627,1,0,3:0:0:0:
437,201,134721,1,0,3:0:0:0:
387,201,134815,6,0,L|376:293,1,90,2|0,1:3|0:0,0:0:0:0:
242,175,135190,1,2,1:3:0:0:
242,175,135377,2,0,L|219:369,2,180,2|2|2,1:3|1:3|1:3,0:0:0:0:
154,18,136315,6,0,P|108:6|69:22,1,90,4|0,1:1|0:0,0:0:0:0:
242,175,136690,2,0,P|288:187|327:171,1,90,8|0,0:1|0:0,0:0:0:0:
75,171,137065,2,0,P|41:204|35:246,1,90,0|0,1:0|0:0,0:0:0:0:
245,74,137440,2,0,P|278:40|284:-1,1,90,8|0,0:1|0:0,0:0:0:0:
158,245,137815,6,0,P|170:290|203:316,1,90,2|0,1:3|0:0,0:0:0:0:
393,310,138190,1,2,1:3:0:0:
393,310,138377,2,0,P|400:260|303:165,1,180,2|2,1:3|1:3,0:0:0:0:
157,61,139127,1,2,1:3:0:0:
157,61,139315,6,0,L|148:156,1,90,4|0,1:1|0:0,0:0:0:0:
312,78,139690,2,0,L|321:173,1,90,8|0,0:1|0:0,0:0:0:0:
117,222,140065,2,0,L|108:317,1,90,0|0,1:0|0:0,0:0:0:0:
393,225,140440,2,0,L|402:320,1,90,8|0,0:1|0:0,0:0:0:0:
263,160,140815,6,0,P|257:109|274:68,1,90,4|0,1:2|0:0,0:0:0:0:
393,225,141190,1,8,0:1:0:0:
210,299,141377,1,0,0:0:0:0:
389,362,141565,2,0,P|441:372|493:362,1,90,0|0,1:0|0:0,0:0:0:0:
319,241,141940,1,8,0:1:0:0:
510,231,142127,1,0,0:0:0:0:
374,91,142315,6,0,P|395:140|398:187,1,90,0|0,1:0|0:0,0:0:0:0:
139,115,142690,2,0,P|170:72|210:46,1,90,8|0,0:1|0:0,0:0:0:0:
269,305,143065,2,0,P|216:298|173:277,1,90,0|0,1:0|0:0,0:0:0:0:
262,172,143440,1,8,0:1:0:0:
262,172,143627,1,0,0:0:0:0:
348,34,143815,6,0,P|395:23|442:15,1,90,0|0,1:0|0:0,0:0:0:0:
382,208,144190,1,8,0:1:0:0:
257,59,144377,1,0,0:0:0:0:
224,247,144565,2,0,P|225:297|241:345,1,90,0|0,1:0|0:0,0:0:0:0:
382,208,144940,2,0,P|394:164|394:119,1,90,8|0,0:1|0:0,0:0:0:0:
156,9,145315,6,0,B|188:44|188:44|319:16,1,180,0|8,1:0|0:1,0:0:0:0:
491,113,145877,1,0,0:0:0:0:
303,217,146065,2,0,B|276:176|298:119,1,90,0|0,1:0|0:0,0:0:0:0:
486,217,146440,2,0,P|498:278|456:337,1,135,8|0,0:1|0:0,0:0:0:0:
413,351,146815,5,4,1:2:0:0:
256,192,146908,12,6,149815,1:1:0:0:
22,28,154315,5,4,1:2:0:0:
446,95,155065,6,0,L|443:120,14,22.5,12|0|0|0|0|0|0|0|0|0|0|0|0|0|0,1:2|3:0|3:0|3:0|3:0|3:0|3:0|3:0|3:0|3:0|3:0|3:0|3:0|3:0|3:0,0:0:0:0:
414,147,155815,6,0,B|387:119|319:121|327:153|280:167|236:125,1,175.499991966248,6|0,1:2|0:0,0:0:0:0:
114,98,156565,2,0,P|105:60|114:33,1,58.4999973220826,6|0,1:1|0:0,0:0:0:0:
243,78,156940,2,0,P|252:116|243:143,1,58.4999973220826,2|0,0:2|0:0,0:0:0:0:
104,224,157315,6,0,P|122:252|115:193,1,175.499991966248,6|2,1:2|0:2,0:0:0:0:
279,249,158065,6,2,L|278:266,6,14.6249993305207,6|0|0|0|0|0|0,3:1|3:0|3:0|3:0|3:0|3:0|3:0,0:0:0:0:
335,225,158440,6,0,L|334:242,6,14.6249993305207,2|0|0|0|0|0|0,3:2|3:0|3:0|3:0|3:0|3:0|3:0,0:0:0:0:
377,208,158815,5,6,1:2:0:0:
256,192,158908,12,0,159940,0:0:0:0:
16,50,160315,6,0,L|110:33,1,90,2|0,1:3|0:0,0:0:0:0:
166,102,160596,2,0,L|77:118,1,90,2|0,1:3|0:0,0:0:0:0:
1,134,160877,1,2,1:3:0:0:
186,182,161065,6,0,P|230:202|245:269,1,90,2|0,1:3|0:0,0:0:0:0:
230,335,161346,2,0,P|186:315|171:248,1,90,2|0,1:3|0:0,0:0:0:0:
112,222,161627,1,2,1:3:0:0:
112,222,161815,5,2,0:2:0:0:
221,109,162096,1,2,0:2:0:0:
380,143,162377,1,2,0:2:0:0:
380,143,162565,5,2,0:2:0:0:
264,255,162846,1,2,0:2:0:0:
390,358,163127,1,2,0:2:0:0:
512,226,163315,6,0,B|467:153|467:153|478:113|478:113|430:14,1,215.999993408203,6|10,1:2|1:1,0:0:0:0:
229,130,163877,1,2,0:2:0:0:
339,287,164065,2,0,P|369:234|349:175,1,107.999996704102,2|0,1:2|0:0,0:0:0:0:
173,69,164440,2,0,P|143:122|163:181,1,107.999996704102,10|0,1:1|0:0,0:0:0:0:
269,351,164815,6,0,P|238:298|177:286,1,107.999996704102,2|0,1:2|0:0,0:0:0:0:
139,302,165096,1,0,0:0:0:0:
139,302,165190,2,0,L|15:288,1,107.999996704102,8|0,1:1|0:0,0:0:0:0:
229,130,165565,2,0,L|353:116,1,107.999996704102,0|0,1:0|0:0,0:0:0:0:
506,220,165940,1,10,1:1:0:0:
316,260,166127,1,0,3:0:0:0:
316,260,166221,1,0,3:0:0:0:
316,260,166315,6,0,P|295:323|316:360,1,107.999996704102,2|2,1:2|0:2,0:0:0:0:
357,173,166690,1,10,1:1:0:0:
470,334,166877,1,2,0:2:0:0:
501,145,167065,2,0,P|522:82|501:45,1,107.999996704102,2|0,1:2|0:0,0:0:0:0:
357,173,167440,1,10,1:1:0:0:
283,0,167627,1,2,0:2:0:0:
164,145,167815,6,0,L|285:128,1,107.999996704102,2|0,1:2|0:0,0:0:0:0:
459,156,168190,1,8,1:1:0:0:
321,279,168377,1,0,3:0:0:0:
321,279,168471,1,0,3:0:0:0:
321,279,168565,2,0,L|197:265,1,107.999996704102,0|0,1:0|0:0,0:0:0:0:
158,243,168846,1,0,0:0:0:0:
158,243,168940,2,0,P|143:184|168:140,1,107.999996704102,10|0,1:1|0:0,0:0:0:0:
412,74,169315,6,0,B|440:127|440:127|411:232,1,161.999995056153,6|0,1:1|0:0,0:0:0:0:
394,281,169690,1,10,1:1:0:0:
214,334,169877,1,2,0:2:0:0:
247,139,170065,2,0,B|301:123|301:123|351:147,1,107.999996704102,2|0,1:2|0:0,0:0:0:0:
214,334,170440,2,0,B|167:356|167:356|113:340,1,107.999996704102,10|0,1:1|0:0,0:0:0:0:
6,175,170815,6,0,P|1:118|91:65,1,161.999995056153,2|2,1:2|0:2,0:0:0:0:
139,67,171190,1,8,1:1:0:0:
323,135,171377,1,2,0:2:0:0:
155,249,171565,1,2,1:2:0:0:
155,249,171658,1,0,3:0:0:0:
155,249,171752,1,0,3:0:0:0:
246,42,171940,2,2,B|310:28|310:28|332:43|332:43|420:22,1,161.999995056153,8|0,1:1|0:0,0:1:0:0:
434,19,172315,5,2,1:2:0:0:
425,295,172502,1,2,0:2:0:0:
323,135,172690,1,10,1:1:0:0:
499,228,172877,1,2,0:2:0:0:
320,306,173065,2,0,L|205:295,1,107.999996704102,0|2,1:0|0:2,0:0:0:0:
153,287,173346,1,0,0:0:0:0:
153,287,173440,2,0,P|124:228|150:182,1,107.999996704102,10|0,1:1|0:0,0:0:0:0:
354,101,173815,6,0,L|342:214,1,107.999996704102,2|0,1:2|0:0,0:0:0:0:
127,85,174190,2,0,L|139:198,1,107.999996704102,8|2,1:1|0:2,0:0:0:0:
219,368,174565,1,10,1:2:0:0:
277,363,174658,1,0,3:0:0:0:
329,335,174752,1,0,3:0:0:0:
346,278,174846,1,0,3:0:0:0:
328,221,174940,1,10,1:1:0:0:
283,182,175033,1,0,3:0:0:0:
241,139,175127,1,2,3:2:0:0:
226,81,175221,1,0,3:0:0:0:
256,29,175315,6,0,B|332:-17|415:16|415:16|382:25|363:49,1,215.999993408203,6|10,1:2|1:1,0:0:0:0:
240,193,175877,1,2,0:2:0:0:
91,77,176065,2,0,P|102:19|152:-6,1,107.999996704102,2|0,1:2|0:0,0:0:0:0:
316,183,176440,2,0,P|309:235|265:264,1,107.999996704102,10|0,1:1|0:0,0:0:0:0:
110,374,176815,6,0,B|86:291|86:291|97:253|97:253|78:161,1,215.999993408203,2|8,1:2|1:1,0:0:0:0:
205,23,177377,1,0,3:0:0:0:
205,23,177471,1,0,3:0:0:0:
205,23,177565,2,0,P|270:9|325:41,1,107.999996704102,0|0,1:0|0:0,0:0:0:0:
354,59,177846,1,0,0:0:0:0:
354,59,177940,1,10,1:1:0:0:
293,243,178127,1,0,3:0:0:0:
293,243,178221,1,0,3:0:0:0:
293,243,178315,5,2,1:2:0:0:
452,134,178502,1,2,0:2:0:0:
230,119,178690,1,10,1:1:0:0:
388,246,178877,1,2,0:2:0:0:
238,369,179065,2,0,L|115:358,1,107.999996704102,2|0,1:2|0:0,0:0:0:0:
19,200,179440,2,0,L|133:184,1,107.999996704102,10|0,1:1|0:0,0:0:0:0:
184,174,179721,1,0,0:0:0:0:
184,174,179815,6,0,L|303:156,1,107.999996704102,2|0,1:2|0:0,0:0:0:0:
475,238,180190,1,8,1:1:0:0:
298,323,180377,1,2,0:2:0:0:
398,147,180565,5,10,1:2:0:0:
372,93,180658,1,0,3:0:0:0:
318,67,180752,1,0,3:0:0:0:
258,63,180846,1,0,3:0:0:0:
205,90,180940,1,8,1:1:0:0:
171,138,181033,1,0,3:2:0:0:
117,164,181127,1,0,3:2:0:0:
58,154,181221,1,0,3:2:0:0:
23,109,181315,6,0,B|23:89|3:59|3:59|24:14|65:7|133:15,1,180,6|0,1:2|0:0,0:0:0:0:
259,132,181877,1,2,0:2:0:0:
133,269,182065,2,0,P|121:220|144:163,1,90,4|0,1:1|0:0,0:0:0:0:
340,89,182440,2,0,P|352:138|329:195,1,90,2|0,0:2|0:0,0:0:0:0:
225,335,182815,6,0,B|360:346|360:346|409:317,1,180,6|0,1:2|0:0,0:0:0:0:
495,157,183377,1,2,0:2:0:0:
297,164,183565,2,0,P|279:212|292:251,1,90,4|0,1:1|0:0,0:0:0:0:
495,157,183940,2,0,P|513:109|500:70,1,90,2|0,0:2|0:0,0:0:0:0:
319,15,184315,5,6,1:2:0:0:
277,239,184502,1,0,0:0:0:0:
168,48,184690,1,8,0:1:0:0:
113,269,184877,1,2,0:2:0:0:
286,133,185065,1,4,1:1:0:0:
60,113,185252,1,0,3:0:0:0:
60,113,185346,1,0,3:0:0:0:
60,113,185440,1,10,0:1:0:0:
196,291,185627,1,2,0:2:0:0:
219,62,185815,5,14,1:2:0:0:
259,34,185908,1,0,3:0:0:0:
308,32,186002,1,0,3:0:0:0:
352,52,186096,1,0,3:0:0:0:
378,93,186190,1,12,1:1:0:0:
386,141,186283,1,0,3:0:0:0:
353,178,186377,1,0,3:0:0:0:
314,208,186471,1,0,3:0:0:0:
274,237,186565,1,12,1:2:0:0:
259,284,186658,1,0,3:0:0:0:
278,329,186752,1,0,3:0:0:0:
320,353,186846,1,0,3:0:0:0:
369,357,186940,2,0,L|418:346,3,45,12|0|0|0,1:1|3:0|3:0|3:0,0:0:0:0:
494,231,187315,6,0,B|446:199|399:210|406:237|352:246|307:209,2,175.499991966248,6|2|2,1:2|0:2|0:2,0:0:0:0:
320,111,188815,6,0,P|344:72|360:145,2,175.499991966248,2|2|2,0:2|0:2|0:2,0:0:0:0:
131,206,190315,6,0,P|120:155|52:114,1,116.999994644165,6|0,1:1|0:0,0:0:0:0:
179,331,190877,2,0,P|190:280|258:239,1,116.999994644165,2|0,0:2|0:0,0:0:0:0:
335,255,191440,1,2,0:2:0:0:
273,326,191627,1,2,0:2:0:0:
290,169,191815,5,2,0:2:0:0:
256,192,192002,12,0,193315,0:0:0:0:
