osu file format v14

[General]
AudioFilename: audio.mp3
AudioLeadIn: 0
PreviewTime: 139016
Countdown: 0
SampleSet: None
StackLeniency: 0.7
Mode: 0
LetterboxInBreaks: 0
WidescreenStoryboard: 0

[Editor]
DistanceSpacing: 1.6
BeatDivisor: 4
GridSize: 8
TimelineZoom: 1.3

[Metadata]
Title:Mouth to Mouth
TitleUnicode:マウストゥーマウス
Artist:senya
ArtistUnicode:senya
Creator:Supicha
Version:A Little Mouse
Source:東方project
Tags:幽閉サテライト Yuuhei Satellite Touhou project
BeatmapID:2037789
BeatmapSetID:973401

[Difficulty]
HPDrainRate:5
CircleSize:4
OverallDifficulty:9
ApproachRate:8.3
SliderMultiplier:1.6
SliderTickRate:1

[Events]
//Background and Video events
0,0,"nazu_00055_16_9.jpg",0,0
//Break Periods
//Storyboard Layer 0 (Background)
//Storyboard Layer 1 (Fail)
//Storyboard Layer 2 (Pass)
//Storyboard Layer 3 (Foreground)
//Storyboard Sound Samples

[TimingPoints]
588,428.571428571429,6,1,0,100,1,0
129159,-100,6,1,0,50,0,0
134302,-100,6,1,0,60,0,0
139445,-100,6,1,0,80,0,1
160016,-100,6,1,0,80,0,0

[HitObjects]
76,38,129159,6,0,L|68:91,3,40
141,104,129588,2,0,L|133:157,3,40
201,173,130016,2,0,L|193:226,3,40
264,250,130445,6,0,P|278:221|298:202,3,40
323,150,130873,2,0,P|354:145|381:152,3,40
436,125,131302,2,0,P|464:138|484:158,3,40
508,214,131730,6,0,L|432:267,1,80
362,311,132159,1,0,0:0:0:0:
238,301,132373,6,0,L|314:248,1,80
384,204,132802,1,0,0:0:0:0:
226,201,133016,5,0,0:0:0:0:
238,301,133230,1,0,0:0:0:0:
148,255,133445,1,0,0:0:0:0:
307,134,133659,5,0,0:0:0:0:
226,201,133873,1,0,0:0:0:0:
226,107,134088,1,0,0:0:0:0:
226,107,134195,1,0,0:0:0:0:
226,107,134302,6,0,P|291:94|324:107,2,80
140,149,134945,2,0,P|75:136|42:149,2,80
226,201,135588,6,0,P|263:214|302:211,2,80
139,243,136230,2,0,P|101:256|62:253,2,80
214,291,136873,5,0,0:0:0:0:
303,210,137088,1,0,0:0:0:0:
189,168,137302,1,0,0:0:0:0:
229,284,137516,5,0,0:0:0:0:
318,203,137731,1,0,0:0:0:0:
204,161,137945,1,0,0:0:0:0:
245,276,138159,5,0,0:0:0:0:
172,48,138373,1,0,0:0:0:0:
144,233,138588,1,0,0:0:0:0:
273,91,138802,1,0,0:0:0:0:
46,186,139016,5,0,0:0:0:0:
380,139,139230,1,0,0:0:0:0:
169,250,139445,6,0,L|68:266,1,80
12,327,139766,1,0,0:0:0:0:
12,327,139873,2,0,L|113:343,1,80
178,326,140302,2,0,L|279:342,1,80
349,365,140730,5,0,0:0:0:0:
280,173,140945,1,0,0:0:0:0:
411,305,141159,5,0,0:0:0:0:
209,212,141373,1,0,0:0:0:0:
430,227,141588,5,0,0:0:0:0:
157,275,141802,1,0,0:0:0:0:
157,275,141909,1,0,0:0:0:0:
157,275,142016,6,0,L|170:367,1,80
209,212,142445,2,0,L|220:132,1,80
248,283,142873,2,0,L|261:375,1,80
303,213,143302,5,0,0:0:0:0:
86,161,143516,1,0,0:0:0:0:
303,109,143730,5,0,0:0:0:0:
74,259,143944,1,0,0:0:0:0:
185,75,144159,5,0,0:0:0:0:
213,328,144373,1,0,0:0:0:0:
100,110,144588,6,0,P|145:152|249:139,1,160
358,59,145230,1,0,0:0:0:0:
185,75,145445,1,0,0:0:0:0:
348,140,145659,1,0,0:0:0:0:
348,140,145766,1,0,0:0:0:0:
348,140,145873,2,0,P|366:181|292:254,1,160
176,224,146516,2,0,L|79:199,2,80
312,236,147159,5,0,0:0:0:0:
401,283,147373,1,0,0:0:0:0:
311,333,147588,1,0,0:0:0:0:
324,220,147802,5,0,0:0:0:0:
413,267,148016,1,0,0:0:0:0:
323,317,148231,1,0,0:0:0:0:
342,204,148445,6,0,B|304:204|304:204|271:179|271:179|231:209,1,120
176,267,148873,6,0,L|176:318,1,40
105,237,149088,6,0,L|105:288,1,40
39,207,149302,6,0,B|40:162|40:162|19:139|19:139|41:113|41:113|42:74,1,120
68,18,149730,6,0,L|230:30,1,160
394,38,150373,1,0,0:0:0:0:
215,105,150588,2,0,L|224:189,1,80
241,317,151016,5,0,0:0:0:0:
314,132,151230,1,0,0:0:0:0:
354,284,151445,5,0,0:0:0:0:
149,214,151659,1,0,0:0:0:0:
246,95,151873,5,0,0:0:0:0:
311,350,152088,1,0,0:0:0:0:
311,350,152195,1,0,0:0:0:0:
311,350,152302,6,0,P|355:278|313:195,1,160
228,112,152945,1,0,0:0:0:0:
161,273,153159,2,0,L|258:275,1,80
441,274,153588,5,0,0:0:0:0:
223,190,153802,1,0,0:0:0:0:
398,338,154016,5,0,0:0:0:0:
264,122,154230,1,0,0:0:0:0:
324,352,154445,5,0,0:0:0:0:
334,83,154659,1,0,0:0:0:0:
334,83,154766,1,0,0:0:0:0:
334,83,154873,5,0,0:0:0:0:
491,193,155088,1,0,0:0:0:0:
229,131,155302,5,0,0:0:0:0:
472,193,155516,1,0,0:0:0:0:
195,246,155730,5,0,0:0:0:0:
453,193,155945,1,0,0:0:0:0:
235,343,156159,6,0,P|196:352|99:280,1,160
101,175,156802,1,0,0:0:0:0:
36,343,157016,1,0,0:0:0:0:
195,246,157230,1,0,0:0:0:0:
111,142,157445,6,0,L|107:49,1,80
74,258,157873,2,0,L|17:334,1,80
191,226,158302,2,0,L|276:262,1,80
397,294,158730,5,0,0:0:0:0:
253,125,158945,1,0,0:0:0:0:
465,175,159159,1,0,0:0:0:0:
206,244,159373,5,0,0:0:0:0:
357,75,159588,1,0,0:0:0:0:
370,348,159802,1,0,0:0:0:0:
230,51,160016,1,0,0:0:0:0:
