osu file format v14

[General]
AudioFilename: mouse.mp3
AudioLeadIn: 0
PreviewTime: 72159
Countdown: 0
SampleSet: Soft
StackLeniency: 0.7
Mode: 0
LetterboxInBreaks: 0
WidescreenStoryboard: 0

[Editor]
Bookmarks: 46766,129052,139338,160123
DistanceSpacing: 1
BeatDivisor: 4
GridSize: 8
TimelineZoom: 1

[Metadata]
Title:Mouth to Mouth
TitleUnicode:マウストゥーマウス
Artist:senya
ArtistUnicode:senya
Creator:Dailycare
Version:Normal
Source:東方星蓮船 ~ Undefined Fantastic Object.
Tags:Satellite comiket87 森永真由美 Morinaga Mayumi 幽閉サテライト かませ虎 kamase tora Autobahn Dagger-Gazel
BeatmapID:924370
BeatmapSetID:428233

[Difficulty]
HPDrainRate:3
CircleSize:3.3
OverallDifficulty:4.4
ApproachRate:4.4
SliderMultiplier:1.05
SliderTickRate:1

[Events]
//Background and Video events
0,0,"BG.png",0,0
//Break Periods
2,119073,127888
//Storyboard Layer 0 (Background)
//Storyboard Layer 1 (Fail)
//Storyboard Layer 2 (Pass)
//Storyboard Layer 3 (Foreground)
//Storyboard Sound Samples

[TimingPoints]
588,428.571428571429,6,2,1,75,1,0
26302,-100,6,2,1,75,0,0
47302,-100,6,2,1,60,0,0
57159,-100,6,2,1,75,0,0
67445,-100,6,2,1,60,0,0
72588,-100,6,2,1,85,0,0
93159,-100,6,2,1,60,0,0
103445,-100,6,2,1,75,0,0
113730,-100,6,2,1,60,0,0
134302,-100,6,2,1,65,0,0
135588,-100,6,2,1,70,0,0
136873,-100,6,2,1,75,0,0
139445,-100,6,2,1,85,0,1
160016,-100,6,2,1,85,0,0

[Colours]
Combo1 : 77,140,247
Combo2 : 170,170,170
Combo3 : 65,65,65
Combo4 : 175,111,206
Combo5 : 190,86,117
Combo6 : 129,149,231
Combo7 : 175,5,150
Combo8 : 200,51,78

[HitObjects]
210,274,26302,38,0,L|201:116,1,157.5,4|8,3:1|0:0,0:0:0:0:
356,84,27588,2,0,L|349:188,1,105,8|0,0:0|3:0,0:0:0:0:
332,292,28445,2,0,P|365:290|393:286,1,52.5,8|0,0:0|0:0,0:0:0:0:
435,296,28873,2,0,P|471:263|471:147,1,157.5,0|8,3:0|0:0,0:0:0:0:
344,76,30159,2,0,L|337:180,1,105,8|0,0:0|3:0,0:0:0:0:
241,223,31016,2,0,L|237:170,1,52.5,8|0,0:0|0:0,0:0:0:0:
242,118,31445,6,0,P|209:86|93:101,1,157.5,0|8,3:0|0:0,0:0:0:0:
41,175,32516,1,0,0:0:0:0:
41,175,32730,2,0,P|48:220|56:292,1,105,8|0,0:0|3:0,0:0:0:0:
154,314,33588,2,0,L|156:250,1,52.5,8|0,0:0|0:0,0:0:0:0:
147,209,34016,2,0,L|271:217,2,105,0|0|0,3:0|3:0|0:0,0:0:0:0:
57,264,35302,2,0,P|44:182|140:103,1,210,8|8,0:0|0:0,0:0:0:0:
231,137,36588,6,0,P|237:184|246:294,1,157.5,4|8,3:1|0:0,0:0:0:0:
379,377,37873,2,0,P|404:332|402:279,1,105,8|0,0:0|3:0,0:0:0:0:
329,204,38730,1,8,0:0:0:0:
431,179,39159,2,0,P|467:136|455:33,1,157.5,0|8,3:0|0:0,0:0:0:0:
309,87,40445,2,0,L|199:80,1,105,8|0,0:0|3:0,0:0:0:0:
101,56,41302,2,0,L|108:128,1,52.5,8|0,0:0|0:0,0:0:0:0:
75,150,41730,86,0,P|93:187|55:297,2,157.5,0|8|8,3:0|0:0|0:0,0:0:0:0:
13,64,43445,1,0,3:0:0:0:
117,52,43873,1,8,0:0:0:0:
75,150,44302,2,0,P|67:200|62:256,1,105,0|0,3:0|3:0,0:0:0:0:
25,291,44945,2,0,P|60:341|162:349,1,157.5,10|8,0:0|0:0,0:0:0:0:
223,278,46016,1,0,3:0:0:0:
124,246,46445,1,0,0:0:0:0:
202,176,46873,6,0,P|271:183|306:216,1,105,4|0,3:1|3:0,0:0:0:0:
318,252,47516,2,0,P|364:257|431:261,1,105,8|0,0:0|0:0,0:0:0:0:
469,284,48159,2,0,P|519:220|474:91,1,210,8|8,0:0|0:0,0:0:0:0:
404,40,49445,2,0,P|388:65|432:189,1,157.5,0|8,3:0|0:0,0:0:0:0:
377,276,50516,1,0,0:0:0:0:
377,276,50730,2,0,L|255:282,1,105,8|0,0:0|3:0,0:0:0:0:
175,239,51588,1,8,0:0:0:0:
257,174,52016,6,0,P|265:125|224:64,1,105,0|0,3:0|3:0,0:0:0:0:
195,49,52659,2,0,P|145:49|92:100,1,105,8|0,0:0|0:0,0:0:0:0:
83,130,53302,2,0,B|104:190|62:244|62:244|105:263|115:311,1,210,8|8,0:0|0:0,0:0:0:0:
204,366,54588,2,0,L|211:204,1,157.5,0|8,3:0|0:0,0:0:0:0:
134,136,55659,1,0,0:0:0:0:
134,136,55873,2,0,P|91:143|28:157,2,105,8|0|8,0:0|3:0|0:0,0:0:0:0:
229,91,57159,86,0,P|272:84|335:70,1,105,4|2,3:1|3:2,0:0:0:0:
380,49,57802,1,8,0:0:0:0:
380,49,58016,2,0,L|374:113,1,52.5,0|2,0:0|0:0,0:0:0:0:
396,149,58445,2,0,P|353:156|290:170,2,105,8|0|8,0:0|3:0|0:0,0:0:0:0:
483,90,59730,2,0,P|500:137|483:194,1,105,0|2,3:0|3:2,0:0:0:0:
460,234,60373,2,0,P|404:235|333:240,1,105,8|2,0:0|0:0,0:0:0:0:
303,225,61016,2,0,L|313:337,2,105,8|0|8,0:0|3:0|0:0,0:0:0:0:
204,188,62302,6,0,P|235:143|289:124,1,105,0|2,3:0|3:2,0:0:0:0:
332,126,62945,1,8,0:0:0:0:
332,126,63159,2,0,L|328:67,1,52.5,0|2,0:0|0:0,0:0:0:0:
296,31,63588,2,0,L|405:35,2,105,8|0|8,0:0|3:0|0:0,0:0:0:0:
189,43,64873,2,0,P|162:88|173:150,1,105,0|2,3:0|3:2,0:0:0:0:
195,183,65516,2,0,P|199:234|172:278,1,105,8|2,0:0|0:0,0:0:0:0:
121,293,66159,1,8,0:0:0:0:
20,263,66588,1,0,3:0:0:0:
98,190,67016,1,8,0:0:0:0:
121,293,67445,70,0,P|109:332|46:370,2,105,0|2|2,3:0|3:2|3:2,0:0:0:0:
98,190,68730,2,0,P|110:151|173:113,2,105,0|2|2,3:0|3:2|3:2,0:0:0:0:
121,293,70016,2,0,P|159:317|219:311,2,105,0|2|2,3:0|3:2|3:2,0:0:0:0:
98,190,71302,2,0,P|60:166|0:172,2,105,0|2|8,3:0|3:2|0:0,0:0:0:0:
108,241,72373,1,8,0:0:0:0:
121,293,72588,22,0,B|192:326|192:326|287:315,1,157.5,4|8,3:1|0:0,0:0:0:0:
420,367,73873,2,0,P|433:308|408:247,1,105,8|0,0:0|3:0,0:0:0:0:
362,178,74730,2,0,L|414:172,1,52.5,10|0,0:0|0:0,0:0:0:0:
466,181,75159,2,0,P|472:95|410:31,1,157.5,0|8,3:0|0:0,0:0:0:0:
278,33,76445,2,0,P|268:84|260:141,1,105,8|0,0:0|3:0,0:0:0:0:
168,186,77302,2,0,L|173:249,1,52.5,10|0,0:0|0:0,0:0:0:0:
143,282,77730,6,0,L|300:291,1,157.5,0|8,3:0|0:0,0:0:0:0:
371,214,78802,1,0,0:0:0:0:
371,214,79016,2,0,P|332:188|264:192,1,105,0|0,3:0|3:0,0:0:0:0:
168,186,79873,2,0,L|163:133,1,52.5,10|0,0:0|0:0,0:0:0:0:
141,85,80302,2,0,P|192:79|248:69,1,105,0|0,3:0|3:0,0:0:0:0:
294,87,80945,1,8,0:0:0:0:
401,95,81373,1,0,0:0:0:0:
431,52,81588,70,2,B|431:99|439:148|439:148|433:158|433:158|438:168|438:168|437:184|434:204|434:204|439:214|439:214|433:223|433:223|435:251|438:276,1,210,10|2,3:0|3:0,0:1:0:0:
360,327,82873,54,0,B|334:254|334:254|341:159,1,157.5,4|8,3:1|0:0,0:0:0:0:
181,150,84159,2,0,L|172:266,1,105,8|0,0:0|3:0,0:0:0:0:
78,300,85016,2,0,P|69:255|74:228,1,52.5,10|0,0:0|0:0,0:0:0:0:
22,224,85445,2,0,P|12:182|97:89,1,157.5,0|8,3:0|0:0,0:0:0:0:
214,164,86730,2,0,L|343:160,1,105,8|0,0:0|3:0,0:0:0:0:
406,101,87588,1,8,0:0:0:0:
500,146,88016,86,0,P|517:196|464:297,2,157.5,0|8|8,3:0|0:0|0:0,0:0:0:0:
406,101,89730,1,0,3:0:0:0:
414,205,90159,1,8,0:0:0:0:
500,146,90588,2,0,P|512:99|491:39,1,105,0|0,3:0|3:0,0:0:0:0:
455,13,91230,2,0,L|297:24,1,157.5,8|8,0:0|0:0,0:0:0:0:
218,92,92302,1,0,3:0:0:0:
126,41,92730,1,0,0:0:0:0:
50,114,93159,6,0,P|54:166|60:218,1,105,4|0,3:1|3:0,0:0:0:0:
91,261,93802,2,0,P|136:239|208:245,1,105,8|0,0:0|0:0,0:0:0:0:
231,271,94445,2,0,P|290:293|409:216,1,210,8|8,0:0|0:0,0:0:0:0:
498,170,95730,2,0,B|433:126|433:126|342:139,1,157.5,0|8,3:0|0:0,0:0:0:0:
266,194,96802,1,0,0:0:0:0:
266,194,97016,2,0,P|211:190|145:184,2,105,8|0|8,0:0|3:0|0:0,0:0:0:0:
364,236,98302,6,0,P|373:185|355:137,1,105,0|0,3:0|3:0,0:0:0:0:
312,104,98945,2,0,P|261:91|211:106,1,105,8|0,0:0|0:0,0:0:0:0:
184,151,99588,2,0,B|125:177|76:130|76:130|79:189|28:213,1,210,8|8,0:0|0:0,0:0:0:0:
133,249,100873,2,0,P|195:258|279:193,1,157.5,0|8,3:0|0:0,0:0:0:0:
249,104,101945,1,0,0:0:0:0:
249,104,102159,2,0,L|254:-3,2,105,8|0|8,0:0|3:0|0:0,0:0:0:0:
159,159,103445,86,0,L|163:263,1,105,0|2,3:0|3:2,0:0:0:0:
170,316,104088,1,8,0:0:0:0:
170,316,104302,2,0,L|103:310,1,52.5,0|2,0:0|0:0,0:0:0:0:
73,283,104730,2,0,P|50:325|55:383,2,105,8|0|8,0:0|3:0|0:0,0:0:0:0:
153,214,106016,2,0,P|176:172|171:114,1,105,0|2,3:0|3:2,0:0:0:0:
141,73,106659,2,0,L|254:64,1,105,8|2,0:0|0:0,0:0:0:0:
291,39,107302,2,0,P|287:97|283:161,2,105,0|0|8,3:0|3:0|0:0,0:0:0:0:
379,95,108588,6,0,P|375:147|372:199,1,105,0|2,3:0|3:2,0:0:0:0:
358,250,109230,1,8,0:0:0:0:
358,250,109445,2,0,L|417:249,1,52.5,0|2,0:0|0:0,0:0:0:0:
455,275,109873,2,0,P|485:236|474:167,2,105,8|0|8,0:0|3:0|0:0,0:0:0:0:
382,350,111159,1,0,3:0:0:0:
358,250,111588,1,2,3:2:0:0:
358,250,111802,2,0,P|314:246|243:239,1,105,8|2,0:0|0:0,0:0:0:0:
204,220,112445,2,0,P|208:278|212:342,2,105,8|0|8,0:0|3:0|0:0,0:0:0:0:
118,158,113730,86,0,P|106:118|132:56,2,105,0|2|2,3:0|3:2|3:2,0:0:0:0:
204,220,115016,2,0,P|216:260|190:322,2,105,0|2|2,3:0|3:2|3:2,0:0:0:0:
118,158,116302,2,0,P|66:163|28:198,2,105,0|2|2,3:0|3:2|3:2,0:0:0:0:
204,220,117588,2,0,P|255:214|293:179,2,105,0|2|8,3:0|3:2|0:0,0:0:0:0:
160,190,118659,1,8,0:0:0:0:
118,158,118873,1,2,3:2:0:0:
118,158,129159,102,0,P|199:153|261:216,2,157.5,2|0|2,0:0|0:0|0:0,0:0:0:0:
55,242,130873,1,0,3:0:0:0:
158,260,131302,1,2,3:2:0:0:
118,158,131730,2,0,B|94:86|94:86|108:-1,2,157.5,2|0|2,0:0|0:0|0:0,0:0:0:0:
158,260,133445,1,0,3:0:0:0:
248,207,133873,1,2,3:2:0:0:
303,296,134302,6,0,P|367:311|444:253,2,157.5,2|0|2,0:0|0:0|0:0,0:0:0:0:
248,207,136016,1,0,3:0:0:0:
345,168,136445,1,2,3:2:0:0:
273,91,136873,2,0,B|346:64|346:64|429:101,2,157.5,2|0|2,0:0|0:0|0:0,0:0:0:0:
169,70,138588,1,0,3:0:0:0:
118,158,139016,1,8,0:0:0:0:
88,201,139230,1,8,0:0:0:0:
55,242,139445,54,0,B|99:270|99:270|173:261,1,105,6|10,1:2|0:0,0:0:0:0:
252,291,140302,1,10,0:0:0:0:
327,218,140730,2,0,B|283:190|283:190|209:199,1,105,0|8,3:0|0:0,0:0:0:0:
125,204,141588,2,0,L|130:152,1,52.5,10|0,0:0|0:0,0:0:0:0:
108,104,142016,6,0,P|163:98|217:88,1,105,2|10,1:2|0:0,0:0:0:0:
288,17,142873,1,10,0:0:0:0:
391,36,143302,2,0,P|416:94|405:146,1,105,0|10,3:0|0:0,0:0:0:0:
331,203,144159,2,0,L|257:194,1,52.5,10|2,0:0|0:0,0:0:0:0:
235,166,144588,5,2,1:2:0:0:
201,265,145016,2,0,P|206:296|211:336,1,52.5,10|0,0:0|0:0,0:0:0:0:
240,358,145445,2,0,L|314:349,1,52.5,10|0,0:0|0:0,0:0:0:0:
342,364,145873,2,0,P|347:309|355:247,1,105,0|10,3:0|0:0,0:0:0:0:
451,220,146731,1,10,0:0:0:0:
417,120,147159,86,0,P|359:129|302:142,1,105,2|10,1:2|0:0,0:0:0:0:
215,99,148016,2,0,L|149:85,1,52.5,10|0,0:0|0:0,0:0:0:0:
118,62,148445,54,2,B|119:144|119:144|114:156|114:156|119:168|119:168|111:203|111:203|116:213|116:213|111:224|111:224|112:275,1,210,10|2,3:0|3:0,0:1:0:0:
189,336,149730,70,0,P|214:291|204:222,1,105,6|10,1:2|0:0,0:0:0:0:
134,166,150588,1,10,0:0:0:0:
35,201,151016,2,0,P|10:246|20:315,1,105,0|10,3:0|0:0,0:0:0:0:
90,371,151873,2,0,P|126:363|164:364,1,52.5,10|0,0:0|0:0,0:0:0:0:
189,336,152302,6,0,L|185:219,1,105,2|10,1:2|0:0,0:0:0:0:
281,188,153159,1,10,0:0:0:0:
197,123,153588,2,0,P|232:92|306:86,1,105,0|10,3:0|0:0,0:0:0:0:
375,144,154445,1,10,0:0:0:0:
474,112,154873,86,0,L|478:178,1,52.5,2|0,1:2|0:0,0:0:0:0:
488,215,155302,2,0,L|425:240,1,52.5,10|0,0:0|0:0,0:0:0:0:
396,264,155730,2,0,L|352:213,1,52.5,10|0,0:0|0:0,0:0:0:0:
319,194,156159,2,0,L|323:89,2,105,0|10|10,3:0|0:0|0:0,0:0:0:0:
241,267,157445,6,0,L|246:392,2,105,2|8|10,1:2|0:0|0:0,0:0:0:0:
150,207,158730,1,2,3:2:0:0:
174,104,159159,1,10,0:0:0:0:
279,98,159588,1,8,0:0:0:0:
319,194,160016,1,0,3:0:0:0:
