osu file format v14

[General]
AudioFilename: mouse.mp3
AudioLeadIn: 0
PreviewTime: 72159
Countdown: 0
SampleSet: Soft
StackLeniency: 0.3
Mode: 0
LetterboxInBreaks: 0
WidescreenStoryboard: 1

[Editor]
Bookmarks: 57052,139338
DistanceSpacing: 1.6
BeatDivisor: 4
GridSize: 8
TimelineZoom: 1

[Metadata]
Title:Mouth to Mouth
TitleUnicode:マウストゥーマウス
Artist:senya
ArtistUnicode:senya
Creator:Dailycare
Version:Lunatic
Source:東方星蓮船 ~ Undefined Fantastic Object.
Tags:Satellite comiket87 森永真由美 Morinaga Mayumi 幽閉サテライト かませ虎 kamase tora Autobahn Dagger-Gazel
BeatmapID:924284
BeatmapSetID:428233

[Difficulty]
HPDrainRate:6
CircleSize:4
OverallDifficulty:8.3
ApproachRate:8.3
SliderMultiplier:1.69
SliderTickRate:1

[Events]
//Background and Video events
0,0,"BG.png",0,0
//Break Periods
2,119073,128455
//Storyboard Layer 0 (Background)
//Storyboard Layer 1 (Fail)
//Storyboard Layer 2 (Pass)
//Storyboard Layer 3 (Foreground)
//Storyboard Sound Samples

[TimingPoints]
588,428.571428571429,6,2,1,75,1,0
26302,-117.647058823529,6,2,1,75,0,0
47302,-117.647058823529,6,2,1,60,0,0
57159,-105.263157894737,6,2,1,75,0,0
67445,-133.333333333333,6,2,1,60,0,0
72588,-105.263157894737,6,2,1,85,0,0
76766,-105.263157894737,6,2,1,20,0,0
76873,-105.263157894737,6,2,1,85,0,0
81588,-200,6,2,1,85,0,0
82016,-133.333333333333,6,2,1,85,0,0
82230,-133.333333333333,6,2,1,50,0,0
82445,-200,6,2,1,85,0,0
82766,-200,6,2,1,20,0,0
82873,-105.263157894737,6,2,1,85,0,0
93159,-117.647058823529,6,2,1,60,0,0
103445,-105.263157894737,6,2,1,75,0,0
113730,-133.333333333333,6,2,1,60,0,0
134302,-133.333333333333,6,2,1,65,0,0
135588,-133.333333333333,6,2,1,70,0,0
136873,-133.333333333333,6,2,1,75,0,0
139445,-83.3333333333333,6,2,1,85,0,1
148445,-181.818181818182,6,2,1,85,0,1
148873,-125,6,2,1,85,0,1
149088,-125,6,2,1,50,0,1
149302,-181.818181818182,6,2,1,85,0,1
149623,-181.818181818182,6,2,1,20,0,1
149730,-83.3333333333333,6,2,1,85,0,1
160016,-83.3333333333333,6,2,1,85,0,0

[Colours]
Combo1 : 77,140,247
Combo2 : 170,170,170
Combo3 : 65,65,65
Combo4 : 175,111,206
Combo5 : 190,86,117
Combo6 : 129,149,231
Combo7 : 175,5,150
Combo8 : 200,51,78

[HitObjects]
214,285,25873,5,8,0:0:0:0:
160,24,26088,1,8,0:0:0:0:
278,206,26302,22,0,P|208:197|123:191,1,143.650002739906,4|0,3:1|3:0,0:0:0:0:
350,143,26945,1,8,0:0:0:0:
253,39,27159,2,0,P|258:71|262:112,1,71.8250013699532
369,236,27588,5,8,0:0:0:0:
423,76,27802,1,0,0:0:0:0:
261,110,28016,1,0,3:0:0:0:
441,173,28230,1,0,0:0:0:0:
278,206,28445,1,8,0:0:0:0:
334,48,28659,1,0,0:0:0:0:
350,143,28873,6,0,P|335:210|321:291,1,143.650002739906,0|0,3:0|3:0,0:0:0:0:
212,350,29516,1,8,0:0:0:0:
115,213,29730,2,0,P|154:219|207:232,1,71.8250013699532
41,163,30159,86,0,P|27:198|32:250,1,71.8250013699532,8|0,0:0|0:0,0:0:0:0:
264,176,30588,2,0,P|263:140|249:107,1,71.8250013699532,0|0,3:0|0:0,0:0:0:0:
93,0,31016,1,8,0:0:0:0:
124,125,31230,1,0,0:0:0:0:
215,27,31445,6,0,P|289:32|333:84,1,143.650002739906,0|0,3:0|3:0,0:0:0:0:
395,245,32088,1,8,0:0:0:0:
490,131,32302,2,0,P|452:138|414:150,1,71.8250013699532
326,324,32730,6,0,P|317:261|299:167,1,143.650002739906,8|0,0:0|3:0,0:0:0:0:
395,245,33373,1,0,0:0:0:0:
248,343,33588,2,0,P|212:335|177:331,1,71.8250013699532,8|0,0:0|0:0,0:0:0:0:
432,327,34016,86,0,P|473:289|462:194,1,143.650002739906,0|0,3:0|3:0,0:0:0:0:
352,104,34659,1,8,0:0:0:0:
352,104,34873,2,0,L|354:180,1,71.8250013699532
160,280,35302,6,0,L|164:136,1,143.650002739906,8|0,0:0|3:0,0:0:0:0:
163,136,36159,1,8,0:0:0:0:
160,280,36373,1,0,0:0:0:0:
21,115,36588,6,0,P|89:126|174:137,1,143.650002739906,4|0,3:1|3:0,0:0:0:0:
160,280,37230,1,8,0:0:0:0:
57,211,37445,2,0,P|60:246|68:295,1,71.8250013699532
209,369,37873,85,8,0:0:0:0:
211,198,38088,1,0,0:0:0:0:
65,282,38302,1,0,3:0:0:0:
254,285,38517,1,0,0:0:0:0:
110,363,38730,1,8,0:0:0:0:
114,188,38945,1,0,0:0:0:0:
346,353,39159,6,0,P|356:283|370:203,1,143.650002739906,0|0,3:0|3:0,0:0:0:0:
345,34,39802,1,8,0:0:0:0:
277,142,40016,2,0,P|316:130|359:123,1,71.8250013699532
191,133,40445,6,0,P|177:175|183:210,1,71.8250013699532,8|0,0:0|0:0,0:0:0:0:
428,146,40873,2,0,P|431:111|418:78,1,71.8250013699532,0|0,3:0|0:0,0:0:0:0:
238,60,41302,1,8,0:0:0:0:
278,234,41516,1,0,0:0:0:0:
346,124,41730,85,0,3:0:0:0:
121,44,41945,1,0,0:0:0:0:
212,184,42159,1,0,3:0:0:0:
27,243,42373,5,8,0:0:0:0:
144,132,42588,1,0,0:0:0:0:
71,335,42802,1,0,0:0:0:0:
5,156,43016,6,0,P|45:157|100:184,1,71.8250013699532,8|0,0:0|0:0,0:0:0:0:
209,76,43445,2,0,P|225:109|225:157,1,71.8250013699532,0|0,3:0|0:0,0:0:0:0:
327,328,43873,2,0,P|329:292|345:260,1,71.8250013699532,8|0,0:0|0:0,0:0:0:0:
424,225,44302,85,0,3:0:0:0:
247,341,44516,2,0,L|233:257,1,71.8250013699532,2|0,0:0|3:0,0:0:0:0:
285,202,44945,1,10,0:0:0:0:
454,371,45159,2,0,L|473:276,1,71.8250013699532,0|2,0:0|0:0,0:0:0:0:
319,113,45588,5,8,0:0:0:0:
350,272,45802,1,2,0:0:0:0:
473,168,46016,1,0,3:0:0:0:
285,202,46230,5,2,0:0:0:0:
447,257,46445,1,0,0:0:0:0:
411,93,46659,1,2,0:0:0:0:
202,166,46873,86,0,P|135:176|62:128,1,143.650002739906,4|0,3:1|3:0,0:0:0:0:
213,255,47516,1,8,0:0:0:0:
132,371,47730,2,0,P|135:332|137:283,1,71.8250013699532
71,140,48159,1,8,0:0:0:0:
52,309,48373,1,0,0:0:0:0:
139,213,48588,2,0,P|99:220|43:234,1,71.8250013699532,0|0,3:0|0:0,0:0:0:0:
201,90,49016,2,0,P|217:123|211:160,1,71.8250013699532,8|0,0:0|0:0,0:0:0:0:
125,5,49445,6,0,P|200:16|294:36,1,143.650002739906,0|0,3:0|3:0,0:0:0:0:
398,153,50088,1,8,0:0:0:0:
480,107,50302,2,0,P|492:75|477:17,1,71.8250013699532
339,0,50730,1,8,0:0:0:0:
398,153,50945,1,0,0:0:0:0:
408,66,51159,2,0,L|332:85,1,71.8250013699532,0|0,3:0|0:0,0:0:0:0:
174,201,51588,2,0,P|216:200|253:218,1,71.8250013699532,8|0,0:0|0:0,0:0:0:0:
121,326,52016,6,0,P|116:286|109:248,1,71.8250013699532,0|0,3:0|0:0,0:0:0:0:
317,168,52445,2,0,P|329:201|326:236,1,71.8250013699532,0|8,3:0|0:0,0:0:0:0:
199,283,52873,1,0,0:0:0:0:
243,126,53088,1,0,0:0:0:0:
423,279,53302,2,0,P|351:289|281:301,1,143.650002739906,8|0,0:0|3:0,0:0:0:0:
414,192,53945,1,0,0:0:0:0:
497,328,54159,2,0,P|511:292|506:248,1,71.8250013699532,8|0,0:0|0:0,0:0:0:0:
327,155,54588,86,0,P|401:165|466:97,1,143.650002739906,0|0,3:0|3:0,0:0:0:0:
190,96,55230,1,8,0:0:0:0:
284,5,55445,2,0,P|283:47|274:92,1,71.8250013699532
129,217,55873,2,0,P|113:184|128:131,1,71.8250013699532,8|0,0:0|0:0,0:0:0:0:
278,251,56302,2,0,P|236:255|182:265,1,71.8250013699532,0|0,3:0|0:0,0:0:0:0:
368,234,56730,2,0,P|371:269|355:301,1,71.8250013699532,8|0,0:0|0:0,0:0:0:0:
309,159,57159,6,0,P|356:136|411:151,1,80.2749978564263,4|2,3:1|0:0,0:0:0:0:
382,137,57480,1,0,0:0:0:0:
382,137,57588,1,2,3:2:0:0:
490,227,57802,1,8,0:0:0:0:
455,81,58016,2,0,L|449:37,2,40.1374989282131,0|0|2,0:0|0:0|0:0,0:0:0:0:
368,234,58445,1,8,0:0:0:0:
266,86,58659,1,2,0:0:0:0:
266,86,58766,1,0,0:0:0:0:
266,86,58873,2,0,L|175:77,1,80.2749978564263,0|2,3:0|0:0,0:0:0:0:
67,184,59302,1,8,0:0:0:0:
109,20,59516,1,2,0:0:0:0:
90,268,59730,6,0,P|52:271|-1:243,1,80.2749978564263,0|2,3:0|0:0,0:0:0:0:
14,256,60052,1,0,0:0:0:0:
14,256,60159,1,2,3:2:0:0:
183,198,60373,1,8,0:0:0:0:
34,103,60588,2,0,L|26:37,2,40.1374989282131,0|0|2,0:0|0:0|0:0,0:0:0:0:
90,268,61016,1,8,0:0:0:0:
236,125,61230,1,2,0:0:0:0:
236,125,61338,1,0,0:0:0:0:
236,125,61445,2,0,P|192:115|144:110,1,80.2749978564263,0|2,3:0|0:0,0:0:0:0:
186,314,61873,1,8,0:0:0:0:
276,206,62088,1,2,0:0:0:0:
390,360,62302,86,0,P|424:345|470:346,1,80.2749978564263,0|2,3:0|0:0,0:0:0:0:
467,346,62623,1,0,0:0:0:0:
467,346,62730,1,2,3:2:0:0:
355,158,62945,1,8,0:0:0:0:
311,301,63159,2,0,L|268:293,2,40.1374989282131,0|0|2,0:0|0:0|0:0,0:0:0:0:
424,250,63588,1,8,0:0:0:0:
252,179,63802,1,2,0:0:0:0:
252,179,63909,1,0,0:0:0:0:
252,179,64016,2,0,P|246:131|236:75,1,80.2749978564263,0|2,3:0|0:0,0:0:0:0:
404,50,64445,1,8,0:0:0:0:
355,158,64659,1,2,0:0:0:0:
266,15,64873,6,0,P|235:6|182:32,1,80.2749978564263,0|2,3:0|0:0,0:0:0:0:
191,23,65195,1,0,0:0:0:0:
191,23,65302,1,2,3:2:0:0:
165,225,65516,1,8,0:0:0:0:
60,120,65730,2,0,L|16:110,2,40.1374989282131,0|0|2,0:0|0:0|0:0,0:0:0:0:
240,99,66159,1,8,0:0:0:0:
165,225,66373,1,2,0:0:0:0:
165,225,66480,1,0,0:0:0:0:
165,225,66588,2,0,P|160:183|146:122,1,80.2749978564263,0|2,3:0|0:0,0:0:0:0:
346,103,67016,1,8,0:0:0:0:
258,254,67230,1,2,0:0:0:0:
208,81,67445,70,0,L|194:4,2,63.3750024175645,0|0|2,3:0|0:0|3:2,0:0:0:0:
320,174,68088,2,0,L|308:236,2,63.3750024175645,0|0|2,3:0|3:0|0:0,0:0:0:0:
175,323,68730,5,0,3:0:0:0:
178,244,68945,1,0,0:0:0:0:
240,286,69159,1,2,3:2:0:0:
151,283,69373,1,0,0:0:0:0:
221,249,69588,1,0,3:0:0:0:
217,322,69802,1,2,0:0:0:0:
166,155,70016,102,0,L|80:165,2,63.3750024175645,0|0|2,3:0|0:0|3:2,0:0:0:0:
260,87,70659,2,0,L|294:7,2,63.3750024175645,0|0|2,0:0|3:0|0:0,0:0:0:0:
264,204,71302,5,0,3:0:0:0:
348,320,71516,1,0,0:0:0:0:
210,277,71730,1,2,3:2:0:0:
346,234,71945,1,0,0:0:0:0:
262,348,72159,101,8,0:0:0:0:
250,36,72373,1,8,0:0:0:0:
419,203,72588,22,0,P|341:190|240:177,1,160.549995712853,4|0,3:1|3:0,0:0:0:0:
103,77,73230,1,8,0:0:0:0:
143,228,73445,2,0,P|164:191|156:130,1,80.2749978564263,2|0,0:0|0:0,0:0:0:0:
22,290,73873,5,8,0:0:0:0:
72,129,74088,1,0,0:0:0:0:
189,251,74302,1,0,3:0:0:0:
1,193,74516,5,0,0:0:0:0:
165,154,74731,1,10,0:0:0:0:
115,317,74945,1,0,0:0:0:0:
72,129,75159,86,0,P|144:119|256:97,1,160.549995712853,0|0,3:0|3:0,0:0:0:0:
374,37,75802,1,8,0:0:0:0:
339,225,76016,2,0,P|300:216|258:211,1,80.2749978564263,2|0,0:0|0:0,0:0:0:0:
392,143,76445,6,0,P|450:134|499:167,1,120.412496784639,8|0,0:0|0:0,0:0:0:0:
511,163,76873,2,0,P|505:207|500:248,1,80.2749978564263,0|0,3:0|0:0,0:0:0:0:
365,348,77302,1,10,0:0:0:0:
260,211,77516,1,0,0:0:0:0:
111,324,77730,6,0,P|188:354|267:299,1,160.549995712853,0|0,3:0|3:0,0:0:0:0:
344,267,78373,1,8,0:0:0:0:
267,131,78588,2,0,P|262:175|258:239,1,80.2749978564263,2|0,0:0|0:0,0:0:0:0:
111,324,79016,86,0,P|107:278|101:216,1,80.2749978564263,0|0,3:0|0:0,0:0:0:0:
13,373,79445,2,0,P|9:315|-1:201,1,160.549995712853,0|10,3:0|0:0,0:0:0:0:
160,67,80088,1,0,0:0:0:0:
160,67,80195,1,0,0:0:0:0:
160,67,80302,6,0,P|180:107|165:156,1,80.2749978564263,0|0,3:0|0:0,0:0:0:0:
52,290,80730,1,0,3:0:0:0:
69,126,80945,1,8,0:0:0:0:
231,265,81159,2,0,P|187:252|144:245,1,80.2749978564263,2|0,0:0|0:0,0:0:0:0:
9,136,81588,70,2,P|56:124|87:133,1,63.375,10|0,3:0|0:0,0:1:0:0:
199,176,82016,6,0,L|151:174,1,31.6875012087822,2|0,3:1|0:0,0:1:0:0:
70,127,82230,2,0,L|118:125,1,31.6875012087822,6|0,3:1|0:0,0:1:0:0:
239,104,82445,102,2,P|191:92|161:101,1,63.375,2|2,3:0|0:1,0:1:0:0:
102,126,82873,22,0,P|177:116|271:109,1,160.549995712853,4|0,3:1|3:0,0:0:0:0:
383,222,83516,1,8,0:0:0:0:
276,280,83730,2,0,P|285:229|289:186,1,80.2749978564263
337,54,84159,6,0,P|356:100|347:143,1,80.2749978564263,8|0,0:0|0:0,0:0:0:0:
456,245,84588,2,0,P|406:238|373:209,1,80.2749978564263,0|0,3:0|0:0,0:0:0:0:
261,109,85016,1,10,0:0:0:0:
437,41,85230,1,0,0:0:0:0:
456,245,85445,6,0,P|379:231|297:222,1,160.549995712853,0|0,3:0|3:0,0:0:0:0:
337,54,86088,1,8,0:0:0:0:
419,145,86302,2,0,P|461:147|508:115,1,80.2749978564263,2|0,0:0|0:0,0:0:0:0:
240,2,86730,86,0,P|233:45|227:94,1,80.2749978564263,8|0,0:0|0:0,0:0:0:0:
288,307,87159,2,0,P|324:256|301:159,1,160.549995712853,0|8,3:0|0:0,0:0:0:0:
131,99,87802,1,0,0:0:0:0:
228,229,88016,5,0,3:0:0:0:
4,274,88230,1,0,0:0:0:0:
125,102,88445,1,0,3:0:0:0:
130,204,88659,5,8,0:0:0:0:
44,28,88873,1,2,0:0:0:0:
236,104,89088,1,0,0:0:0:0:
52,255,89302,86,0,P|43:217|43:176,1,80.2749978564263,8|0,0:0|0:0,0:0:0:0:
144,43,89730,2,0,P|152:82|152:122,1,80.2749978564263,0|0,3:0|0:0,0:0:0:0:
225,232,90159,1,8,0:0:0:0:
353,91,90373,1,0,0:0:0:0:
244,143,90588,5,0,3:0:0:0:
294,290,90802,2,0,P|313:254|300:185,1,80.2749978564263,2|0,0:0|3:0,0:0:0:0:
201,318,91230,1,8,0:0:0:0:
152,175,91445,2,0,P|133:211|146:280,1,80.2749978564263,2|0,0:0|0:0,0:0:0:0:
270,383,91873,5,8,0:0:0:0:
316,195,92088,1,2,0:0:0:0:
132,249,92302,1,0,3:0:0:0:
343,306,92516,1,2,0:0:0:0:
208,171,92730,1,0,0:0:0:0:
156,355,92945,1,2,0:0:0:0:
393,235,93159,86,0,P|404:158|417:76,1,143.650002739906,4|0,3:1|3:0,0:0:0:0:
237,148,93802,1,8,0:0:0:0:
314,7,94016,2,0,P|321:43|323:83,1,71.8250013699532
166,220,94445,1,8,0:0:0:0:
205,51,94659,1,0,0:0:0:0:
306,164,94873,2,0,P|271:155|222:144,1,71.8250013699532,0|0,3:0|0:0,0:0:0:0:
346,307,95302,2,0,P|362:267|346:216,1,71.8250013699532,8|0,0:0|0:0,0:0:0:0:
129,288,95730,6,0,P|206:273|296:260,1,143.650002739906,0|0,3:0|3:0,0:0:0:0:
146,126,96373,1,8,0:0:0:0:
246,100,96588,2,0,P|251:141|234:178,1,71.8250013699532
88,206,97016,1,8,0:0:0:0:
121,28,97230,1,0,0:0:0:0:
146,126,97445,2,0,P|116:119|55:110,1,71.8250013699532,0|0,3:0|0:0,0:0:0:0:
6,314,97873,2,0,P|36:307|97:298,1,71.8250013699532,8|0,0:0|0:0,0:0:0:0:
12,160,98302,6,0,P|-1:195|11:249,1,71.8250013699532,0|0,3:0|0:0,0:0:0:0:
144,380,98730,2,0,P|149:346|163:289,1,71.8250013699532,0|8,3:0|0:0,0:0:0:0:
295,191,99159,1,0,0:0:0:0:
146,126,99373,1,0,0:0:0:0:
232,257,99588,2,0,P|316:239|389:231,1,143.650002739906,8|0,0:0|3:0,0:0:0:0:
454,171,100230,1,0,0:0:0:0:
396,34,100445,2,0,P|378:60|390:125,1,71.8250013699532,8|0,0:0|0:0,0:0:0:0:
506,254,100873,86,0,P|461:227|365:236,1,143.650002739906,0|0,3:0|3:0,0:0:0:0:
256,325,101516,1,8,0:0:0:0:
260,152,101730,2,0,P|269:187|275:230,1,71.8250013699532
90,254,102159,2,0,L|-11:267,1,71.8250013699532,8|0,0:0|0:0,0:0:0:0:
153,382,102588,2,0,P|168:356|166:313,1,71.8250013699532,0|0,3:0|0:0,0:0:0:0:
274,222,103016,2,0,P|266:256|278:290,1,71.8250013699532,8|0,0:0|0:0,0:0:0:0:
443,267,103445,6,0,P|402:257|344:251,1,80.2749978564263,0|2,3:0|0:0,0:0:0:0:
365,253,103766,1,0,0:0:0:0:
365,253,103873,1,2,3:2:0:0:
191,185,104088,1,8,0:0:0:0:
278,290,104302,2,0,L|272:329,2,40.1374989282131,0|0|2,0:0|0:0|0:0,0:0:0:0:
332,105,104730,1,8,0:0:0:0:
191,185,104945,1,2,0:0:0:0:
191,185,105052,1,0,0:0:0:0:
191,185,105159,2,0,P|228:177|280:168,1,80.2749978564263,0|2,3:0|0:0,0:0:0:0:
421,108,105588,1,8,0:0:0:0:
260,51,105802,1,2,0:0:0:0:
358,259,106016,6,0,P|377:218|373:180,1,80.2749978564263,0|2,3:0|0:0,0:0:0:0:
374,183,106338,1,0,0:0:0:0:
374,183,106445,1,2,3:2:0:0:
270,289,106659,1,8,0:0:0:0:
431,320,106873,2,0,L|500:333,2,40.1374989282131,0|0|2,0:0|0:0|0:0,0:0:0:0:
288,202,107302,1,0,3:0:0:0:
421,108,107516,1,2,0:0:0:0:
421,108,107623,1,0,0:0:0:0:
421,108,107730,2,0,P|373:102|320:99,1,80.2749978564263,0|2,3:0|0:0,0:0:0:0:
204,234,108159,1,8,0:0:0:0:
129,42,108373,1,2,0:0:0:0:
259,120,108588,86,0,L|168:130,1,80.2749978564263,0|2,3:0|0:0,0:0:0:0:
179,128,108909,1,0,0:0:0:0:
179,128,109016,1,2,3:2:0:0:
117,293,109230,1,8,0:0:0:0:
305,245,109445,2,0,L|351:253,2,40.1374989282131,0|0|2,0:0|0:0|0:0,0:0:0:0:
102,195,109873,1,8,0:0:0:0:
202,373,110088,1,2,0:0:0:0:
202,373,110195,1,0,0:0:0:0:
202,373,110302,2,0,P|207:331|216:280,1,80.2749978564263,0|2,3:0|0:0,0:0:0:0:
179,128,110730,1,8,0:0:0:0:
305,245,110945,1,2,0:0:0:0:
114,329,111159,6,0,P|107:283|86:161,1,160.549995712853,0|2,3:0|3:2,0:0:0:0:
200,29,111802,1,8,0:0:0:0:
257,146,112016,2,0,P|223:137|167:126,1,80.2749978564263,0|2,0:0|0:0,0:0:0:0:
30,86,112445,1,8,0:0:0:0:
79,247,112659,1,2,0:0:0:0:
79,247,112766,1,0,0:0:0:0:
79,247,112873,2,0,P|92:208|81:155,1,80.2749978564263,0|2,3:0|0:0,0:0:0:0:
0,310,113302,1,8,0:0:0:0:
185,237,113516,1,2,0:0:0:0:
87,169,113730,86,0,L|76:106,2,63.3750024175645,0|0|2,3:0|0:0|3:2,0:0:0:0:
204,315,114373,2,0,L|193:378,2,63.3750024175645,0|0|2,0:0|3:0|0:0,0:0:0:0:
372,237,115016,101,0,3:0:0:0:
293,214,115230,1,0,0:0:0:0:
313,291,115445,1,2,3:2:0:0:
341,202,115659,1,0,0:0:0:0:
282,254,115873,1,0,3:0:0:0:
358,280,116088,1,2,0:0:0:0:
223,161,116302,6,0,L|150:164,2,63.3750024175645,0|0|2,3:0|0:0|3:2,0:0:0:0:
392,118,116945,2,0,L|465:121,2,63.3750024175645,0|0|2,0:0|3:0|0:0,0:0:0:0:
239,61,117588,101,0,3:0:0:0:
312,208,117802,1,0,0:0:0:0:
341,47,118016,1,2,3:2:0:0:
223,161,118230,1,0,0:0:0:0:
388,132,118445,5,8,0:0:0:0:
152,96,118659,1,8,0:0:0:0:
240,320,118873,1,2,3:2:0:0:
240,320,129159,102,0,P|236:289|250:238,1,63.3750024175645,2|0,0:0|0:0,0:0:0:0:
249,248,129480,1,0,0:0:0:0:
258,242,129588,2,0,L|187:251,1,63.3750024175645,0|0,3:0|0:0,0:0:0:0:
69,332,130016,1,2,3:2:0:0:
150,187,130230,1,0,0:0:0:0:
27,48,130445,6,0,P|22:78|48:128,1,63.3750024175645,2|0,0:0|0:0,0:0:0:0:
39,118,130766,1,0,0:0:0:0:
48,124,130873,2,0,L|124:118,1,63.3750024175645,0|0,3:0|0:0,0:0:0:0:
195,252,131302,1,2,3:2:0:0:
257,88,131516,1,0,0:0:0:0:
415,174,131730,102,0,P|380:166|334:160,1,63.3750024175645,2|0,0:0|0:0,0:0:0:0:
342,160,132052,1,0,0:0:0:0:
331,159,132159,2,0,L|261:169,1,63.3750024175645,0|0,3:0|0:0,0:0:0:0:
202,24,132588,1,2,3:2:0:0:
347,78,132802,1,0,0:0:0:0:
186,154,133016,6,0,P|181:182|197:214,1,63.3750024175645,2|0,0:0|0:0,0:0:0:0:
204,223,133338,1,0,0:0:0:0:
214,229,133445,2,0,L|293:241,1,63.3750024175645,0|0,3:0|0:0,0:0:0:0:
415,174,133873,1,2,3:2:0:0:
388,326,134088,1,0,0:0:0:0:
318,146,134302,102,0,L|326:66,1,63.3750024175645,2|0,0:0|0:0,0:0:0:0:
327,67,134623,1,0,0:0:0:0:
329,51,134730,1,0,3:0:0:0:
415,174,134945,1,0,0:0:0:0:
220,104,135159,1,2,3:2:0:0:
416,42,135373,1,0,0:0:0:0:
242,203,135588,6,0,L|250:283,1,63.3750024175645,2|0,0:0|0:0,0:0:0:0:
252,282,135909,1,0,0:0:0:0:
256,298,136016,1,0,3:0:0:0:
339,176,136230,1,0,0:0:0:0:
144,246,136444,1,2,3:2:0:0:
340,308,136658,1,0,0:0:0:0:
125,154,136873,102,0,P|93:159|53:140,1,63.3750024175645,2|0,0:0|0:0,0:0:0:0:
50,134,137195,1,0,0:0:0:0:
41,116,137302,1,0,3:0:0:0:
182,40,137516,1,0,0:0:0:0:
256,192,137730,1,2,3:2:0:0:
111,261,137945,1,0,0:0:0:0:
304,339,138159,6,0,P|336:344|376:325,1,63.3750024175645,2|0,0:0|0:0,0:0:0:0:
379,319,138481,1,0,0:0:0:0:
388,301,138588,1,0,3:0:0:0:
256,192,138802,1,0,0:0:0:0:
208,353,139016,101,8,0:0:0:0:
304,31,139230,1,8,0:0:0:0:
88,171,139445,70,0,P|145:160|196:151,1,101.399996905518,6|0,1:2|0:0,0:0:0:0:
256,192,139766,1,0,0:0:0:0:
262,204,139873,2,0,P|267:151|276:90,1,101.399996905518,10|2,0:0|0:0,0:0:0:0:
511,352,140302,2,0,P|474:304|357:328,1,152.099995358276,10|0,0:0|0:0,0:0:0:0:
314,325,140730,5,2,3:2:0:0:
187,152,140945,1,2,0:0:0:0:
187,152,141052,1,0,0:0:0:0:
187,152,141159,1,10,0:0:0:0:
403,107,141373,1,2,0:0:0:0:
362,7,141588,1,10,0:0:0:0:
499,155,141803,1,2,0:0:0:0:
337,254,142016,6,0,P|287:243|236:238,1,101.399996905518,2|0,1:2|0:0,0:0:0:0:
173,285,142338,1,0,0:0:0:0:
167,276,142445,2,0,P|160:225|198:168,1,101.399996905518,10|2,0:0|0:0,0:0:0:0:
466,29,142873,2,0,P|473:95|489:189,1,152.099995358276,10|0,0:0|0:0,0:0:0:0:
437,241,143302,86,0,L|320:256,1,101.399996905518,2|0,3:2|0:0,0:0:0:0:
209,18,143730,2,0,P|232:61|219:120,1,101.399996905518,10|0,0:0|0:0,0:0:0:0:
95,211,144159,1,10,0:0:0:0:
148,77,144373,1,2,0:0:0:0:
269,246,144588,6,0,P|221:235|158:227,1,101.399996905518,2|0,1:2|0:0,0:0:0:0:
95,211,144909,1,0,0:0:0:0:
81,215,145016,2,0,P|95:169|64:103,1,101.399996905518,10|2,0:0|0:0,0:0:0:0:
310,43,145445,1,10,0:0:0:0:
169,227,145659,1,2,0:0:0:0:
346,307,145873,5,2,3:2:0:0:
216,152,146088,1,0,0:0:0:0:
216,152,146195,1,0,0:0:0:0:
216,152,146302,2,0,P|260:144|336:138,1,101.399996905518,10|0,0:0|0:0,0:0:0:0:
441,265,146730,1,10,0:0:0:0:
254,346,146945,1,2,0:0:0:0:
429,83,147159,86,0,P|421:128|414:184,1,101.399996905518,2|0,1:2|0:0,0:0:0:0:
365,243,147480,1,0,0:0:0:0:
355,246,147588,1,10,0:0:0:0:
221,119,147802,1,0,0:0:0:0:
169,288,148016,2,0,L|237:267|301:252,1,101.399996905518,10|0,0:0|0:0,0:0:0:0:
363,46,148445,54,2,P|330:30|277:36,1,69.7125021274567,10|0,3:0|0:0,0:1:0:0:
112,92,148873,102,0,L|167:89,1,33.8,2|0,3:1|0:0,0:0:0:0:
267,42,149088,2,0,L|212:39,1,33.8,2|0,3:1|0:0,0:0:0:0:
58,31,149302,6,2,P|91:15|144:21,1,69.7125021274567,2|2,3:0|0:1,0:1:0:0:
234,41,149730,54,0,L|130:35,1,101.399996905518,6|0,1:2|0:0,0:0:0:0:
58,31,150052,1,0,0:0:0:0:
46,30,150159,1,10,0:0:0:0:
195,163,150373,1,2,0:0:0:0:
54,300,150588,2,0,P|29:255|47:198,1,101.399996905518,10|0,0:0|0:0,0:0:0:0:
79,143,150909,1,0,0:0:0:0:
92,140,151016,5,2,3:2:0:0:
304,272,151230,2,0,L|247:263,1,50.6999984527588
178,305,151445,1,10,0:0:0:0:
238,102,151659,1,0,0:0:0:0:
238,102,151766,1,0,0:0:0:0:
238,102,151873,1,10,0:0:0:0:
314,267,152088,1,0,0:0:0:0:
419,86,152302,6,0,P|445:121|430:191,1,101.399996905518,2|0,1:2|0:0,0:0:0:0:
399,241,152623,1,0,0:0:0:0:
392,247,152730,2,0,P|401:304|407:360,1,101.399996905518,10|2,0:0|0:0,0:0:0:0:
72,309,153159,2,0,P|41:260|68:171,1,152.099995358276,10|0,0:0|0:0,0:0:0:0:
48,96,153588,86,0,L|171:104,1,101.399996905518,2|0,3:2|0:0,0:0:0:0:
360,32,154016,2,0,L|289:137,1,101.399996905518,10|0,0:0|0:0,0:0:0:0:
259,334,154445,1,10,0:0:0:0:
248,313,154552,1,0,0:0:0:0:
238,292,154659,1,0,0:0:0:0:
227,271,154766,1,0,0:0:0:0:
217,250,154873,5,2,1:2:0:0:
248,40,155088,1,2,0:0:0:0:
414,171,155302,1,10,0:0:0:0:
176,136,155516,5,2,0:0:0:0:
373,57,155731,1,10,0:0:0:0:
342,267,155945,1,2,0:0:0:0:
80,84,156159,86,0,P|136:90|191:69,1,101.399996905518,2|0,3:2|0:0,0:0:0:0:
248,40,156480,1,0,0:0:0:0:
259,34,156588,2,0,P|252:78|243:149,1,101.399996905518,10|0,0:0|0:0,0:0:0:0:
52,260,157016,2,0,P|45:209|37:159,1,101.399996905518,10|0,0:0|0:0,0:0:0:0:
225,334,157445,5,2,1:2:0:0:
160,181,157659,1,0,0:0:0:0:
160,181,157766,1,0,0:0:0:0:
160,181,157873,2,0,P|138:228|156:295,1,101.399996905518,8|0,0:0|0:0,0:0:0:0:
404,156,158302,1,10,0:0:0:0:
236,239,158516,1,0,0:0:0:0:
371,329,158730,5,2,3:2:0:0:
312,133,158945,1,0,0:0:0:0:
312,133,159052,1,0,0:0:0:0:
312,133,159159,2,0,P|324:182|333:232,1,101.399996905518,8|0,0:0|0:0,0:0:0:0:
445,246,159588,1,10,0:0:0:0:
463,76,159802,1,2,0:0:0:0:
312,133,160016,1,4,0:1:0:0:
