osu file format v14

[General]
AudioFilename: Mangekyou.mp3
AudioLeadIn: 0
PreviewTime: 65898
Countdown: 0
SampleSet: Normal
StackLeniency: 0.7
Mode: 0
LetterboxInBreaks: 1
WidescreenStoryboard: 1

[Editor]
Bookmarks: 27684,34576,40657,53630,66603,78871,92549,105522,118495,131468,137955,144440,169682,173630,175251,176468,176873,177278,177481,184981
DistanceSpacing: 1
BeatDivisor: 4
GridSize: 4
TimelineZoom: 1.4

[Metadata]
Title:Mangekyou
TitleUnicode:万華鏡
Artist:senya
ArtistUnicode:senya
Creator:Mattchanhew
Version:Insane
Source:東方Project
Tags:Kaleidoscope Touhou Alice Margatroid Yuuhei Satellite autobahn kamasetora ブクレシュティの人形師 the doll maker of bucuresti 造花であろうとした者 mayumi morinaga コミックマーケット90 comiket90 c90 Bukureshuti no Ningyoushi youyoumu perfect cherry blossom
BeatmapID:1137170
BeatmapSetID:536606

[Difficulty]
HPDrainRate:6
CircleSize:4.2
OverallDifficulty:8
ApproachRate:9
SliderMultiplier:1.4
SliderTickRate:1

[Events]
//Background and Video events
0,0,"Alice.Margatroid.full.163385.jpg",0,0
//Break Periods
2,130962,136650
//Storyboard Layer 0 (Background)
//Storyboard Layer 1 (Fail)
//Storyboard Layer 2 (Pass)
//Storyboard Layer 3 (Foreground)
//Storyboard Sound Samples

[TimingPoints]
1034,405.405405405405,4,1,0,40,1,0
1135,-200,4,1,0,40,0,0
4074,-100,4,1,0,5,0,0
4277,-100,4,1,0,40,0,0
5696,-100,4,1,0,5,0,0
5898,-200,4,1,0,40,0,0
17250,-142.857142857143,4,1,0,40,0,0
24547,-133.333333333333,4,1,0,40,0,0
26979,-117.647058823529,4,1,0,60,0,0
39952,-83.3333333333333,4,1,0,60,0,0
52925,-133.333333333333,4,3,0,60,0,0
64479,-100,4,3,0,60,0,0
64682,-80,4,3,0,60,0,0
64885,-66.6666666666667,4,3,0,60,0,0
65898,-50,4,1,0,70,0,1
91844,-117.647058823529,4,1,0,60,0,0
104817,-105.263157894737,4,1,0,60,0,0
117790,-133.333333333333,4,3,0,60,0,0
137250,-100,4,3,0,100,0,0
143736,-50,4,1,0,100,0,1
169683,-200,4,1,0,40,0,0
172722,-200,4,1,0,5,0,0
172925,-200,4,1,0,40,0,0
174344,-200,4,1,0,5,0,0
174547,-200,4,1,0,40,0,0
179006,-200,4,1,0,5,0,0
184277,-1000,4,1,0,5,0,0
185493,-25,4,1,0,5,0,0

[HitObjects]
136,128,1034,5,0,0:0:0:0:
256,192,1135,12,0,4074,0:0:0:0:
136,128,4277,5,0,0:0:0:0:
256,192,4378,12,0,5696,0:0:0:0:
212,212,5898,5,0,0:0:0:0:
284,116,7115,1,0,0:0:0:0:
284,116,7520,1,0,0:0:0:0:
368,64,7925,2,0,L|377:112,1,35
256,192,8331,12,0,10358,0:0:0:0:
364,92,10763,5,0,0:0:0:0:
360,192,12385,1,0,0:0:0:0:
260,164,13601,1,0,0:0:0:0:
80,44,14006,6,0,L|65:90,1,35
152,95,14412,2,0,L|147:142,1,35
235,48,14817,2,0,L|243:96,1,35
337,80,15223,2,0,L|327:128,1,35
417,332,15628,6,0,L|433:290,1,35
345,281,16033,2,0,L|351:234,1,35
262,328,16439,2,0,L|255:279,1,35
148,328,16844,1,0,0:0:0:0:
112,240,17047,1,0,0:0:0:0:
40,144,17250,6,0,L|99:133,1,48.9999985046387
221,51,17655,2,0,L|173:44,1,48.9999985046387
275,181,18061,2,0,L|331:170,1,48.9999985046387
418,51,18466,2,0,L|370:43,1,48.9999985046387
467,160,18871,6,0,L|432:207,1,48.9999985046387
287,324,19277,2,0,L|333:288,1,48.9999985046387
492,202,19682,2,0,L|447:241,1,48.9999985046387
328,329,20088,1,0,0:0:0:0:
328,329,20290,1,0,0:0:0:0:
192,292,20493,5,0,0:0:0:0:
192,292,20696,1,0,0:0:0:0:
112,176,20898,1,0,0:0:0:0:
112,176,21101,1,0,0:0:0:0:
234,82,21304,1,0,0:0:0:0:
234,82,21506,1,0,0:0:0:0:
328,194,21709,1,0,0:0:0:0:
328,194,21912,1,0,0:0:0:0:
276,324,22115,5,0,0:0:0:0:
195,190,22317,1,0,0:0:0:0:
90,307,22520,1,0,0:0:0:0:
30,159,22723,1,0,0:0:0:0:
114,56,22925,1,0,0:0:0:0:
195,190,23128,1,0,0:0:0:0:
300,73,23331,1,0,0:0:0:0:
360,221,23533,1,0,0:0:0:0:
411,347,23736,6,0,L|422:309,1,24.4999992523194
323,282,23939,2,0,L|307:241,1,24.4999992523194
218,351,24142,2,0,L|227:308,1,24.4999992523194
124,274,24344,2,0,L|107:236,1,24.4999992523194
61,105,24547,6,0,L|46:144,1,26.2500010013581
163,163,24750,2,0,L|170:200,1,26.2500010013581
273,84,24952,2,0,L|268:127,1,26.2500010013581
382,196,25155,2,0,L|391:234,1,26.2500010013581
474,75,25358,5,0,0:0:0:0:
480,100,25459,1,0,0:0:0:0:
484,126,25561,1,0,0:0:0:0:
486,152,25662,1,0,0:0:0:0:
487,178,25763,1,0,0:0:0:0:
487,204,25865,1,0,0:0:0:0:
482,229,25966,1,0,0:0:0:0:
471,253,26067,1,0,0:0:0:0:
457,275,26169,2,0,L|428:303,7,26.2500010013581
330,339,26979,6,0,P|301:301|299:273,1,59.5000011348725
211,229,27385,1,0,0:0:0:0:
202,116,27588,2,0,P|244:94|272:96,1,59.5000011348725
303,26,27993,2,0,P|347:44|362:67,1,59.5000011348725
471,121,28398,2,0,L|421:187,1,59.5000011348725
324,264,28804,2,0,L|374:198,1,59.5000011348725
322,82,29209,1,0,0:0:0:0:
322,82,29412,1,0,0:0:0:0:
194,156,29614,1,0,0:0:0:0:
194,156,29817,1,0,0:0:0:0:
114,46,30020,1,0,0:0:0:0:
114,46,30223,6,0,P|143:92|144:119,1,59.5000011348725
22,149,30628,2,0,P|32:176|61:205,1,59.5000011348725
109,314,31033,2,0,L|139:240,1,59.5000011348725
256,322,31439,1,0,0:0:0:0:
231,225,31642,1,0,0:0:0:0:
197,66,31844,6,0,L|214:136,1,59.5000011348725
312,143,32250,2,0,L|301:71,1,59.5000011348725
424,78,32655,1,0,0:0:0:0:
485,171,32858,1,0,0:0:0:0:
373,213,33061,1,0,0:0:0:0:
461,295,33263,1,0,0:0:0:0:
356,336,33466,6,0,P|305:353|282:349,1,59.5000011348725
154,316,33871,1,0,0:0:0:0:
257,226,34074,2,0,P|287:195|296:162,1,59.5000011348725
401,152,34479,2,0,P|411:110|402:77,1,59.5000011348725
294,41,34885,2,0,L|216:58,1,59.5000011348725
96,79,35290,1,0,0:0:0:0:
96,79,35493,1,0,0:0:0:0:
249,147,35696,2,0,L|173:173,1,59.5000011348725
57,208,36101,1,0,0:0:0:0:
57,208,36304,1,0,0:0:0:0:
196,252,36506,1,0,0:0:0:0:
196,252,36709,6,0,P|195:302|208:332,1,59.5000011348725
318,274,37115,1,0,0:0:0:0:
204,153,37317,2,0,P|228:196|254:216,1,59.5000011348725
396,203,37723,1,0,0:0:0:0:
318,78,37925,1,0,0:0:0:0:
439,41,38128,1,0,0:0:0:0:
233,54,38331,6,0,P|188:90|179:116,1,59.5000011348725
105,88,38736,2,0,P|103:145|117:169,1,59.5000011348725
21,199,39142,2,0,P|64:237|91:241,1,59.5000011348725
107,338,39547,1,0,0:0:0:0:
216,228,39750,1,0,0:0:0:0:
216,228,39851,1,0,0:0:0:0:
216,228,39952,6,0,P|272:251|290:272,1,83.9999974365235
216,356,40358,1,0,2:0:0:0:
116,312,40561,2,0,P|75:266|68:240,1,83.9999974365235
26,148,40966,1,0,2:0:0:0:
135,156,41169,1,0,2:0:0:0:
196,252,41371,6,0,P|264:248|293:232,1,83.9999974365235
356,176,41777,1,0,0:0:0:0:
424,104,41979,1,0,0:0:0:0:
481,211,42182,2,0,P|430:257|398:266,1,83.9999974365235
320,209,42588,1,0,0:0:0:0:
402,129,42790,1,0,0:0:0:0:
337,40,42993,1,0,0:0:0:0:
337,40,43196,6,0,L|350:127,1,83.9999974365235
219,149,43601,2,0,L|231:65,1,83.9999974365235
110,31,44006,2,0,L|122:114,1,83.9999974365235
1,141,44412,2,0,L|6:57,1,83.9999974365235
89,221,44817,6,0,P|90:278|72:327,1,83.9999974365235
217,180,45223,1,0,0:0:0:0:
190,314,45425,1,0,0:0:0:0:
335,247,45628,2,0,P|284:299|252:316,1,83.9999974365235
346,76,46033,2,0,P|328:146|309:177,1,83.9999974365235
291,159,46338,1,0,0:0:0:0:
254,169,46439,6,0,P|217:213|177:226,1,83.9999974365235
151,122,46844,1,0,0:0:0:0:
52,173,47047,2,0,P|32:118|41:77,1,83.9999974365235
142,14,47452,2,0,P|198:24|229:52,1,83.9999974365235
332,54,47858,5,0,0:0:0:0:
332,54,48060,1,0,0:0:0:0:
447,90,48263,1,0,0:0:0:0:
447,90,48466,1,0,0:0:0:0:
318,169,48668,1,0,0:0:0:0:
318,169,48871,1,0,0:0:0:0:
433,205,49074,1,0,0:0:0:0:
433,205,49276,1,0,0:0:0:0:
378,128,49479,1,0,0:0:0:0:
327,54,49682,5,0,0:0:0:0:
447,90,49885,1,0,0:0:0:0:
318,169,50088,1,0,0:0:0:0:
433,205,50290,1,0,0:0:0:0:
414,350,50493,2,0,L|397:298,1,41.9999987182618
307,240,50696,2,0,L|293:279,1,41.9999987182618
201,352,50898,2,0,L|184:300,1,41.9999987182618
103,226,51101,2,0,L|89:265,1,41.9999987182618
28,343,51304,5,0,0:0:0:0:
19,301,51405,1,0,0:0:0:0:
19,259,51506,1,0,0:0:0:0:
28,218,51608,1,0,0:0:0:0:
44,180,51709,1,0,0:0:0:0:
67,145,51811,1,0,0:0:0:0:
97,116,51912,1,0,0:0:0:0:
132,93,52013,1,0,0:0:0:0:
171,77,52115,1,0,0:0:0:0:
213,69,52216,1,0,0:0:0:0:
254,70,52317,1,0,0:0:0:0:
295,79,52419,1,0,0:0:0:0:
334,95,52520,1,0,0:0:0:0:
368,119,52621,1,0,0:0:0:0:
397,149,52723,1,0,0:0:0:0:
420,185,52824,1,0,0:0:0:0:
434,218,52925,6,0,L|473:324,2,105.000004005432
434,218,53939,1,0,0:0:0:0:
403,361,54142,2,0,L|393:322,1,26.2500010013581
323,348,54344,2,0,L|333:303,1,26.2500010013581
251,360,54547,2,0,L|241:315,1,26.2500010013581
173,353,54750,2,0,L|184:308,1,26.2500010013581
101,345,54952,2,0,L|95:301,1,26.2500010013581
24,360,55155,2,0,L|34:315,1,26.2500010013581
27,254,55358,2,0,B|111:173|111:173|46:142,1,183.750007009506
38,67,56169,6,0,L|147:120,2,105.000004005432
38,67,57182,1,0,0:0:0:0:
109,23,57385,2,0,L|119:62,1,26.2500010013581
186,62,57588,2,0,L|189:36,1,26.2500010013581
261,24,57790,2,0,L|265:67,1,26.2500010013581
334,56,57993,2,0,L|339:31,1,26.2500010013581
411,39,58196,2,0,L|414:82,1,26.2500010013581
485,50,58398,2,0,L|488:24,1,26.2500010013581
488,128,58601,2,0,B|427:229|427:229|411:164,1,183.750007009506
395,113,59412,6,0,P|332:128|315:150,1,78.7500030040742
225,278,59817,2,0,P|244:216|267:200,1,78.7500030040742
383,101,60223,2,0,P|321:121|306:144,1,78.7500030040742
209,105,60628,2,0,L|227:131,1,26.2500010013581
142,169,60831,2,0,L|170:182,1,26.2500010013581
136,267,61033,2,0,L|166:258,1,26.2500010013581
208,333,61236,2,0,L|230:310,1,26.2500010013581
314,351,61439,2,0,L|322:320,1,26.2500010013581
419,336,61642,2,0,L|410:305,1,26.2500010013581
481,244,61844,2,0,B|385:166|385:166|425:119,1,183.750007009506
478,39,62655,5,0,0:0:0:0:
409,114,62858,1,0,0:0:0:0:
336,38,63061,1,0,0:0:0:0:
265,118,63263,1,0,0:0:0:0:
197,36,63466,1,0,0:0:0:0:
122,124,63669,1,0,0:0:0:0:
55,41,63871,1,0,0:0:0:0:
0,133,64074,1,0,0:0:0:0:
16,220,64277,6,0,L|29:248,1,26.2500010013581
88,333,64479,2,0,L|102:273,1,35
171,210,64682,2,0,L|181:257,1,43.75
251,346,64885,2,0,L|279:270,1,52.5000020027161
341,197,65088,5,0,0:0:0:0:
363,206,65189,1,0,0:0:0:0:
389,217,65290,1,0,0:0:0:0:
415,228,65392,1,0,0:0:0:0:
433,240,65493,1,0,0:0:0:0:
435,300,65594,1,0,0:0:0:0:
397,348,65696,1,0,0:0:0:0:
336,346,65797,1,0,0:0:0:0:
288,308,65898,5,0,0:0:0:0:
167,133,66101,1,0,0:0:0:0:
108,324,66304,1,0,0:0:0:0:
283,207,66506,1,0,0:0:0:0:
202,43,66709,1,0,0:0:0:0:
180,242,66912,1,0,0:0:0:0:
359,77,67115,1,0,0:0:0:0:
404,253,67317,1,0,0:0:0:0:
288,330,67520,6,0,P|183:337|137:313,1,140
184,59,67925,2,0,P|252:45|318:64,1,140
110,287,68331,2,0,P|90:220|104:152,1,140
407,152,68736,2,0,P|421:220|402:287,1,140
284,345,69142,5,0,0:0:0:0:
202,296,69344,1,0,0:0:0:0:
126,240,69547,1,0,0:0:0:0:
48,182,69750,1,0,0:0:0:0:
376,322,69952,5,0,0:0:0:0:
285,249,70154,1,0,0:0:0:0:
204,169,70357,1,0,0:0:0:0:
121,88,70560,1,0,0:0:0:0:
455,321,70763,5,0,0:0:0:0:
364,228,70965,1,0,0:0:0:0:
286,131,71168,1,0,0:0:0:0:
207,30,71371,1,0,0:0:0:0:
33,151,71574,5,0,0:0:0:0:
153,265,71777,1,0,0:0:0:0:
196,115,71979,1,0,0:0:0:0:
39,250,72182,1,0,0:0:0:0:
72,290,72283,1,0,0:0:0:0:
104,324,72385,5,0,0:0:0:0:
101,167,72588,2,0,L|83:92,1,70
210,345,72790,1,0,0:0:0:0:
223,179,72993,2,0,L|241:104,1,70
339,342,73196,1,0,0:0:0:0:
358,164,73398,1,0,0:0:0:0:
502,351,73601,1,0,0:0:0:0:
503,163,73804,1,0,0:0:0:0:
288,54,74006,6,0,P|183:47|137:71,1,140
184,325,74412,2,0,P|252:339|321:316,1,140
103,152,74817,2,0,P|90:220|110:287,1,140
402,286,75223,2,0,P|421:219|407:152,1,140
301,43,75628,5,0,0:0:0:0:
119,136,75831,1,0,0:0:0:0:
204,306,76033,1,0,0:0:0:0:
384,213,76236,1,0,0:0:0:0:
260,48,76439,1,0,0:0:0:0:
108,184,76642,1,0,0:0:0:0:
234,327,76844,1,0,0:0:0:0:
384,190,77047,1,0,0:0:0:0:
256,87,77250,6,0,P|211:53|181:50,1,70
140,145,77452,2,0,P|85:157|63:178,1,70
134,262,77655,2,0,P|108:312|110:342,1,70
252,322,77858,2,0,P|273:373|298:391,1,70
364,268,78061,5,0,0:0:0:0:
388,243,78162,1,0,0:0:0:0:
364,218,78263,1,0,0:0:0:0:
339,243,78365,1,0,0:0:0:0:
363,283,78466,5,0,0:0:0:0:
402,242,78567,1,0,0:0:0:0:
363,201,78669,1,0,0:0:0:0:
322,242,78770,1,0,0:0:0:0:
370,291,78871,5,0,0:0:0:0:
451,108,79074,1,0,0:0:0:0:
245,65,79277,1,0,0:0:0:0:
349,238,79479,1,0,0:0:0:0:
192,337,79682,1,0,0:0:0:0:
53,193,79885,1,0,0:0:0:0:
277,257,80088,1,0,0:0:0:0:
211,67,80291,1,0,0:0:0:0:
448,132,80493,6,0,P|470:192|457:274,1,140
171,56,80898,2,0,P|230:34|313:46,1,140
51,266,81304,2,0,P|41:197|64:132,1,140
324,342,81709,2,0,P|264:364|182:351,1,140
105,304,82115,5,0,0:0:0:0:
90,220,82317,1,0,0:0:0:0:
74,144,82520,1,0,0:0:0:0:
56,57,82723,1,0,0:0:0:0:
211,287,82925,5,0,0:0:0:0:
217,196,83127,1,0,0:0:0:0:
225,105,83330,1,0,0:0:0:0:
231,17,83533,1,0,0:0:0:0:
340,272,83736,6,0,B|376:289|376:289|395:312,1,70
483,205,83939,2,0,B|451:219|451:219|427:245,1,70
319,144,84142,2,0,B|351:157|351:157|374:184,1,70
473,88,84344,2,0,B|434:104|434:104|417:128,1,70
361,30,84547,1,0,0:0:0:0:
361,30,84750,1,0,0:0:0:0:
245,35,84952,5,0,0:0:0:0:
233,101,85054,5,0,0:0:0:0:
220,166,85155,5,0,0:0:0:0:
209,228,85256,5,0,0:0:0:0:
199,290,85358,5,0,0:0:0:0:
72,188,85561,1,0,0:0:0:0:
192,348,85763,1,0,0:0:0:0:
274,179,85966,1,0,0:0:0:0:
356,344,86169,1,0,0:0:0:0:
368,152,86371,1,0,0:0:0:0:
268,352,86574,1,0,0:0:0:0:
424,356,86777,1,0,0:0:0:0:
444,312,86878,1,0,0:0:0:0:
460,266,86979,6,0,P|470:197|448:132,1,140
316,44,87384,2,0,P|247:34|181:57,1,140
64,156,87790,2,0,P|40:221|51:289,1,140
192,356,88195,2,0,P|260:366|326:343,1,140
424,220,88601,6,0,L|408:136,1,70
336,36,88804,2,0,L|322:104,1,70
248,232,89006,2,0,L|232:148,1,70
168,44,89209,2,0,L|154:112,1,70
68,208,89412,2,0,L|96:272,3,70
184,280,89817,2,0,L|156:344,3,70
264,328,90223,5,0,0:0:0:0:
304,316,90324,1,0,0:0:0:0:
344,300,90425,1,0,0:0:0:0:
384,286,90527,1,0,0:0:0:0:
448,260,90628,5,0,0:0:0:0:
411,209,90729,1,0,0:0:0:0:
375,156,90831,1,0,0:0:0:0:
339,104,90932,1,0,0:0:0:0:
280,64,91033,5,0,0:0:0:0:
209,53,91134,1,0,0:0:0:0:
202,121,91236,1,0,0:0:0:0:
271,130,91337,1,0,0:0:0:0:
281,65,91439,1,0,0:0:0:0:
213,53,91540,1,0,0:0:0:0:
197,117,91642,1,0,0:0:0:0:
264,130,91743,1,0,0:0:0:0:
281,65,91844,6,0,P|313:53|340:56,1,59.5000011348725
433,90,92250,1,0,0:0:0:0:
428,203,92452,2,0,P|454:224|465:249,1,59.5000011348725
345,273,92858,2,0,P|313:285|286:282,1,59.5000011348725
316,175,93263,2,0,P|321:141|337:119,1,59.5000011348725
447,180,93669,1,0,0:0:0:0:
389,276,93871,1,0,0:0:0:0:
247,260,94074,2,0,L|263:336,1,59.5000011348725
363,227,94479,2,0,L|355:163,1,59.5000011348725
339,40,94885,1,0,0:0:0:0:
283,48,94986,1,0,0:0:0:0:
227,60,95088,6,0,P|179:80|147:72,1,59.5000011348725
139,180,95493,2,0,P|87:173|63:150,1,59.5000011348725
0,258,95898,2,0,P|47:278|80:270,1,59.5000011348725
176,260,96304,1,0,0:0:0:0:
263,170,96506,1,0,0:0:0:0:
298,221,96608,1,0,0:0:0:0:
332,270,96709,6,0,P|364:305|388:316,1,59.5000011348725
499,345,97115,1,0,0:0:0:0:
499,345,97317,1,0,0:0:0:0:
487,196,97520,2,0,P|455:231|431:242,1,59.5000011348725
320,271,97926,1,0,0:0:0:0:
207,221,98128,1,0,0:0:0:0:
169,173,98229,1,0,0:0:0:0:
141,121,98331,6,0,P|135:73|147:51,1,59.5000011348725
284,161,98736,1,0,0:0:0:0:
183,218,98939,2,0,P|135:224|113:212,1,59.5000011348725
242,83,99344,2,0,P|290:77|312:89,1,59.5000011348725
240,205,99750,2,0,L|261:280,1,59.5000011348725
378,156,100155,2,0,L|357:81,1,59.5000011348725
177,40,100561,5,0,0:0:0:0:
177,40,100764,1,0,0:0:0:0:
267,165,100967,1,0,0:0:0:0:
267,165,101169,1,0,0:0:0:0:
315,43,101371,1,0,0:0:0:0:
374,48,101473,1,0,0:0:0:0:
436,53,101574,6,0,P|468:56|496:80,2,59.5000011348725
421,174,102182,1,0,0:0:0:0:
398,299,102385,2,0,P|344:284|324:261,1,59.5000011348725
264,185,102790,1,0,0:0:0:0:
198,79,102993,1,0,0:0:0:0:
144,46,103094,1,0,0:0:0:0:
86,25,103196,6,0,P|49:24|17:38,2,59.5000011348725
67,144,103804,1,0,0:0:0:0:
38,258,104006,2,0,P|70:276|105:271,1,59.5000011348725
200,223,104412,1,0,0:0:0:0:
72,136,104615,1,0,0:0:0:0:
96,192,104716,1,0,0:0:0:0:
122,251,104817,6,0,P|148:296|171:312,1,66.4999982242585
267,290,105223,1,0,0:0:0:0:
232,140,105425,2,0,P|258:185|281:201,1,66.4999982242585
384,188,105831,2,0,P|429:213|456:216,1,66.4999982242585
408,40,106236,5,0,0:0:0:0:
448,168,106439,1,0,0:0:0:0:
308,64,106641,1,0,0:0:0:0:
325,197,106844,1,0,0:0:0:0:
204,36,107047,1,0,0:0:0:0:
204,170,107250,1,0,0:0:0:0:
92,52,107452,1,0,0:0:0:0:
81,186,107655,1,0,0:0:0:0:
81,335,107858,1,0,0:0:0:0:
146,336,107959,1,0,0:0:0:0:
210,336,108061,6,0,P|238:283|238:247,1,66.4999982242585
221,148,108466,1,0,0:0:0:0:
106,203,108669,1,0,0:0:0:0:
186,92,108871,2,0,P|215:143|245:162,1,66.4999982242585
378,177,109276,1,0,0:0:0:0:
352,51,109479,1,0,0:0:0:0:
304,95,109581,1,0,0:0:0:0:
257,136,109682,6,0,P|209:112|193:88,1,66.4999982242585
118,150,110088,1,0,0:0:0:0:
245,211,110290,1,0,0:0:0:0:
144,268,110493,2,0,P|90:270|64:257,1,66.4999982242585
272,332,110898,1,0,0:0:0:0:
144,356,111101,1,0,0:0:0:0:
80,364,111202,1,0,0:0:0:0:
20,376,111304,6,0,P|4:316|8:288,1,66.4999982242585
42,208,111709,1,0,0:0:0:0:
152,348,111912,2,0,P|121:294|117:266,1,66.4999982242585
129,171,112317,2,0,P|113:111|117:83,1,66.4999982242585
217,259,112723,5,0,0:0:0:0:
188,125,112925,1,0,0:0:0:0:
288,230,113128,1,0,0:0:0:0:
294,93,113330,1,0,0:0:0:0:
359,224,113533,1,0,0:0:0:0:
400,93,113735,1,0,0:0:0:0:
424,213,113939,1,0,0:0:0:0:
497,97,114141,1,0,0:0:0:0:
433,6,114344,1,0,0:0:0:0:
372,12,114446,1,0,0:0:0:0:
312,20,114547,6,0,L|232:36,1,66.4999982242585
96,80,114952,2,0,L|176:96,1,66.4999982242585
328,156,115358,2,0,L|248:172,1,66.4999982242585
104,232,115763,2,0,L|184:248,1,66.4999982242585
224,256,116067,1,0,0:0:0:0:
257,260,116169,5,0,0:0:0:0:
289,268,116270,1,0,0:0:0:0:
320,280,116371,1,0,0:0:0:0:
349,297,116473,1,0,0:0:0:0:
373,319,116574,1,0,0:0:0:0:
360,288,116675,1,0,0:0:0:0:
346,259,116776,1,0,0:0:0:0:
339,226,116877,1,0,0:0:0:0:
339,193,116979,1,0,0:0:0:0:
347,161,117080,1,0,0:0:0:0:
363,132,117181,1,0,0:0:0:0:
384,107,117283,1,0,0:0:0:0:
412,87,117384,1,0,0:0:0:0:
380,97,117486,1,0,0:0:0:0:
350,107,117587,1,0,0:0:0:0:
317,112,117688,1,0,0:0:0:0:
282,110,117790,6,0,B|227:93|227:93|170:102,2,105.000004005432
180,100,118804,1,0,0:0:0:0:
48,144,119006,2,0,L|55:175,1,26.2500010013581
68,155,119209,2,0,L|75:186,1,26.2500010013581
165,319,119412,2,0,L|169:287,1,26.2500010013581
183,306,119615,2,0,L|187:274,1,26.2500010013581
247,127,119817,2,0,L|251:158,1,26.2500010013581
265,139,120020,2,0,L|269:170,1,26.2500010013581
334,310,120223,2,0,B|358:347|358:347|456:330|456:330|466:279,1,183.750007009506
464,188,121033,6,0,B|456:141|456:141|473:86,2,105.000004005432
473,86,122047,1,0,0:0:0:0:
321,62,122250,2,0,L|296:88,1,26.2500010013581
297,48,122452,2,0,L|274:69,1,26.2500010013581
117,133,122655,2,0,L|141:152,1,26.2500010013581
105,159,122857,2,0,L|129:178,1,26.2500010013581
355,230,123061,2,0,L|325:249,1,26.2500010013581
335,210,123263,2,0,L|307:224,1,26.2500010013581
104,293,123466,2,0,B|64:285|64:285|47:187|47:187|84:163,1,183.750007009506
167,76,124277,6,0,L|209:168,1,78.7500030040742
238,72,124682,2,0,L|280:164,1,78.7500030040742
312,70,125088,2,0,L|354:162,1,78.7500030040742
456,265,125493,2,0,L|464:289,1,26.2500010013581
436,290,125696,2,0,L|444:314,1,26.2500010013581
255,206,125898,2,0,L|262:231,1,26.2500010013581
233,229,126101,2,0,L|240:254,1,26.2500010013581
77,290,126304,2,0,L|83:315,1,26.2500010013581
53,311,126507,2,0,L|59:336,1,26.2500010013581
243,319,126709,2,0,B|267:356|267:356|365:339|365:339|373:300,1,183.750007009506
390,198,127520,5,0,0:0:0:0:
401,186,127723,1,0,0:0:0:0:
260,82,127925,1,0,0:0:0:0:
271,70,128128,1,0,0:0:0:0:
86,129,128331,1,0,0:0:0:0:
97,117,128534,1,0,0:0:0:0:
40,267,128736,1,0,0:0:0:0:
51,255,128939,1,0,0:0:0:0:
196,344,129142,6,0,L|211:302,1,26.2500010013581
236,340,129344,2,0,L|251:298,1,26.2500010013581
258,99,129547,2,0,L|273:141,1,26.2500010013581
218,95,129750,2,0,L|233:137,1,26.2500010013581
148,266,129952,5,0,0:0:0:0:
166,205,130053,5,0,0:0:0:0:
210,250,130154,5,0,0:0:0:0:
225,190,130256,5,0,0:0:0:0:
271,231,130357,5,0,0:0:0:0:
282,175,130458,5,0,0:0:0:0:
327,216,130560,5,0,0:0:0:0:
338,160,130661,5,0,0:0:0:0:
384,204,130762,5,0,0:0:0:0:
373,112,137250,5,0,0:0:0:0:
71,71,138871,5,0,0:0:0:0:
99,224,140493,5,0,0:0:0:0:
130,227,141304,1,0,0:0:0:0:
231,240,142115,5,0,0:0:0:0:
298,271,142520,1,0,0:0:0:0:
377,289,142925,2,0,L|393:331,1,35
484,356,143128,2,0,L|471:323,1,35
455,235,143331,1,0,0:0:0:0:
450,200,143432,1,0,0:0:0:0:
446,165,143533,1,0,0:0:0:0:
442,130,143635,1,0,0:0:0:0:
438,96,143736,5,0,0:0:0:0:
316,259,143939,1,0,0:0:0:0:
219,65,144142,1,0,0:0:0:0:
138,267,144344,1,0,0:0:0:0:
92,73,144547,1,0,0:0:0:0:
222,255,144750,1,0,0:0:0:0:
273,71,144952,1,0,0:0:0:0:
369,230,145155,1,0,0:0:0:0:
317,71,145358,6,0,P|248:53|169:69,1,140
181,320,145763,2,0,P|249:330|317:313,1,140
135,130,146169,2,0,P|117:198|127:266,1,140
384,266,146574,2,0,P|394:198|377:131,1,140
109,137,146979,5,0,0:0:0:0:
50,224,147182,1,0,0:0:0:0:
137,283,147385,1,0,0:0:0:0:
197,195,147588,1,0,0:0:0:0:
417,191,147790,5,0,0:0:0:0:
488,296,147993,1,0,0:0:0:0:
381,369,148196,1,0,0:0:0:0:
309,262,148399,1,0,0:0:0:0:
224,124,148601,5,0,0:0:0:0:
129,6,148804,1,0,0:0:0:0:
12,101,149007,1,0,0:0:0:0:
105,215,149210,1,0,0:0:0:0:
264,184,149412,1,0,0:0:0:0:
368,80,149615,1,0,0:0:0:0:
476,32,149817,5,0,0:0:0:0:
480,103,149919,1,0,0:0:0:0:
484,175,150020,1,0,0:0:0:0:
489,246,150121,1,0,0:0:0:0:
494,316,150223,5,0,0:0:0:0:
350,162,150425,1,0,0:0:0:0:
335,337,150628,1,0,0:0:0:0:
418,171,150831,1,0,0:0:0:0:
215,62,151033,1,0,0:0:0:0:
238,288,151236,1,0,0:0:0:0:
286,72,151439,1,0,0:0:0:0:
86,115,151642,1,0,0:0:0:0:
90,180,151743,1,0,0:0:0:0:
94,241,151844,6,0,P|149:312|210:330,1,140
418,143,152250,2,0,P|363:72|302:54,1,140
318,328,152655,2,0,P|380:299|418:241,1,140
193,55,153061,2,0,P|131:84|94:143,1,140
93,143,153365,1,0,0:0:0:0:
93,143,153466,5,0,0:0:0:0:
155,226,153669,1,0,0:0:0:0:
223,302,153871,1,0,0:0:0:0:
302,363,154074,1,0,0:0:0:0:
102,83,154277,5,0,0:0:0:0:
185,161,154480,1,0,0:0:0:0:
274,232,154682,1,0,0:0:0:0:
374,283,154885,1,0,0:0:0:0:
60,56,155088,6,0,L|80:140,1,70
160,104,155290,2,0,L|180:188,1,70
260,152,155493,2,0,L|280:236,1,70
360,200,155696,2,0,L|380:284,1,70
450,126,155898,5,0,0:0:0:0:
417,62,156000,1,0,0:0:0:0:
480,31,156101,1,0,0:0:0:0:
512,93,156202,1,0,0:0:0:0:
438,120,156304,5,0,0:0:0:0:
422,50,156406,1,0,0:0:0:0:
491,36,156507,1,0,0:0:0:0:
506,104,156608,1,0,0:0:0:0:
434,126,156709,5,0,0:0:0:0:
289,225,156912,1,0,0:0:0:0:
304,32,157115,1,0,0:0:0:0:
468,196,157317,1,0,0:0:0:0:
328,336,157520,1,0,0:0:0:0:
144,196,157723,1,0,0:0:0:0:
72,344,157925,1,0,0:0:0:0:
224,184,158128,1,0,0:0:0:0:
232,124,158229,1,0,0:0:0:0:
240,68,158331,6,0,P|312:40|384:48,1,140
272,316,158736,2,0,P|200:344|128:336,1,140
400,188,159142,2,0,P|428:260|420:332,1,140
112,196,159547,2,0,P|84:124|92:52,1,140
88,62,159851,1,0,0:0:0:0:
152,60,159952,5,0,0:0:0:0:
106,162,160155,1,0,0:0:0:0:
148,271,160358,1,0,0:0:0:0:
89,364,160561,1,0,0:0:0:0:
276,56,160763,5,0,0:0:0:0:
239,161,160966,1,0,0:0:0:0:
290,266,161169,1,0,0:0:0:0:
239,364,161372,1,0,0:0:0:0:
463,47,161574,6,0,L|444:126,1,70
481,166,161777,2,0,L|425:224,1,70
459,278,161979,2,0,L|381:301,1,70
354,357,162182,2,0,L|275:338,1,70
154,315,162385,1,0,0:0:0:0:
154,315,162588,1,0,0:0:0:0:
97,220,162790,5,0,0:0:0:0:
17,194,162892,1,0,0:0:0:0:
17,110,162993,1,0,0:0:0:0:
97,84,163094,1,0,0:0:0:0:
146,152,163196,5,0,0:0:0:0:
261,299,163398,1,0,0:0:0:0:
250,139,163601,1,0,0:0:0:0:
126,322,163804,1,0,0:0:0:0:
27,167,164006,1,0,0:0:0:0:
224,270,164209,1,0,0:0:0:0:
161,82,164412,1,0,0:0:0:0:
80,275,164615,1,0,0:0:0:0:
116,212,164716,1,0,0:0:0:0:
152,148,164817,6,0,P|180:68|232:28,1,140
372,244,165223,2,0,P|344:324|292:364,1,140
348,96,165628,2,0,P|428:124|468:176,1,140
160,280,166033,2,0,P|80:252|40:200,1,140
46,148,166338,1,0,0:0:0:0:
60,82,166439,5,0,0:0:0:0:
111,160,166642,1,0,0:0:0:0:
137,254,166844,1,0,0:0:0:0:
155,357,167047,1,0,0:0:0:0:
61,292,167250,5,0,0:0:0:0:
165,273,167453,1,0,0:0:0:0:
266,247,167655,1,0,0:0:0:0:
360,211,167858,1,0,0:0:0:0:
414,305,168061,6,0,L|447:236,1,70
378,154,168263,2,0,L|372:77,1,70
256,98,168466,2,0,L|212:34,1,70
131,107,168669,2,0,L|61:74,1,70
70,181,168871,5,0,0:0:0:0:
99,244,168972,1,0,0:0:0:0:
146,294,169073,1,0,0:0:0:0:
209,324,169175,1,0,0:0:0:0:
278,326,169276,1,0,0:0:0:0:
343,302,169377,1,0,0:0:0:0:
392,251,169479,1,0,0:0:0:0:
423,188,169580,1,0,0:0:0:0:
434,118,169682,1,0,0:0:0:0:
256,192,169783,12,0,172722,0:0:0:0:
376,128,172925,5,0,0:0:0:0:
256,192,173027,12,0,174345,0:0:0:0:
300,212,174547,5,0,0:0:0:0:
228,116,175763,1,0,0:0:0:0:
228,116,176169,1,0,0:0:0:0:
144,64,176574,2,0,L|138:113,1,35
256,192,176979,12,0,179006,0:0:0:0:
148,92,179412,5,0,0:0:0:0:
152,192,181033,1,0,0:0:0:0:
256,192,181135,12,0,182655,0:0:0:0:
