osu file format v14

[General]
AudioFilename: Mangekyou.mp3
AudioLeadIn: 0
PreviewTime: 65898
Countdown: 0
SampleSet: Normal
StackLeniency: 0.7
Mode: 0
LetterboxInBreaks: 1
WidescreenStoryboard: 1

[Editor]
Bookmarks: 27684,34576,40657,53630,66603,78871,92549,105522,118495,131468,137955,144440,169682,173630,175251,176468,176873,177278,177481,184981
DistanceSpacing: 1
BeatDivisor: 4
GridSize: 4
TimelineZoom: 1.4

[Metadata]
Title:Mangekyou
TitleUnicode:万華鏡
Artist:senya
ArtistUnicode:senya
Creator:Mattchanhew
Version:Hard
Source:東方Project
Tags:Kaleidoscope Touhou Alice Margatroid Yuuhei Satellite autobahn kamasetora ブクレシュティの人形師 the doll maker of bucuresti 造花であろうとした者 mayumi morinaga コミックマーケット90 comiket90 c90 Bukureshuti no Ningyoushi youyoumu perfect cherry blossom
BeatmapID:1594826
BeatmapSetID:536606

[Difficulty]
HPDrainRate:5
CircleSize:3.5
OverallDifficulty:5
ApproachRate:7.5
SliderMultiplier:1.4
SliderTickRate:1

[Events]
//Background and Video events
0,0,"Alice.Margatroid.full.163385.jpg",0,0
//Break Periods
2,130963,136425
//Storyboard Layer 0 (Background)
//Storyboard Layer 1 (Fail)
//Storyboard Layer 2 (Pass)
//Storyboard Layer 3 (Foreground)
//Storyboard Sound Samples

[TimingPoints]
1034,405.405405405405,4,1,0,40,1,0
1135,-100,4,1,0,40,0,0
4074,-100,4,1,0,5,0,0
4277,-100,4,1,0,40,0,0
5696,-100,4,1,0,5,0,0
5898,-100,4,1,0,40,0,0
26979,-100,4,1,0,60,0,0
39952,-100,4,1,0,60,0,0
52925,-125,4,3,0,60,0,0
65898,-100,4,1,0,70,0,1
91844,-100,4,1,0,60,0,0
104817,-100,4,1,0,60,0,0
117790,-125,4,3,0,60,0,0
137250,-100,4,3,0,100,0,0
143736,-100,4,1,0,100,0,1
169682,-100,4,1,0,40,0,0
172722,-100,4,1,0,5,0,0
172925,-100,4,1,0,40,0,0
174344,-100,4,1,0,5,0,0
174547,-100,4,1,0,40,0,0
179006,-100,4,1,0,5,0,0
184277,-100,4,1,0,5,0,0
185493,-100,4,1,0,5,0,0

[HitObjects]
88,84,1034,5,0,0:0:0:0:
256,192,1135,12,0,4074,0:0:0:0:
368,80,4277,5,0,0:0:0:0:
386,163,5898,1,0,0:0:0:0:
84,271,7115,1,0,0:0:0:0:
151,289,7520,1,0,0:0:0:0:
217,310,7925,2,0,L|292:344,1,70
256,192,8331,12,0,10358,0:0:0:0:
389,250,10763,5,0,0:0:0:0:
327,201,12385,1,0,0:0:0:0:
265,140,13601,1,0,0:0:0:0:
204,104,14006,6,0,L|136:132,3,70
68,124,14817,2,0,L|36:192,3,70
88,236,15628,2,0,L|80:316,3,70
152,316,16439,2,0,L|183:389,3,70
216,272,17250,6,0,L|232:180,3,70
284,244,18061,2,0,L|268:336,3,70
340,292,18871,2,0,L|356:200,3,70
408,268,19682,2,0,L|428:185,1,70
496,212,20088,2,0,L|516:129,1,70
448,120,20493,6,0,L|468:52,3,70
376,104,21304,2,0,L|396:37,3,70
325,24,22115,2,0,L|308:92,1,70
220,36,22520,2,0,L|202:103,1,70
112,49,22925,2,0,L|94:116,1,70
17,46,23331,2,0,L|0:113,1,70
18,202,23736,5,0,0:0:0:0:
87,261,23939,1,0,0:0:0:0:
175,282,24142,2,0,P|237:264|260:239,1,70
290,185,24547,1,0,0:0:0:0:
359,126,24750,1,0,0:0:0:0:
447,105,24952,2,0,P|509:123|532:148,1,70
483,212,25358,5,0,0:0:0:0:
439,292,25561,1,0,0:0:0:0:
352,320,25763,1,0,0:0:0:0:
273,273,25966,1,0,0:0:0:0:
355,235,26169,2,0,L|404:212,3,35
345,201,26574,2,0,L|386:166,3,35
344,141,26979,6,0,P|297:58|239:50,1,140
176,99,27588,2,0,P|163:136|183:190,1,70
233,228,27993,2,0,P|288:233|319:204,1,70
372,172,28398,6,0,P|416:148|458:159,1,70
489,221,28804,2,0,P|513:265|502:307,1,70
477,368,29209,1,0,0:0:0:0:
386,377,29412,1,0,0:0:0:0:
307,331,29615,2,0,P|267:286|265:259,1,70
279,188,30020,1,0,0:0:0:0:
366,225,30223,6,0,L|285:94,1,140
242,29,30831,1,0,0:0:0:0:
151,37,31033,2,0,P|166:96|188:118,1,70
103,163,31439,2,0,P|145:206|175:214,1,70
242,191,31844,6,0,L|291:330,1,140
198,339,32452,2,0,P|184:292|139:273,1,70
96,340,32858,2,0,P|57:307|54:261,1,70
23,202,33263,1,0,0:0:0:0:
30,107,33466,6,0,P|93:48|164:36,1,140
231,59,34074,2,0,L|242:134,1,70
330,109,34479,2,0,L|319:184,1,70
397,226,34885,6,0,P|364:265|324:274,1,70
348,362,35290,2,0,P|297:352|269:322,1,70
222,273,35696,1,0,0:0:0:0:
183,191,35898,1,0,0:0:0:0:
158,103,36101,2,0,P|168:56|197:30,1,70
249,101,36506,1,0,0:0:0:0:
324,156,36709,6,0,P|269:194|176:164,1,140
156,103,37317,2,0,L|112:22,1,70
31,46,37723,2,0,L|64:107,1,70
117,181,38128,1,0,0:0:0:0:
189,236,38331,6,0,P|134:274|41:244,1,140
30,179,38939,1,0,0:0:0:0:
57,92,39142,2,0,P|100:45|127:38,1,70
148,123,39547,1,0,0:0:0:0:
224,171,39750,1,0,0:0:0:0:
224,171,39851,1,0,0:0:0:0:
224,171,39952,6,0,P|241:247|309:285,1,140
332,376,40561,2,0,P|376:352|392:304,1,70
476,280,40966,2,0,P|477:229|443:192,1,70
452,108,41371,2,0,L|392:156,1,70
292,136,41777,2,0,L|346:92,1,70
252,48,42182,5,0,0:0:0:0:
151,78,42385,1,0,0:0:0:0:
75,151,42588,1,0,0:0:0:0:
47,252,42790,1,0,0:0:0:0:
34,356,42993,1,0,0:0:0:0:
34,356,43094,1,0,0:0:0:0:
34,356,43196,6,0,L|182:309,1,140
266,278,43804,1,0,0:0:0:0:
362,238,44006,1,0,0:0:0:0:
345,341,44209,2,0,P|391:356|430:345,1,70
472,266,44615,1,0,0:0:0:0:
472,266,44716,1,0,0:0:0:0:
472,266,44817,6,0,L|483:122,1,140
477,21,45425,2,0,P|417:36|396:65,1,70
337,114,45831,1,0,0:0:0:0:
233,96,46033,1,0,0:0:0:0:
137,51,46236,1,0,0:0:0:0:
137,51,46338,1,0,0:0:0:0:
137,51,46439,6,0,P|67:82|36:160,1,140
33,240,47047,2,0,P|85:231|106:206,1,70
186,274,47452,2,0,P|204:224|193:193,1,70
293,158,47858,2,0,P|274:108|285:77,1,70
382,107,48263,2,0,P|415:66|447:60,1,70
468,160,48669,2,0,P|486:209|475:240,1,70
379,211,49074,2,0,P|345:251|313:257,1,70
230,288,49479,1,0,0:0:0:0:
230,288,49581,1,0,0:0:0:0:
230,288,49682,6,0,P|169:327|84:291,1,140
152,220,50290,1,0,0:0:0:0:
48,208,50493,2,0,P|64:164|100:136,1,70
80,44,50898,2,0,P|126:35|168:53,1,70
248,76,51304,5,0,0:0:0:0:
352,92,51506,1,0,0:0:0:0:
448,136,51709,1,0,0:0:0:0:
500,228,51912,1,0,0:0:0:0:
424,300,52115,2,0,L|392:332,3,35
352,300,52520,2,0,L|329:339,3,35
292,332,52925,6,0,B|164:360|208:216|84:248,1,224
20,248,53939,1,0,0:0:0:0:
20,164,54142,2,0,L|40:96,1,56
112,144,54547,2,0,L|132:76,1,56
208,116,54952,2,0,L|228:48,1,56
308,52,55358,2,0,P|400:56|440:136,1,168
356,128,56169,6,0,B|384:256|240:212|272:336,1,224
352,312,57182,1,0,0:0:0:0:
292,368,57385,2,0,L|224:348,1,56
168,308,57790,2,0,L|100:288,1,56
76,216,58196,2,0,L|8:196,1,56
0,264,58601,2,0,P|4:172|84:132,1,168
144,112,59412,6,0,L|256:80,2,112
172,192,60425,1,0,0:0:0:0:
104,240,60628,2,0,P|136:276|160:280,1,56
224,264,61033,2,0,P|271:254|286:235,1,56
332,188,61439,2,0,P|347:142|338:119,1,56
428,124,61844,2,0,P|360:60|288:76,1,168
209,67,62655,6,0,L|80:91,1,112
63,163,63263,1,0,0:0:0:0:
38,244,63466,2,0,L|159:247,1,112
179,325,64074,1,0,0:0:0:0:
255,360,64277,6,0,L|305:316,1,56
380,310,64682,2,0,L|401:246,1,56
399,173,65088,1,0,0:0:0:0:
356,101,65290,1,0,0:0:0:0:
281,62,65493,5,0,0:0:0:0:
240,60,65594,1,0,0:0:0:0:
196,65,65696,1,0,0:0:0:0:
156,72,65797,1,0,0:0:0:0:
108,92,65898,6,0,L|89:182,1,70
187,188,66304,2,0,L|206:278,1,70
106,300,66709,1,0,0:0:0:0:
197,352,66912,1,0,0:0:0:0:
289,301,67115,2,0,P|337:272|371:273,1,70
399,287,67419,1,0,0:0:0:0:
442,316,67520,6,0,L|478:238,1,70
335,219,67925,2,0,L|299:141,1,70
441,117,68331,2,0,L|477:39,1,70
330,63,68736,2,0,L|294:-15,1,70
172,57,69142,6,0,P|124:57|89:93,1,70
163,156,69547,2,0,P|129:189|129:240,1,70
20,194,69952,2,0,P|20:242|56:277,1,70
129,220,70358,2,0,P|162:253|213:253,1,70
99,322,70763,5,0,0:0:0:0:
200,348,70966,1,0,0:0:0:0:
301,321,71169,1,0,0:0:0:0:
382,254,71371,1,0,0:0:0:0:
499,190,71574,5,0,0:0:0:0:
419,82,71777,1,0,0:0:0:0:
354,197,71979,1,0,0:0:0:0:
424,163,72182,1,0,0:0:0:0:
424,163,72283,1,0,0:0:0:0:
424,163,72385,6,0,L|353:101,1,70
267,136,72790,2,0,L|182:94,1,70
98,107,73196,1,0,0:0:0:0:
32,188,73398,1,0,0:0:0:0:
79,281,73601,1,0,0:0:0:0:
184,284,73804,1,0,0:0:0:0:
206,236,73905,1,0,0:0:0:0:
231,190,74006,6,0,P|256:143|249:100,1,70
420,210,74412,2,0,P|400:182|395:148,1,70
239,232,74817,2,0,P|264:185|257:142,1,70
428,253,75223,2,0,P|407:224|402:190,1,70
438,70,75628,5,0,0:0:0:0:
315,40,75831,1,0,0:0:0:0:
191,60,76033,1,0,0:0:0:0:
76,112,76236,1,0,0:0:0:0:
156,179,76439,5,0,0:0:0:0:
253,140,76642,1,0,0:0:0:0:
357,144,76844,1,0,0:0:0:0:
453,184,77047,1,0,0:0:0:0:
445,288,77250,6,0,P|421:257|368:239,1,70
348,337,77655,1,0,0:0:0:0:
269,267,77858,1,0,0:0:0:0:
172,309,78061,6,0,L|124:228,1,70
85,234,78365,1,0,0:0:0:0:
85,234,78466,2,0,L|60:172,1,35
84,117,78669,1,0,0:0:0:0:
84,117,78770,1,0,0:0:0:0:
84,117,78871,6,0,L|175:71,1,70
229,151,79277,2,0,L|320:105,1,70
381,42,79682,1,0,0:0:0:0:
471,96,79885,1,0,0:0:0:0:
493,198,80088,1,0,0:0:0:0:
474,300,80290,1,0,0:0:0:0:
427,325,80392,1,0,0:0:0:0:
375,332,80493,6,0,L|305:353,1,70
312,214,80898,2,0,L|242:193,1,70
208,328,81304,2,0,L|136:342,1,70
142,189,81709,2,0,L|70:174,1,70
43,299,82115,5,0,0:0:0:0:
13,198,82317,1,0,0:0:0:0:
55,101,82520,1,0,0:0:0:0:
146,49,82723,1,0,0:0:0:0:
168,151,82925,5,0,0:0:0:0:
240,73,83128,1,0,0:0:0:0:
345,61,83331,1,0,0:0:0:0:
436,114,83533,1,0,0:0:0:0:
339,155,83736,5,0,0:0:0:0:
442,178,83939,1,0,0:0:0:0:
505,263,84142,1,0,0:0:0:0:
505,368,84344,1,0,0:0:0:0:
416,310,84547,2,0,P|383:279|333:283,1,70
257,297,84952,5,0,0:0:0:0:
226,254,85054,1,0,0:0:0:0:
196,210,85155,1,0,0:0:0:0:
167,166,85256,1,0,0:0:0:0:
137,122,85358,6,0,P|130:71|147:36,1,70
259,142,85763,2,0,P|265:90|290:61,1,70
379,193,86169,2,0,P|398:145|430:123,1,70
447,268,86574,1,0,0:0:0:0:
362,336,86777,1,0,0:0:0:0:
314,345,86878,1,0,0:0:0:0:
266,335,86979,6,0,L|328:264,1,70
171,229,87385,2,0,L|257:206,1,70
190,85,87790,2,0,L|276:108,1,70
295,0,88196,2,0,L|358:64,1,70
467,86,88601,6,0,P|487:126|466:174,1,70
373,206,89006,2,0,P|353:166|374:118,1,70
485,151,89412,1,0,0:0:0:0:
468,247,89615,1,0,0:0:0:0:
392,309,89817,1,0,0:0:0:0:
295,327,90020,1,0,0:0:0:0:
196,322,90223,6,0,L|107:298,1,70
68,225,90628,1,0,0:0:0:0:
163,203,90831,1,0,0:0:0:0:
240,262,91033,6,0,L|269:176,1,70
305,170,91338,1,0,0:0:0:0:
305,170,91439,2,0,L|320:127,1,35
260,75,91642,1,0,0:0:0:0:
260,75,91743,1,0,0:0:0:0:
260,75,91844,6,0,P|193:45|105:80,1,140
188,138,92452,2,0,L|169:225,1,70
108,280,92858,2,0,P|143:302|196:291,1,70
284,308,93263,6,0,L|269:225,1,70
363,181,93669,2,0,L|382:263,1,70
438,327,94074,1,0,0:0:0:0:
498,250,94277,1,0,0:0:0:0:
488,152,94479,2,0,P|427:150|405:166,1,70
323,167,94885,1,0,0:0:0:0:
228,215,95088,6,0,P|171:251|71:234,1,140
149,154,95696,1,0,0:0:0:0:
247,149,95898,2,0,P|243:183|227:214,1,70
128,147,96304,2,0,P|131:181|147:212,1,70
247,249,96709,6,0,L|297:90,1,140
375,102,97317,2,0,P|366:64|316:36,1,70
245,33,97723,2,0,P|220:57|214:91,1,70
190,175,98128,1,0,0:0:0:0:
94,153,98331,6,0,P|76:225|104:304,1,140
194,346,98939,2,0,L|205:271,1,70
306,332,99344,2,0,L|295:257,1,70
387,218,99750,6,0,P|415:251|460:266,1,70
467,168,100155,2,0,P|445:140|415:123,1,70
317,123,100561,1,0,0:0:0:0:
286,215,100763,1,0,0:0:0:0:
344,293,100966,2,0,P|376:328|415:335,1,70
494,339,101371,1,0,0:0:0:0:
460,246,101574,6,0,P|463:179|388:116,1,140
338,66,102182,2,0,L|272:110,1,70
198,48,102588,2,0,L|158:112,1,70
111,192,102993,1,0,0:0:0:0:
189,236,103196,6,0,P|134:274|41:244,1,140
30,179,103804,1,0,0:0:0:0:
57,92,104006,2,0,P|100:45|127:38,1,70
144,133,104412,1,0,0:0:0:0:
202,213,104615,1,0,0:0:0:0:
202,213,104716,1,0,0:0:0:0:
202,213,104817,6,0,P|238:141|311:129,1,140
329,45,105425,2,0,P|371:63|388:101,1,70
471,70,105831,2,0,P|472:121|438:158,1,70
373,178,106236,2,0,L|422:242,1,70
301,251,106642,2,0,L|252:187,1,70
324,133,107047,5,0,0:0:0:0:
243,90,107250,1,0,0:0:0:0:
177,176,107452,1,0,0:0:0:0:
100,128,107655,1,0,0:0:0:0:
35,58,107858,1,0,0:0:0:0:
35,58,107959,1,0,0:0:0:0:
35,58,108061,6,0,L|11:209,1,140
105,233,108669,1,0,0:0:0:0:
38,303,108871,1,0,0:0:0:0:
133,336,109074,2,0,P|168:352|218:340,1,70
301,335,109479,1,0,0:0:0:0:
301,335,109581,1,0,0:0:0:0:
301,335,109682,6,0,L|312:191,1,140
414,208,110290,2,0,L|416:127,1,70
392,42,110696,1,0,0:0:0:0:
295,28,110898,1,0,0:0:0:0:
243,111,111101,1,0,0:0:0:0:
243,111,111202,1,0,0:0:0:0:
243,110,111304,6,0,P|269:182|344:219,1,140
402,268,111912,2,0,L|422:350,1,70
287,365,112317,2,0,L|303:296,1,70
215,252,112723,2,0,P|200:222|207:171,1,70
104,177,113128,2,0,P|106:143|137:102,1,70
53,57,113533,2,0,P|71:29|119:9,1,70,0|0,0:3|0:3,0:3:0:0:
189,58,113939,1,0,0:0:0:0:
282,28,114142,1,0,0:0:0:0:
383,69,114344,1,0,0:0:0:0:
383,69,114446,1,0,0:0:0:0:
383,69,114547,6,0,L|431:204,1,140
433,290,115155,1,0,0:0:0:0:
330,283,115358,2,0,L|368:369,1,70
248,352,115763,2,0,L|224:286,1,70
121,326,116169,5,0,0:0:0:0:
63,247,116371,1,0,0:0:0:0:
67,148,116574,1,0,0:0:0:0:
128,71,116777,1,0,0:0:0:0:
222,46,116979,1,0,0:0:0:0:
319,58,117182,1,0,0:0:0:0:
409,124,117385,5,0,0:0:0:0:
376,137,117486,1,0,0:0:0:0:
344,150,117588,1,0,0:0:0:0:
311,163,117689,1,0,0:0:0:0:
276,177,117790,6,0,B|147:175|214:87|87:60,1,224
96,62,118804,1,0,0:0:0:0:
44,140,119006,2,0,L|101:178,1,56
47,237,119412,2,0,L|115:241,1,56
109,318,119817,2,0,L|170:287,1,56
115,230,120223,2,0,P|212:220|223:318,1,196
167,279,121033,6,0,B|296:277|229:189|356:162,1,224
346,164,122047,1,0,0:0:0:0:
411,118,122250,2,0,L|397:37,1,56
313,102,122655,2,0,L|327:21,1,56
230,117,123061,2,0,L|216:36,1,56
136,37,123466,2,0,B|111:118|111:118|125:149|125:149|107:226,1,196
38,248,124277,6,0,B|113:343|167:231|254:298,1,224
243,291,125290,1,0,0:0:0:0:
343,278,125493,2,0,L|366:343,1,56
380,207,125898,2,0,L|432:251,1,56
378,131,126304,2,0,L|445:143,1,56
371,56,126709,2,0,P|313:85|342:202,1,196
400,213,127520,6,0,P|427:276|394:330,1,112
275,311,128331,2,0,P|260:258|287:210,1,112
405,213,129142,5,0,0:0:0:0:
409,316,129547,1,0,0:0:0:0:
283,313,129952,1,0,0:0:0:0:
211,277,130155,1,0,0:0:0:0:
158,213,130358,5,0,0:0:0:0:
158,213,130459,1,0,0:0:0:0:
158,213,130561,1,0,0:0:0:0:
158,213,130662,1,0,0:0:0:0:
158,213,130763,1,0,0:0:0:0:
202,166,137250,5,0,0:0:0:0:
345,212,138871,5,0,0:0:0:0:
193,230,140493,5,0,0:0:0:0:
259,186,141304,1,0,0:0:0:0:
320,114,142115,5,0,0:0:0:0:
364,177,142520,1,0,0:0:0:0:
401,243,142925,1,0,0:0:0:0:
401,243,143027,1,0,0:0:0:0:
401,243,143128,2,0,L|386:308,1,35
312,214,143331,5,0,0:0:0:0:
291,241,143432,1,0,0:0:0:0:
259,256,143533,1,0,0:0:0:0:
224,261,143635,1,0,0:0:0:0:
189,261,143736,6,0,P|149:243|118:197,1,70
