osu file format v14

[General]
AudioFilename: audio.mp3
AudioLeadIn: 0
PreviewTime: 47776
Countdown: 0
SampleSet: Soft
StackLeniency: 0.4
Mode: 0
LetterboxInBreaks: 0
WidescreenStoryboard: 0

[Editor]
DistanceSpacing: 1.32
BeatDivisor: 4
GridSize: 32
TimelineZoom: 1

[Metadata]
Title:Kowareta Unmei o Tsumuide
TitleUnicode:壊れた運命を紡いで
Artist:senya
ArtistUnicode:senya
Creator:Satellite
Version:Dored's Lunatic
Source:東方妖々夢 ~ Perfect Cherry Blossom.
Tags:東方Project touhou 幽閉サテライト yuuhei 広有射怪鳥事 ~ Till When? Emingk zun 半分幻の庭師 魂魄 妖夢 Konpaku Youmu 上海アリス幻樂団 かませ虎 kamase-tora 雅‐MIYABI‐Singles Best vol.7~明鏡止水~ 今、誰が為のかがり火へ 神奈森ユウ HiZuMi dagger-gazel video game japanese OJT osu! tournament Shirasaka Koume rollpan Karen gazimal Dored Len Fast Arugakente Kenterz Kenterz9 th07 pcb Hiroari Shoots a Strange Bird kechou o iru koto
BeatmapID:2009330
BeatmapSetID:935811

[Difficulty]
HPDrainRate:6
CircleSize:4
OverallDifficulty:8
ApproachRate:9
SliderMultiplier:1.8
SliderTickRate:1

[Events]
//Background and Video events
0,0,"BBGG.jpg",0,0
//Break Periods
2,182884,190973
//Storyboard Layer 0 (Background)
//Storyboard Layer 1 (Fail)
//Storyboard Layer 2 (Pass)
//Storyboard Layer 3 (Foreground)
//Storyboard Layer 4 (Overlay)
//Storyboard Sound Samples

[TimingPoints]
462,370.37037037037,4,2,1,55,1,0
462,-125,4,2,1,55,0,0
3424,-125,4,2,1,45,0,0
3795,-125,4,2,1,50,0,0
4165,-125,4,2,1,55,0,0
4536,-125,4,2,1,60,0,0
4906,-111.111111111111,4,2,1,70,0,0
6387,-100,4,2,2,70,0,0
6758,-100,4,2,1,70,0,0
12313,-200,4,2,1,70,0,0
12499,-200,4,2,1,55,0,0
13054,-200,4,2,2,55,0,0
13239,-200,4,2,1,55,0,0
18980,-200,4,2,2,55,0,0
19165,-200,4,2,1,55,0,0
23702,-200,4,2,1,5,0,0
23795,-83.3333333333333,4,2,2,55,0,0
24073,-83.3333333333333,4,2,2,5,0,0
24165,-111.111111111111,4,2,2,65,0,0
24350,-111.111111111111,4,2,1,65,0,0
36017,-125,4,2,1,65,0,0
36758,-125,4,2,1,55,0,0
41943,-111.111111111111,4,2,1,60,0,0
44906,-100,4,2,1,70,0,0
47869,-90.9090909090909,4,2,1,85,0,1
53424,-200,4,2,1,85,0,1
53795,-90.9090909090909,4,2,1,85,0,1
71573,-100,4,2,2,85,0,0
71943,-100,4,2,1,75,0,0
76017,-100,4,2,1,80,0,0
77869,-100,4,2,1,70,0,0
78980,-100,4,2,1,80,0,0
80461,-100,4,2,1,70,0,0
83424,-111.111111111111,4,2,2,70,0,0
83610,-111.111111111111,4,2,1,65,0,0
107128,-125,4,2,1,65,0,0
107684,-125,4,2,1,55,0,0
113054,-111.111111111111,4,2,1,60,0,0
117499,-111.111111111111,4,2,1,45,0,0
117869,-111.111111111111,4,2,1,50,0,0
118239,-111.111111111111,4,2,1,55,0,0
118610,-111.111111111111,4,2,1,60,0,0
118980,-111.111111111111,4,2,1,65,0,0
119258,-111.111111111111,4,2,1,5,0,0
119350,-100,4,2,1,65,0,0
119628,-100,4,2,1,5,0,0
119721,-90.9090909090909,4,2,1,65,0,0
119999,-90.9090909090909,4,2,1,5,0,0
120091,-83.3333333333333,4,2,1,65,0,0
120369,-83.3333333333333,4,2,1,5,0,0
120461,-90.9090909090909,4,2,1,85,0,1
126017,-200,4,2,1,85,0,1
126387,-90.9090909090909,4,2,1,85,0,1
144165,-90.9090909090909,4,2,2,85,0,0
144258,-90.9090909090909,4,2,1,80,0,0
150091,-90.9090909090909,4,2,2,80,0,0
150184,-90.9090909090909,4,2,1,80,0,0
156017,-90.9090909090909,4,2,2,80,0,0
156110,-90.9090909090909,4,2,1,80,0,0
164906,-90.9090909090909,4,2,2,80,0,0
165184,-90.9090909090909,4,2,1,80,0,0
170832,-125,4,2,2,80,0,0
170924,-125,4,2,1,60,0,0
176758,-111.111111111111,4,2,1,60,0,0
179721,-100,4,2,2,75,0,0
179906,-100,4,2,1,75,0,0
181017,-100,4,2,2,75,0,0
182684,-100,4,2,1,75,0,0
182776,-100,4,2,1,50,0,0
191573,-111.111111111111,4,2,1,50,0,0
194536,-111.111111111111,4,2,1,60,0,0
194813,-111.111111111111,4,2,1,5,0,0
194906,-100,4,2,1,60,0,0
195184,-100,4,2,1,5,0,0
195276,-90.9090909090909,4,2,1,60,0,0
195554,-90.9090909090909,4,2,1,5,0,0
195647,-83.3333333333333,4,2,1,60,0,0
195924,-83.3333333333333,4,2,1,5,0,0
196017,-90.9090909090909,4,2,1,84,0,1
207869,-100,4,2,1,80,0,0
212313,-90.9090909090909,4,2,1,80,0,0
224165,-90.9090909090909,4,2,1,60,0,0
224906,-90.9090909090909,4,2,1,40,0,0
225276,-90.9090909090909,4,2,1,5,0,0

[Colours]
Combo1 : 128,128,192
Combo2 : 91,136,55
Combo3 : 128,128,255
Combo4 : 106,213,0

[HitObjects]
224,64,462,6,0,B|104:74|104:74|123:89,1,144,4|0,3:2|0:0,0:0:0:0:
68,231,1017,1,2,0:0:0:0:
68,231,1110,1,2,0:0:0:0:
68,231,1202,2,0,L|61:159,1,72,2|0,0:0|0:0,0:0:0:0:
226,168,1573,2,0,L|154:174,1,72,2|0,0:0|0:0,0:0:0:0:
127,318,1943,6,0,L|270:330,1,144,2|0,0:0|0:0,0:0:0:0:
329,227,2499,1,2,0:0:0:0:
384,310,2684,2,0,L|377:381,1,72,2|2,0:0|0:0,0:0:0:0:
476,250,3054,2,0,L|482:321,1,72,2|2,0:0|0:0,0:0:0:0:
329,227,3424,6,0,P|306:160|342:101,1,144,2|2,0:0|0:0,0:0:0:0:
443,18,3980,1,2,0:0:0:0:
296,32,4165,2,0,L|224:38,1,72,2|0,0:0|0:0,0:0:0:0:
388,170,4536,2,0,L|459:163,1,72,2|0,0:0|0:0,0:0:0:0:
270,284,4906,6,0,P|211:291|162:256,1,121.499996292114,6|0,3:2|0:0,0:0:0:0:
230,209,5276,2,0,L|236:129,1,80.9999975280763,6|0,3:2|0:0,0:0:0:0:
99,99,5647,2,0,L|88:220,1,121.499996292114,6|0,3:2|0:0,0:0:0:0:
95,301,6017,2,0,L|15:307,1,80.9999975280763,6|0,3:2|0:0,0:0:0:0:
230,208,6387,6,0,P|317:214|353:292,1,180,6|8,3:2|3:2,0:0:0:0:
459,162,6943,1,0,0:0:0:0:
352,34,7128,2,0,P|355:78|358:123,1,90,0|0,3:2|0:0,0:0:0:0:
459,162,7406,1,2,0:2:0:0:
459,162,7499,2,0,P|456:206|453:251,1,90,8|0,3:2|0:0,0:0:0:0:
276,373,7869,6,0,P|273:328|269:283,1,90,6|2,3:2|3:2,0:0:0:0:
175,321,8147,1,2,3:2:0:0:
175,321,8239,2,0,P|138:295|95:300,1,90,6|2,3:2|0:0,0:0:0:0:
190,221,8517,1,2,3:2:0:0:
190,221,8610,2,0,P|215:184|210:141,1,90,6|2,3:2|0:0,0:0:0:0:
159,6,8980,1,2,3:2:0:0:
31,157,9165,1,2,3:2:0:0:
31,157,9258,1,2,0:0:0:0:
31,157,9350,6,0,P|120:148|210:141,1,180,4|8,3:2|3:2,0:0:0:0:
352,34,9906,1,2,0:0:0:0:
353,199,10091,2,0,P|318:169|312:127,1,90,4|0,3:2|0:0,0:0:0:0:
352,34,10369,1,2,0:0:0:0:
352,34,10461,2,0,P|396:37|441:40,1,90,8|2,3:2|0:0,0:0:0:0:
512,155,10832,6,0,P|508:177|504:199,3,45,6|0|2|2,3:2|0:0|0:0|0:0,0:0:0:0:
428,274,11202,2,0,P|431:296|435:318,3,45,2|2|2|2,0:0|0:0|0:0|0:0,0:0:0:0:
351,380,11573,5,2,0:0:0:0:
326,360,11665,1,2,0:0:0:0:
295,349,11758,1,2,0:0:0:0:
262,349,11850,1,2,0:0:0:0:
230,360,11943,2,0,L|185:363,1,45,10|10,0:0|0:0,0:0:0:0:
118,256,12128,2,0,L|163:259,1,45,10|10,0:0|0:0,0:0:0:0:
264,211,12313,5,4,3:2:0:0:
60,368,13054,1,2,0:0:0:0:
60,368,13795,5,2,0:0:0:0:
33,283,14165,1,0,0:0:0:0:
137,168,14536,1,0,0:0:0:0:
118,256,14906,1,0,0:0:0:0:
22,64,15276,5,0,0:0:0:0:
22,64,16017,1,2,0:0:0:0:
223,141,16758,5,2,0:0:0:0:
223,141,17499,1,2,0:0:0:0:
137,168,17869,1,2,0:0:0:0:
271,290,18239,5,2,0:0:0:0:
329,27,18980,1,2,0:0:0:0:
329,27,19721,5,2,0:0:0:0:
417,47,20091,1,0,0:0:0:0:
464,197,20461,1,2,0:0:0:0:
397,135,20832,1,0,0:0:0:0:
326,324,21202,6,0,B|316:310|298:301|298:301|398:318|492:285|492:285|475:298|468:315,1,270,2|2,0:0|0:0,0:0:0:0:
333,229,22684,2,0,P|227:267|262:373,1,247.5,2|2,0:0|0:0,0:0:0:0:
299,302,23795,6,0,L|137:302,1,161.999995056153,4|0,0:0|0:0,0:0:0:0:
112,322,24165,5,4,3:2:0:0:
16,212,24350,2,0,L|22:291,1,80.9999975280763,2|10,0:0|3:2,0:0:0:0:
121,176,24721,1,2,0:0:0:0:
85,71,24906,2,0,L|5:77,1,80.9999975280763,2|2,3:2|0:0,0:0:0:0:
226,140,25276,1,10,3:2:0:0:
121,176,25461,1,2,0:0:0:0:
190,35,25647,6,0,P|230:39|270:43,1,80.9999975280763,2|2,3:2|0:0,0:0:0:0:
383,90,25924,1,2,0:0:0:0:
383,90,26017,2,0,P|423:85|463:81,1,80.9999975280763,8|2,3:2|0:0,0:0:0:0:
339,187,26387,1,0,3:0:0:0:
454,256,26573,1,2,0:0:0:0:
454,256,26665,1,2,0:0:0:0:
454,256,26758,2,0,P|449:216|445:176,1,80.9999975280763,10|0,3:2|0:0,0:0:0:0:
385,371,27128,6,0,L|465:377,2,80.9999975280763,2|2|10,3:2|0:0|3:2,0:0:0:0:
329,267,27684,1,2,0:0:0:0:
220,344,27869,2,0,P|215:303|210:263,1,80.9999975280763,2|2,3:2|0:0,0:0:0:0:
338,186,28239,2,0,P|333:226|329:266,1,80.9999975280763,10|2,3:2|0:0,0:0:0:0:
208,114,28610,6,0,P|200:55|235:6,2,121.499996292114,2|2|2,3:2|0:0|0:0,0:0:0:0:
360,85,29350,2,0,L|280:76,1,80.9999975280763,10|8,3:2|0:0,0:0:0:0:
123,35,29721,1,10,3:2:0:0:
279,75,29906,1,8,3:2:0:0:
97,148,30091,5,4,3:2:0:0:
178,290,30276,2,0,L|184:210,1,80.9999975280763,2|10,0:0|3:2,0:0:0:0:
26,251,30647,1,2,0:0:0:0:
184,209,30832,2,0,P|224:214|264:218,1,80.9999975280763,2|2,3:2|0:0,0:0:0:0:
377,267,31202,1,10,3:2:0:0:
476,194,31387,1,2,0:0:0:0:
387,348,31573,6,0,P|382:307|377:267,1,80.9999975280763,2|2,3:2|0:0,0:0:0:0:
476,194,31850,1,2,0:0:0:0:
476,194,31943,2,0,P|481:153|486:113,1,80.9999975280763,8|2,3:2|0:0,0:0:0:0:
443,0,32313,1,0,3:2:0:0:
327,86,32499,1,2,0:0:0:0:
327,86,32591,1,2,0:0:0:0:
327,86,32684,2,0,P|367:81|407:76,1,80.9999975280763,10|2,3:2|0:0,0:0:0:0:
225,20,33054,6,0,P|176:54|117:47,1,121.499996292114,2|2,3:2|0:0,0:0:0:0:
85,39,33424,2,0,P|90:79|94:119,1,80.9999975280763,8|2,3:2|0:0,0:0:0:0:
138,233,33795,1,2,3:2:0:0:
218,141,33980,1,2,0:0:0:0:
59,198,34165,2,0,P|29:224|22:263,1,80.9999975280763,10|2,3:2|0:0,0:0:0:0:
168,338,34536,6,0,P|163:298|159:258,1,80.9999975280763,2|0,3:2|3:2,0:0:0:0:
138,233,34813,1,2,0:0:0:0:
138,233,34906,1,0,3:2:0:0:
218,141,35091,1,2,3:2:0:0:
303,331,35276,2,0,P|298:291|294:251,1,80.9999975280763,8|8,3:2|3:2,0:0:0:0:
218,141,35647,1,8,3:2:0:0:
298,49,35832,1,8,3:2:0:0:
85,39,36017,5,4,3:2:0:0:
85,39,36758,2,0,B|57:30|37:10|37:10|57:171,1,216,2|0,0:0|0:0,0:0:0:0:
101,244,37499,2,0,L|29:250,1,72,2|0,0:0|0:0,0:0:0:0:
144,169,37869,1,2,0:0:0:0:
144,318,38054,2,0,L|0:330,1,144,2|2,0:0|0:0,0:0:0:0:
187,243,38610,2,0,L|258:249,1,72,2|0,0:0|0:0,0:0:0:0:
310,351,38980,5,2,0:0:0:0:
352,340,39350,1,2,0:0:0:0:
402,208,39721,5,2,0:0:0:0:
360,197,40091,1,2,0:0:0:0:
471,372,40461,6,0,P|429:286|351:339,2,216,2|2|2,0:0|0:0|0:0,0:0:0:0:
402,208,41943,6,0,P|409:127|415:46,1,161.999995056153,6|0,3:2|0:0,0:0:0:0:
498,125,42499,1,0,3:2:0:0:
322,109,42684,2,0,P|282:105|242:101,1,80.9999975280763,0|2,0:0|0:0,0:0:0:0:
277,228,43054,1,2,3:2:0:0:
402,208,43239,1,2,0:0:0:0:
358,360,43424,6,0,P|354:320|350:280,1,80.9999975280763,2|0,3:2|0:0,0:0:0:0:
277,228,43702,1,0,0:0:0:0:
277,228,43795,2,0,P|237:225|204:247,1,80.9999975280763,2|0,0:0|3:2,0:0:0:0:
80,338,44165,2,0,P|119:340|152:318,1,80.9999975280763,2|0,0:0|3:2,0:0:0:0:
116,238,44443,1,0,0:0:0:0:
116,238,44536,2,0,P|76:242|36:246,1,80.9999975280763,2|2,0:0|0:0,0:0:0:0:
240,325,44906,5,14,3:2:0:0:
145,141,45091,1,8,3:2:0:0:
150,125,45461,5,10,3:2:0:0:
80,338,45647,1,10,3:2:0:0:
155,109,45832,1,2,0:0:0:0:
240,325,46017,1,10,3:2:0:0:
315,96,46202,2,0,P|359:99|404:102,1,90,10|0,3:2|0:0,0:0:0:0:
489,220,46573,5,2,0:0:0:0:
457,221,46665,1,2,0:0:0:0:
427,233,46758,1,2,0:0:0:0:
404,254,46850,1,2,0:0:0:0:
387,281,46943,1,2,0:0:0:0:
381,311,47036,1,2,0:0:0:0:
383,344,47128,6,0,P|405:348|427:352,3,45,2|2|2|2,0:0|0:0|0:0|0:0,0:0:0:0:
240,325,47499,2,0,P|218:329|196:333,3,45,2|2|2|2,0:0|0:0|0:0|0:0,0:0:0:0:
315,261,47869,6,0,P|268:178|314:95,1,198.000006042481,6|10,3:2|3:2,0:0:0:0:
218,2,48424,1,2,0:0:0:0:
95,117,48610,2,0,P|144:111|193:107,1,99.0000030212403,2|2,3:2|0:0,0:0:0:0:
30,212,48980,2,0,P|79:215|128:220,1,99.0000030212403,10|2,3:2|0:0,0:0:0:0:
271,378,49350,6,0,P|274:329|279:280,1,99.0000030212403,2|0,3:2|0:0,0:0:0:0:
315,261,49628,1,2,0:0:0:0:
315,261,49721,1,8,3:2:0:0:
128,220,49906,1,2,0:0:0:0:
313,95,50091,1,2,3:2:0:0:
279,279,50276,1,2,0:0:0:0:
313,95,50461,1,10,3:2:0:0:
279,279,50647,1,2,0:0:0:0:
219,67,50832,6,0,P|287:0|379:23,1,198.000006042481,2|10,3:2|3:2,0:0:0:0:
344,188,51387,1,2,0:0:0:0:
507,122,51573,2,0,P|457:118|408:113,1,99.0000030212403,2|2,3:2|0:0,0:0:0:0:
219,67,51943,2,0,P|224:116|227:165,1,99.0000030212403,10|2,3:2|0:0,0:0:0:0:
376,312,52313,6,0,P|390:241|343:187,1,148.50000453186,2|2,3:2|0:0,0:0:0:0:
376,312,52684,2,0,P|426:308|475:303,1,99.0000030212403,2|2,3:2|0:0,0:0:0:0:
273,372,53054,2,0,P|199:364|125:359,1,148.50000453186,2|2,3:2|0:0,0:0:0:0:
114,277,53424,6,0,P|147:281|181:283,1,67.5,2|2,3:2|3:2,0:0:0:0:
48,325,53795,6,0,P|34:255|81:201,2,148.50000453186,6|2|2,3:2|0:0|0:0,0:0:0:0:
273,372,54536,2,0,P|267:322|264:273,1,99.0000030212403,2|2,3:2|0:0,0:0:0:0:
149,114,54906,1,10,3:2:0:0:
114,277,55091,1,2,0:0:0:0:
219,67,55276,6,0,P|145:74|71:79,2,148.50000453186,2|2|2,3:2|0:0|0:0,0:0:0:0:
464,85,56017,2,0,P|415:89|376:60,1,99.0000030212403,2|2,3:2|0:0,0:0:0:0:
293,15,56295,1,2,0:0:0:0:
293,15,56387,2,0,P|298:64|301:113,1,99.0000030212403,10|2,3:2|0:0,0:0:0:0:
441,221,56758,6,0,P|444:172|449:123,1,99.0000030212403,6|0,3:2|0:0,0:0:0:0:
464,85,57036,1,2,0:0:0:0:
464,85,57128,1,8,3:2:0:0:
315,212,57313,1,2,0:0:0:0:
418,357,57499,6,0,P|421:308|426:259,1,99.0000030212403,2|2,3:2|0:3,0:0:0:0:
441,221,57776,1,2,0:0:0:0:
441,221,57869,1,8,3:2:0:0:
292,348,58054,1,2,0:0:0:0:
201,202,58239,6,0,P|261:167|314:211,1,148.50000453186,6|0,3:2|0:0,0:0:0:0:
167,220,58610,2,0,P|132:159|176:106,1,148.50000453186,6|0,3:2|0:0,0:0:0:0:
185,254,58980,2,0,P|124:288|71:244,1,148.50000453186,6|0,3:2|0:0,0:0:0:0:
219,236,59350,1,6,3:2:0:0:
75,355,59536,1,0,3:2:0:0:
292,348,59721,6,0,P|390:355|489:365,1,198.000006042481,6|10,3:2|3:2,0:0:0:0:
381,247,60276,1,2,0:0:0:0:
485,153,60461,2,0,P|488:202|493:251,1,99.0000030212403,2|2,3:2|0:0,0:0:0:0:
352,110,60832,2,0,P|357:60|360:11,1,99.0000030212403,10|2,3:2|0:0,0:0:0:0:
248,204,61202,6,0,P|204:225|157:212,1,99.0000030212403,2|0,3:2|0:0,0:0:0:0:
135,179,61480,1,2,0:0:0:0:
135,179,61573,1,8,3:2:0:0:
198,30,61758,1,2,0:0:0:0:
24,80,61943,1,2,3:2:0:0:
74,254,62128,1,2,0:0:0:0:
248,204,62313,1,10,3:2:0:0:
137,105,62499,1,2,0:0:0:0:
342,182,62684,6,0,P|317:273|226:300,1,198.000006042481,2|10,3:2|3:2,0:0:0:0:
74,254,63239,1,2,0:0:0:0:
248,204,63424,2,0,P|251:155|256:106,1,99.0000030212403,2|2,3:2|0:0,0:0:0:0:
128,6,63795,2,0,P|133:55|136:104,1,99.0000030212403,10|2,3:2|0:0,0:0:0:0:
355,40,64165,6,0,P|427:38|472:94,1,148.50000453186,6|0,3:2|0:0,0:0:0:0:
440,173,64536,2,0,P|390:178|341:181,1,99.0000030212403,10|0,3:2|0:0,0:0:0:0:
225,299,64906,2,0,P|299:291|373:286,1,148.50000453186,10|8,3:2|0:0,0:0:0:0:
445,253,65276,1,8,3:2:0:0:
322,382,65461,1,10,0:0:0:0:
193,224,65647,6,0,P|145:277|159:348,2,148.50000453186,6|2|2,3:2|0:0|0:0,0:0:0:0:
306,106,66387,2,0,P|256:109|207:113,1,99.0000030212403,2|0,3:2|0:0,0:0:0:0:
38,16,66758,2,0,P|87:20|136:23,1,99.0000030212403,10|0,3:2|0:0,0:0:0:0:
193,224,67128,6,0,P|144:227|105:198,1,99.0000030212403,6|0,3:2|3:2,0:0:0:0:
45,114,67406,1,0,3:2:0:0:
45,114,67499,2,0,P|41:65|38:16,1,99.0000030212403,6|0,3:2|3:2,0:0:0:0:
59,263,67776,1,0,3:2:0:0:
59,263,67869,2,0,P|55:312|52:361,1,99.0000030212403,6|2,3:2|0:0,0:0:0:0:
193,224,68239,1,2,3:2:0:0:
296,378,68424,1,2,3:2:0:0:
296,378,68517,1,2,0:0:0:0:
296,378,68610,6,0,P|247:374|198:371,1,99.0000030212403,6|0,3:2|0:0,0:0:0:0:
159,359,68887,1,2,0:0:0:0:
159,359,68980,1,8,3:2:0:0:
282,198,69165,1,2,0:0:0:0:
375,336,69350,6,0,P|424:332|473:329,1,99.0000030212403,6|0,3:2|0:0,0:0:0:0:
512,317,69628,1,2,0:0:0:0:
512,317,69721,1,8,3:2:0:0:
371,172,69906,1,2,0:0:0:0:
296,378,70091,6,0,P|291:353|286:329,3,49.5000015106202,6|2|2|2,3:2|0:0|0:0|0:0,0:0:0:0:
183,272,70461,2,0,P|187:247|192:223,3,49.5000015106202,2|2|2|2,0:0|0:0|0:0|0:0,0:0:0:0:
282,198,70832,2,0,P|278:148|274:99,1,99.0000030212403,10|10,0:0|0:0,0:0:0:0:
349,71,71110,1,10,0:0:0:0:
349,71,71202,2,0,P|397:76|431:111,1,99.0000030212403,10|10,0:0|0:0,0:0:0:0:
213,49,71573,6,0,P|124:58|34:65,1,180,6|8,3:2|3:2,0:0:0:0:
139,159,72128,1,0,0:0:0:0:
4,248,72313,2,0,P|48:251|93:254,1,90,0|0,3:2|0:0,0:0:0:0:
206,353,72684,2,0,P|161:355|116:359,1,90,8|0,3:2|0:0,0:0:0:0:
139,159,73054,6,0,P|200:220|283:196,1,180,2|8,3:2|3:2,0:0:0:0:
437,272,73610,1,0,0:0:0:0:
361,105,73795,1,2,3:2:0:0:
282,196,73980,1,2,0:0:0:0:
321,312,74165,1,10,3:2:0:0:
206,353,74350,1,2,0:0:0:0:
451,363,74536,6,0,P|457:273|467:183,1,180,2|8,3:2|3:2,0:0:0:0:
425,36,75091,1,0,0:0:0:0:
277,106,75276,2,0,P|281:150|282:195,1,90,2|0,3:2|0:0,0:0:0:0:
198,29,75554,1,2,0:0:0:0:
198,29,75647,2,0,P|154:24|118:50,1,90,8|2,3:2|0:0,0:0:0:0:
162,206,76017,6,0,P|223:227|281:196,1,135,2|0,3:2|0:0,0:0:0:0:
377,178,76387,2,0,P|421:182|466:183,1,90,10|0,3:2|0:0,0:0:0:0:
451,363,76758,2,0,P|417:306|352:293,1,135,2|0,3:2|0:0,0:0:0:0:
295,357,77128,2,0,P|250:352|205:352,1,90,10|10,0:0|0:0,0:0:0:0:
28,270,77499,6,0,P|76:199|162:206,1,180,6|10,3:2|3:2,0:0:0:0:
205,352,78054,1,0,0:0:0:0:
162,206,78239,2,0,P|159:161|155:116,1,90,2|0,3:2|0:0,0:0:0:0:
61,36,78517,1,2,0:0:0:0:
61,36,78610,2,0,P|58:81|54:126,1,90,8|2,3:2|0:0,0:0:0:0:
272,75,78980,6,0,P|317:72|362:68,1,90,6|0,3:2|3:2,0:0:0:0:
467,84,79258,1,0,3:2:0:0:
467,84,79350,2,0,P|493:47|488:4,1,90,6|0,3:2|3:2,0:0:0:0:
401,168,79628,1,0,3:2:0:0:
401,168,79721,2,0,P|443:174|471:208,1,90,6|0,3:2|3:2,0:0:0:0:
308,297,80091,1,0,3:2:0:0:
155,116,80276,1,0,3:2:0:0:
155,116,80369,1,0,0:0:0:0:
155,116,80461,6,0,P|164:205|171:295,1,180,6|8,3:2|3:2,0:0:0:0:
290,187,81017,1,0,0:0:0:0:
171,295,81202,2,0,P|126:291|81:288,1,90,6|0,3:2|0:0,0:0:0:0:
35,209,81480,1,2,0:0:0:0:
35,209,81573,2,0,P|38:164|41:119,1,90,8|2,3:2|0:0,0:0:0:0:
96,19,81943,6,0,P|118:23|140:27,3,45,6|2|2|2,3:2|0:0|0:0|0:0,0:0:0:0:
246,59,82313,2,0,P|268:55|290:51,3,45,2|2|2|2,0:0|0:0|0:0|0:0,0:0:0:0:
401,40,82684,1,2,0:0:0:0:
401,72,82776,1,2,0:0:0:0:
401,104,82869,1,2,0:0:0:0:
401,136,82961,1,2,0:0:0:0:
401,168,83054,6,0,L|356:171,1,45,2|2,0:0|0:0,0:0:0:0:
468,260,83239,2,0,L|512:263,1,45,2|2,0:0|0:0,0:0:0:0:
401,352,83424,5,6,3:2:0:0:
285,267,83610,2,0,L|277:186,1,80.9999975280763,2|8,0:0|3:2,0:0:0:0:
214,355,83980,1,2,0:0:0:0:
93,257,84165,2,0,L|173:249,1,80.9999975280763,2|2,3:2|0:0,0:0:0:0:
52,151,84536,1,10,3:2:0:0:
194,165,84721,1,2,0:0:0:0:
113,329,84906,6,0,P|90:296|93:256,1,80.9999975280763,2|2,3:2|0:0,0:0:0:0:
194,165,85184,1,2,0:0:0:0:
194,165,85276,2,0,P|196:125|174:92,1,80.9999975280763,8|2,3:2|0:0,0:0:0:0:
52,151,85647,1,0,3:2:0:0:
15,13,85832,1,2,0:0:0:0:
15,13,85924,1,2,0:0:0:0:
15,13,86017,2,0,P|54:21|93:28,1,80.9999975280763,10|2,3:2|0:0,0:0:0:0:
254,77,86387,6,0,P|214:84|174:92,2,80.9999975280763,2|2|10,3:2|0:0|3:2,0:0:0:0:
358,13,86943,1,2,0:0:0:0:
388,150,87128,2,0,L|381:229,1,80.9999975280763,2|2,3:2|0:0,0:0:0:0:
261,157,87499,2,0,L|254:77,1,80.9999975280763,10|2,3:2|0:0,0:0:0:0:
464,45,87869,6,0,P|416:8|356:14,2,121.499996292114,2|2|2,3:2|0:0|0:0,0:0:0:0:
468,157,88610,2,0,L|387:149,1,80.9999975280763,2|2,3:2|0:0,0:0:0:0:
261,157,88980,1,10,3:2:0:0:
358,13,89165,1,10,3:2:0:0:
174,91,89350,5,14,3:2:0:0:
268,237,89536,2,0,L|261:157,1,80.9999975280763,2|10,0:0|3:2,0:0:0:0:
163,300,89906,1,2,0:0:0:0:
349,244,90091,2,0,L|269:237,1,80.9999975280763,2|2,3:2|0:0,0:0:0:0:
360,381,90461,1,10,3:2:0:0:
473,302,90647,1,2,0:0:0:0:
312,315,90832,6,0,P|283:342|278:382,1,80.9999975280763,2|2,3:2|0:0,0:0:0:0:
163,300,91110,1,2,0:0:0:0:
163,300,91202,2,0,P|153:261|121:237,1,80.9999975280763,10|2,3:2|0:0,0:0:0:0:
268,236,91573,1,0,3:2:0:0:
174,91,91758,1,2,0:0:0:0:
174,91,91850,1,2,0:0:0:0:
174,91,91943,2,0,P|178:131|181:171,1,80.9999975280763,10|2,3:2|0:0,0:0:0:0:
24,293,92313,6,0,P|29:232|34:171,1,121.499996292114,2|2,3:2|0:0,0:0:0:0:
54,146,92684,2,0,P|49:105|46:65,1,80.9999975280763,8|2,3:2|0:0,0:0:0:0:
174,91,93054,1,2,3:2:0:0:
54,146,93239,1,2,0:0:0:0:
174,91,93424,2,0,L|254:98,1,80.9999975280763,10|2,3:2|0:0,0:0:0:0:
309,218,93795,5,2,3:2:0:0:
351,37,93980,1,2,0:3:0:0:
351,37,94073,1,2,0:0:0:0:
351,37,94165,1,8,3:2:0:0:
174,91,94350,1,2,0:0:0:0:
355,133,94536,6,0,P|374:127|394:122,3,40.4999987640381,8|8|8|8,3:2|0:0|0:0|0:0,0:0:0:0:
479,79,94906,1,8,3:2:0:0:
498,105,94999,1,8,0:0:0:0:
506,135,95091,2,0,P|501:154|495:173,1,40.4999987640381,8|8,0:0|0:0,0:0:0:0:
309,218,95276,5,4,3:2:0:0:
406,329,95461,2,0,L|413:248,1,80.9999975280763,2|10,0:0|3:2,0:0:0:0:
394,122,95832,1,2,0:0:0:0:
228,211,96017,2,0,L|309:218,1,80.9999975280763,2|2,3:2|0:0,0:0:0:0:
406,329,96387,1,10,3:2:0:0:
308,217,96573,1,2,0:0:0:0:
159,295,96758,6,0,P|167:335|174:374,1,80.9999975280763,2|2,3:2|0:0,0:0:0:0:
61,305,97036,1,2,0:0:0:0:
61,305,97128,2,0,P|68:265|74:225,1,80.9999975280763,8|2,3:2|0:0,0:0:0:0:
228,211,97499,1,0,3:2:0:0:
63,136,97684,1,2,0:0:0:0:
63,136,97776,1,2,0:0:0:0:
63,136,97869,2,0,P|103:139|143:141,1,80.9999975280763,10|2,3:2|0:0,0:0:0:0:
252,21,98239,6,0,P|249:62|245:102,2,80.9999975280763,0|2|10,3:2|0:0|3:2,0:0:0:0:
143,141,98795,1,2,0:0:0:0:
300,190,98980,2,0,P|260:187|227:210,1,80.9999975280763,2|2,3:2|0:0,0:0:0:0:
316,59,99350,2,0,P|289:28|250:21,1,80.9999975280763,10|2,3:2|0:0,0:0:0:0:
501,130,99721,6,0,L|512:10,2,121.499996292114,2|2|2,3:2|0:0|0:0,0:0:0:0:
316,59,100461,2,0,L|396:65,1,80.9999975280763,10|8,3:2|0:0,0:0:0:0:
393,189,100832,1,10,3:2:0:0:
316,59,101017,1,8,0:0:0:0:
279,261,101202,5,4,3:2:0:0:
480,276,101387,2,0,L|399:269,1,80.9999975280763,2|10,0:0|3:2,0:0:0:0:
332,368,101758,1,2,0:0:0:0:
393,189,101943,2,0,L|400:270,1,80.9999975280763,2|2,3:2|0:0,0:0:0:0:
396,65,102313,1,10,3:2:0:0:
298,160,102499,1,2,0:0:0:0:
211,1,102684,6,0,P|215:41|217:81,1,80.9999975280763,2|2,3:2|0:0,0:0:0:0:
298,160,102961,1,2,0:0:0:0:
298,160,103054,2,0,P|293:200|291:240,1,80.9999975280763,8|2,3:2|0:0,0:0:0:0:
217,81,103424,1,2,3:2:0:0:
109,197,103610,1,2,0:0:0:0:
109,197,103702,1,2,0:0:0:0:
109,197,103795,2,0,P|149:193|189:191,1,80.9999975280763,10|2,3:2|0:0,0:0:0:0:
62,57,104165,6,0,P|121:68|181:77,1,121.499996292114,2|2,3:2|0:0,0:0:0:0:
217,81,104536,2,0,P|239:48|236:8,1,80.9999975280763,8|2,3:2|0:0,0:0:0:0:
109,197,104906,1,0,3:2:0:0:
290,240,105091,1,2,0:0:0:0:
109,197,105276,2,0,P|113:237|116:277,1,80.9999975280763,10|2,3:2|0:0,0:0:0:0:
291,352,105647,6,0,P|294:311|298:271,1,80.9999975280763,2|0,3:2|3:2,0:0:0:0:
290,240,105924,1,2,0:0:0:0:
290,240,106017,1,0,3:2:0:0:
187,347,106202,1,2,3:2:0:0:
395,357,106387,2,0,P|398:316|402:276,1,80.9999975280763,8|8,3:2|3:2,0:0:0:0:
291,352,106758,1,8,3:2:0:0:
394,245,106943,1,8,3:2:0:0:
186,235,107128,5,6,3:2:0:0:
186,235,107869,2,0,B|170:180|188:117|228:77|228:77|223:103|231:121,1,216,10|0,0:0|3:2,0:0:0:0:
313,95,108610,6,0,L|421:85,2,108,0|0|2,3:2|3:2|3:2,0:0:0:0:
435,169,109350,2,0,L|506:175,1,72,0|2,0:0|0:0,0:0:0:0:
394,245,109721,2,0,L|322:251,1,72,2|2,0:0|0:3,0:0:0:0:
157,269,110091,5,2,3:2:0:0:
186,235,110461,1,2,0:0:0:0:
65,130,110832,5,10,0:0:0:0:
79,172,111202,1,2,0:0:0:0:
168,12,111573,6,0,P|138:102|232:120,2,216,2|2|2,3:2|3:2|3:2,0:0:0:0:
414,48,113054,6,0,P|344:10|269:36,1,161.999995056153,4|0,3:2|0:0,0:0:0:0:
453,140,113610,1,0,3:2:0:0:
344,190,113795,2,0,L|336:109,1,80.9999975280763,0|2,0:0|0:0,0:0:0:0:
453,140,114165,1,2,3:2:0:0:
441,259,114350,1,2,0:0:0:0:
271,208,114536,6,0,P|304:186|343:189,1,80.9999975280763,2|0,3:2|0:0,0:0:0:0:
168,281,114813,1,2,0:3:0:0:
168,281,114906,2,0,P|134:302|95:299,1,80.9999975280763,2|0,0:0|3:2,0:0:0:0:
256,295,115276,2,0,P|277:328|274:367,1,80.9999975280763,2|0,0:0|3:2,0:0:0:0:
183,193,115554,1,2,0:3:0:0:
183,193,115647,2,0,P|161:159|164:120,1,80.9999975280763,2|2,0:0|0:0,0:0:0:0:
270,34,116017,5,14,3:2:0:0:
270,34,117499,2,0,P|265:54|259:73,3,40.4999987640381,2|2|2|2,0:0|0:0|0:0|0:0,0:0:0:0:
164,119,117869,2,0,P|145:114|124:108,3,40.4999987640381,2|2|2|2,0:0|0:0|0:0|0:0,0:0:0:0:
58,204,118239,2,0,P|63:222|68:243,3,40.4999987640381,2|2|2|2,0:0|0:0|0:0|0:0,0:0:0:0:
168,286,118610,2,0,P|162:305|157:325,3,40.4999987640381,2|2|2|2,0:0|0:0|0:0|0:0,0:0:0:0:
239,192,118980,6,0,P|291:220|309:276,1,121.499996292114,2|0,0:0|0:0,0:0:0:0:
328,181,119350,6,0,P|350:244|323:304,1,135,2|0,0:0|0:0,0:0:0:0:
411,236,119721,6,0,P|382:303|317:334,1,148.50000453186,2|0,0:0|0:0,0:0:0:0:
440,341,120091,6,0,P|369:375|293:354,1,161.999995056153,2|0,0:0|0:0,0:0:0:0:
412,237,120461,6,0,P|422:142|348:83,1,198.000006042481,6|10,3:2|3:2,0:0:0:0:
156,86,121017,1,2,0:0:0:0:
264,10,121202,2,0,P|258:59|253:108,1,99.0000030212403,2|2,3:2|0:0,0:0:0:0:
68,162,121573,2,0,P|63:112|57:63,1,99.0000030212403,10|2,3:2|0:0,0:0:0:0:
166,270,121943,6,0,P|205:242|253:246,1,99.0000030212403,2|0,3:2|0:0,0:0:0:0:
288,267,122221,1,2,0:0:0:0:
288,267,122313,1,8,3:2:0:0:
88,329,122499,1,2,0:0:0:0:
256,354,122684,1,2,3:2:0:0:
161,178,122869,1,2,0:0:0:0:
256,354,123054,1,10,3:2:0:0:
161,178,123239,1,2,0:0:0:0:
380,122,123424,6,0,P|371:220|362:319,1,198.000006042481,2|10,3:2|3:2,0:0:0:0:
253,246,123980,1,2,0:0:0:0:
380,122,124165,2,0,P|330:118|281:113,1,99.0000030212403,2|2,3:2|0:0,0:0:0:0:
470,210,124536,2,0,P|466:259|461:308,1,99.0000030212403,10|2,3:2|0:0,0:0:0:0:
256,354,124906,6,0,P|185:368|131:321,1,148.50000453186,2|2,3:2|0:0,0:0:0:0:
154,237,125276,2,0,P|203:242|252:245,1,99.0000030212403,2|2,3:2|0:0,0:0:0:0:
281,113,125647,2,0,P|207:121|133:126,1,148.50000453186,2|2,3:2|0:0,0:0:0:0:
53,138,126017,6,0,P|56:171|59:205,1,67.5,2|2,3:2|3:2,0:0:0:0:
9,63,126387,6,0,P|15:136|21:210,2,148.50000453186,6|2|2,3:2|0:0|0:0,0:0:0:0:
235,34,127128,2,0,P|272:64|280:112,1,99.0000030212403,2|2,3:2|0:0,0:0:0:0:
154,237,127499,1,10,3:2:0:0:
280,112,127684,1,2,0:0:0:0:
204,303,127869,6,0,P|133:317|79:270,2,148.50000453186,2|2|2,3:2|0:0|0:0,0:0:0:0:
335,217,128610,2,0,P|285:221|236:225,1,99.0000030212403,2|2,3:2|0:0,0:0:0:0:
154,237,128887,1,2,0:0:0:0:
154,237,128980,2,0,P|158:187|162:138,1,99.0000030212403,10|2,3:2|0:0,0:0:0:0:
358,91,129350,6,0,P|362:140|365:189,1,99.0000030212403,6|0,3:2|0:0,0:0:0:0:
335,217,129628,1,2,0:0:0:0:
335,217,129721,1,8,3:2:0:0:
486,90,129906,1,2,0:0:0:0:
469,266,130091,6,0,P|464:315|461:364,1,99.0000030212403,2|2,3:2|0:0,0:0:0:0:
424,381,130369,1,2,0:2:0:0:
424,381,130461,1,8,3:2:0:0:
335,217,130647,1,2,0:0:0:0:
205,320,130832,6,0,B|326:331|326:331|305:347,1,148.50000453186,6|0,3:2|0:0,0:0:0:0:
168,332,131202,2,0,B|179:210|179:210|195:231,1,148.50000453186,6|0,3:2|0:0,0:0:0:0:
180,369,131573,2,0,B|58:357|58:357|79:341,1,148.50000453186,6|0,3:2|0:0,0:0:0:0:
216,357,131943,1,6,3:2:0:0:
81,227,132128,1,0,3:2:0:0:
288,107,132313,6,0,P|386:99|485:89,1,198.000006042481,6|10,3:2|3:2,0:0:0:0:
335,217,132869,1,2,0:0:0:0:
482,294,133054,2,0,P|494:247|473:203,1,99.0000030212403,2|2,3:2|0:0,0:0:0:0:
335,217,133424,2,0,P|322:263|343:307,1,99.0000030212403,10|2,3:2|0:0,0:0:0:0:
485,89,133795,6,0,P|436:94|387:98,1,99.0000030212403,2|0,3:2|0:0,0:0:0:0:
347,102,134073,1,2,0:0:0:0:
347,102,134165,1,8,3:2:0:0:
171,141,134350,1,2,0:0:0:0:
335,217,134536,1,2,3:2:0:0:
160,117,134721,1,2,0:0:0:0:
247,263,134906,1,10,3:2:0:0:
253,49,135091,1,2,0:0:0:0:
118,234,135276,6,0,P|26:209|0:118,1,198.000006042481,2|10,3:2|3:2,0:0:0:0:
132,23,135832,1,2,0:0:0:0:
256,164,136017,2,0,P|252:213|247:262,1,99.0000030212403,2|2,3:2|0:0,0:0:0:0:
126,332,136387,2,0,P|122:282|117:233,1,99.0000030212403,10|2,3:2|0:0,0:0:0:0:
306,346,136758,6,0,P|378:348|423:292,1,148.50000453186,6|0,3:2|0:0,0:0:0:0:
430,208,137128,2,0,P|380:203|331:200,1,99.0000030212403,10|0,3:2|0:0,0:0:0:0:
503,41,137499,2,0,P|429:49|355:54,1,148.50000453186,10|8,3:2|0:0,0:0:0:0:
276,84,137869,1,8,3:2:0:0:
430,208,138054,1,10,0:0:0:0:
227,298,138239,6,0,P|155:292|116:232,2,148.50000453186,6|2|2,3:2|0:0|0:0,0:0:0:0:
206,122,138980,2,0,P|200:171|196:220,1,99.0000030212403,2|0,3:2|0:0,0:0:0:0:
44,341,139350,2,0,P|39:291|34:242,1,99.0000030212403,10|0,3:2|0:0,0:0:0:0:
18,65,139721,6,0,P|57:93|106:88,1,99.0000030212403,6|0,3:2|3:2,0:0:0:0:
206,122,139999,1,0,3:2:0:0:
206,122,140091,2,0,P|245:93|294:98,1,99.0000030212403,6|0,3:2|3:2,0:0:0:0:
400,108,140369,1,0,3:2:0:0:
400,108,140461,2,0,P|394:58|390:9,1,99.0000030212403,6|2,3:2|0:0,0:0:0:0:
337,196,140832,1,2,3:2:0:0:
479,303,141017,1,2,3:2:0:0:
479,303,141110,1,2,0:0:0:0:
479,303,141202,6,0,P|429:297|380:294,1,99.0000030212403,6|0,3:2|0:0,0:0:0:0:
342,304,141480,1,2,0:0:0:0:
342,304,141573,1,8,3:2:0:0:
232,213,141758,1,2,0:0:0:0:
268,383,141943,6,0,P|218:377|169:374,1,99.0000030212403,6|0,3:2|0:0,0:0:0:0:
131,384,142221,1,2,0:0:0:0:
131,384,142313,1,8,3:2:0:0:
21,293,142499,1,2,0:0:0:0:
222,261,142684,6,0,P|227:236|232:212,3,49.5000015106202,6|2|2|2,3:2|0:0|0:0|0:0,0:0:0:0:
113,219,143054,2,0,P|107:194|103:170,3,49.5000015106202,2|2|2|2,0:0|0:0|0:0|0:0,0:0:0:0:
203,80,143424,2,0,P|164:51|115:56,1,99.0000030212403,10|10,0:0|0:0,0:0:0:0:
264,21,143702,1,10,0:0:0:0:
264,21,143795,2,0,P|313:26|362:29,1,99.0000030212403,10|10,0:0|0:0,0:0:0:0:
486,110,144165,5,4,3:2:0:0:
500,136,144258,1,2,0:0:0:0:
504,168,144350,1,2,0:0:0:0:
500,199,144443,1,2,0:0:0:0:
486,226,144536,2,0,P|462:231|438:236,3,49.5000015106202,10|2|2|2,3:2|0:0|0:0|0:0,0:0:0:0:
338,261,144906,5,2,3:2:0:0:
312,247,144999,1,2,0:0:0:0:
280,243,145091,1,2,0:0:0:0:
249,247,145184,1,2,0:0:0:0:
222,261,145276,2,0,P|217:285|212:309,3,49.5000015106202,10|2|2|2,3:2|0:0|0:0|0:0,0:0:0:0:
327,133,145647,6,0,P|322:61|263:20,2,148.50000453186,2|2|2,3:2|0:0|0:0,0:0:0:0:
160,66,146387,2,0,P|165:115|169:165,1,99.0000030212403,2|2,3:2|0:0,0:0:0:0:
251,102,146758,1,10,3:2:0:0:
79,147,146943,1,2,0:0:0:0:
211,309,147128,6,0,P|112:299|13:290,1,198.000006042481,2|8,3:2|3:2,0:0:0:0:
244,234,147684,1,2,0:0:0:0:
244,234,147776,1,2,0:0:0:0:
244,234,147869,2,0,P|290:290|276:360,2,148.50000453186,2|2|2,3:2|0:0|0:0,0:0:0:0:
385,338,148610,6,0,P|434:332|483:329,1,99.0000030212403,6|2,3:2|0:0,0:0:0:0:
512,179,148980,2,0,P|462:175|413:170,1,99.0000030212403,14|2,3:2|0:0,0:0:0:0:
244,234,149350,1,6,3:2:0:0:
400,142,149536,1,2,3:2:0:0:
231,206,149721,1,14,3:2:0:0:
387,114,149906,1,10,3:2:0:0:
211,309,150091,6,0,P|220:210|229:111,1,198.000006042481,4|8,3:2|3:2,0:0:0:0:
379,15,150647,1,2,0:0:0:0:
379,15,150739,1,2,0:0:0:0:
379,15,150832,2,0,P|382:64|386:113,1,99.0000030212403,2|2,3:2|0:0,0:0:0:0:
229,24,151202,1,10,3:2:0:0:
315,173,151387,1,2,0:0:0:0:
81,123,151573,6,0,P|155:117|229:110,2,148.50000453186,2|2|2,3:2|0:0|0:0,0:0:0:0:
244,234,152313,2,0,P|169:240|95:246,2,148.50000453186,2|2|2,3:2|3:2|0:0,0:0:0:0:
401,322,153054,5,6,3:2:0:0:
376,280,153239,1,2,0:0:0:0:
262,326,153424,1,10,3:2:0:0:
315,173,153610,1,2,0:0:0:0:
426,364,153795,2,0,P|474:282|430:198,1,198.000006042481,2|8,3:2|3:2,0:0:0:0:
295,72,154350,1,2,0:0:0:0:
295,72,154443,1,2,0:0:0:0:
295,72,154536,6,0,B|325:58|325:58|315:173,1,148.50000453186,6|0,3:2|0:0,0:0:0:0:
244,234,154906,2,0,B|214:248|214:248|224:133,1,148.50000453186,4|0,3:2|0:0,0:0:0:0:
206,40,155276,2,0,B|91:30|91:30|105:60,1,148.50000453186,4|0,3:2|0:0,0:0:0:0:
135,144,155647,2,0,P|87:149|44:125,1,99.0000030212403,4|0,3:2|3:2,0:0:0:0:
0,313,156017,5,4,3:2:0:0:
21,292,156110,1,2,0:0:0:0:
51,280,156202,1,2,0:0:0:0:
82,276,156295,1,2,0:0:0:0:
112,282,156387,2,0,P|117:258|122:234,3,49.5000015106202,10|2|2|2,3:2|0:0|0:0|0:0,0:0:0:0:
200,360,156758,5,2,3:2:0:0:
230,360,156850,1,2,0:0:0:0:
260,351,156943,1,2,0:0:0:0:
287,334,157036,1,2,0:0:0:0:
304,310,157128,2,0,P|327:312|352:313,1,49.5000015106202,10|0,3:2|0:0,0:0:0:0:
440,360,157313,2,0,P|464:357|488:354,1,49.5000015106202,2|0,0:0|0:0,0:0:0:0:
354,174,157499,5,2,3:2:0:0:
438,336,157684,1,2,0:0:0:0:
503,119,157869,1,10,3:2:0:0:
435,311,158054,1,2,0:0:0:0:
350,91,158239,2,0,P|286:125|275:196,1,148.50000453186,0|2,3:2|0:0,0:0:0:0:
293,232,158610,1,10,3:2:0:0:
214,67,158795,1,2,0:0:0:0:
102,222,158980,6,0,P|89:151|137:98,2,148.50000453186,6|2|2,3:2|0:0|0:0,0:0:0:0:
214,67,159721,2,0,P|160:18|90:31,2,148.50000453186,2|2|2,3:2|0:0|0:0,0:0:0:0:
169,296,160461,6,0,P|77:318|9:251,1,198.000006042481,6|8,3:2|3:2,0:0:0:0:
137,98,161017,1,2,0:0:0:0:
102,222,161202,1,10,3:2:0:0:
305,204,161387,1,8,0:0:0:0:
168,174,161573,1,8,3:2:0:0:
283,318,161758,1,8,3:2:0:0:
446,198,161943,6,0,P|454:100|464:1,1,198.000006042481,6|8,3:2|3:2,0:0:0:0:
322,119,162499,1,2,0:0:0:0:
204,12,162684,2,0,P|155:17|106:21,1,99.0000030212403,2|0,3:2|0:0,0:0:0:0:
322,119,163054,1,10,3:2:0:0:
168,174,163239,1,2,0:0:0:0:
313,20,163424,6,0,P|318:69|322:118,1,99.0000030212403,6|0,3:2|3:2,0:0:0:0:
358,222,163702,1,0,3:2:0:0:
358,222,163795,2,0,P|396:193|445:197,1,99.0000030212403,14|2,3:2|3:2,0:0:0:0:
373,327,164073,1,2,3:2:0:0:
373,327,164165,2,0,P|326:339|283:318,1,99.0000030212403,6|0,3:2|3:2,0:0:0:0:
168,174,164536,1,8,3:2:0:0:
42,318,164721,1,0,3:2:0:0:
42,318,164813,1,0,3:2:0:0:
42,318,164906,6,0,P|116:312|190:306,2,148.50000453186,4|2|2,3:2|0:0|0:0,0:0:0:0:
168,174,165647,2,0,P|181:103|135:48,2,148.50000453186,6|2|2,3:2|0:0|0:0,0:0:0:0:
4,114,166387,6,0,P|53:119|102:123,1,99.0000030212403,6|0,3:2|0:0,0:0:0:0:
269,143,166758,2,0,P|264:94|260:45,1,99.0000030212403,8|0,3:2|0:0,0:0:0:0:
168,174,167128,1,0,3:2:0:0:
372,167,167313,1,0,0:0:0:0:
288,315,167499,2,0,P|239:310|190:306,1,99.0000030212403,8|0,3:2|3:2,0:0:0:0:
439,337,167869,6,0,P|443:287|448:238,1,99.0000030212403,6|0,3:2|0:0,0:0:0:0:
485,72,168239,2,0,P|440:52|394:65,1,99.0000030212403,8|0,3:2|0:0,0:0:0:0:
269,143,168610,1,0,3:2:0:0:
447,238,168795,1,0,3:2:0:0:
394,65,168980,1,8,3:2:0:0:
236,219,169165,1,2,3:2:0:0:
236,219,169258,1,2,0:0:0:0:
236,219,169350,6,0,P|189:163|203:93,2,148.50000453186,6|2|2,3:2|0:0|0:0,0:0:0:0:
336,305,170091,2,0,P|311:310|287:314,3,49.5000015106202,2|2|2|2,0:0|0:0|0:0|0:0,0:0:0:0:
201,368,170461,2,0,P|176:362|152:358,3,49.5000015106202,2|2|2|2,0:0|0:0|0:0|0:0,0:0:0:0:
78,282,170832,5,4,3:2:0:0:
78,282,171573,2,0,B|62:288|49:308|49:308|21:252|26:189|63:141,1,216,10|0,0:0|3:2,0:0:0:0:
146,160,172313,2,0,L|152:231,1,72,2|0,3:2|0:0,0:0:0:0:
62,141,172684,1,2,0:0:0:0:
227,102,172869,2,0,L|239:245,1,144,0|2,0:0|0:0,0:0:0:0:
319,330,173424,2,0,L|325:258,1,72,2|0,0:0|0:0,0:0:0:0:
444,184,173795,5,2,3:2:0:0:
481,160,174165,1,2,3:2:0:0:
264,126,174536,5,10,0:0:0:0:
227,102,174906,1,2,0:0:0:0:
388,10,175276,6,0,P|440:89|354:130,2,216,2|2|2,3:2|3:2|3:2,0:0:0:0:
227,102,176758,6,0,P|149:120|83:76,1,161.999995056153,6|0,3:2|0:0,0:0:0:0:
167,24,177313,1,0,3:2:0:0:
55,166,177499,2,0,P|59:206|63:246,1,80.9999975280763,0|2,3:2|3:2,0:0:0:0:
237,278,177869,1,10,3:2:0:0:
144,195,178054,1,2,0:0:0:0:
49,345,178239,6,0,P|89:341|129:337,1,80.9999975280763,2|0,3:2|0:0,0:0:0:0:
237,278,178517,1,2,0:3:0:0:
237,278,178610,2,0,P|233:318|229:358,1,80.9999975280763,2|0,0:0|3:2,0:0:0:0:
263,156,178980,2,0,P|303:160|343:164,1,80.9999975280763,2|0,0:0|3:2,0:0:0:0:
451,106,179258,1,2,0:3:0:0:
451,106,179350,2,0,P|447:66|443:26,1,80.9999975280763,2|2,0:0|0:0,0:0:0:0:
441,222,179721,5,4,3:2:0:0:
353,48,179906,1,4,3:2:0:0:
345,32,180276,5,4,3:2:0:0:
433,206,180461,1,4,3:2:0:0:
219,69,180647,1,0,0:0:0:0:
451,106,180832,1,4,3:2:0:0:
214,209,181017,1,4,3:2:0:0:
256,192,181110,12,4,182684,3:2:0:0:
256,192,191573,12,2,194165,0:0:0:0:
224,64,194536,6,0,P|167:47|115:73,1,121.499996292114,2|0,0:0|0:0,0:0:0:0:
42,113,194906,6,0,P|105:98|158:138,1,135,2|0,0:0|0:0,0:0:0:0:
237,171,195276,6,0,P|165:163|110:211,1,148.50000453186,2|0,0:0|0:0,0:0:0:0:
22,237,195647,6,0,P|100:234|147:296,1,161.999995056153,2|0,0:0|0:0,0:0:0:0:
226,354,196017,6,0,P|251:262|342:235,1,198.000006042481,6|10,3:2|3:2,0:0:0:0:
419,342,196573,1,2,0:0:0:0:
486,224,196758,2,0,P|490:174|496:125,1,99.0000030212403,2|2,3:2|0:0,0:0:0:0:
419,342,197128,2,0,P|369:335|320:331,1,99.0000030212403,10|2,3:2|0:0,0:0:0:0:
235,177,197499,6,0,P|283:172|323:200,1,99.0000030212403,2|0,3:2|0:0,0:0:0:0:
341,235,197776,1,2,0:0:0:0:
341,235,197869,1,8,3:2:0:0:
322,47,198054,1,2,0:0:0:0:
204,202,198239,1,2,3:2:0:0:
409,162,198424,1,2,0:0:0:0:
204,202,198610,1,10,3:2:0:0:
409,162,198795,1,2,0:0:0:0:
229,297,198980,6,0,B|178:311|137:273|137:273|98:233|47:249,1,198.000006042481,2|10,3:2|3:2,0:0:0:0:
70,344,199536,1,2,0:0:0:0:
204,202,199721,2,0,P|221:156|204:111,1,99.0000030212403,2|2,3:2|0:0,0:0:0:0:
48,158,200091,2,0,P|30:203|47:248,1,99.0000030212403,10|2,3:2|0:0,0:0:0:0:
171,33,200461,6,0,B|222:27|222:27|263:51|263:51|312:46,1,148.50000453186,2|0,3:2|0:0,0:0:0:0:
387,5,200832,2,0,B|402:53|402:53|379:95,1,99.0000030212403,2|0,3:2|0:0,0:0:0:0:
302,245,201202,2,0,B|293:136|293:136|304:156|320:164,1,148.50000453186,10|8,3:2|0:0,0:0:0:0:
409,180,201573,1,10,3:2:0:0:
204,202,201758,1,10,3:2:0:0:
367,352,201943,6,0,B|419:346|419:346|459:380|459:380|484:372|501:376,2,148.50000453186,6|2|2,3:2|0:0|0:0,0:0:0:0:
204,202,202684,2,0,P|206:251|210:300,1,99.0000030212403,2|2,3:2|0:0,0:0:0:0:
46,346,203054,2,0,P|50:296|52:247,1,99.0000030212403,10|2,3:2|0:0,0:0:0:0:
187,112,203424,6,0,P|211:153|204:200,1,99.0000030212403,2|2,3:2|0:0,0:0:0:0:
97,75,203702,1,2,0:0:0:0:
97,75,203795,2,0,P|119:31|165:14,1,99.0000030212403,10|2,3:2|0:0,0:0:0:0:
110,171,204073,1,2,0:0:0:0:
110,171,204165,2,0,P|60:171|23:141,1,99.0000030212403,2|2,3:2|0:0,0:0:0:0:
187,112,204536,1,10,3:2:0:0:
131,274,204721,1,10,0:0:0:0:
320,139,204906,6,0,P|270:135|221:131,1,99.0000030212403,6|0,3:2|0:0,0:0:0:0:
187,112,205184,1,2,0:0:0:0:
187,112,205276,1,8,3:2:0:0:
309,28,205461,1,2,0:0:0:0:
331,250,205647,6,0,P|380:245|429:242,1,99.0000030212403,2|0,3:2|0:3,0:0:0:0:
465,225,205924,1,2,0:0:0:0:
465,225,206017,1,8,3:2:0:0:
320,139,206202,1,2,0:0:0:0:
342,361,206387,6,0,P|317:356|293:351,3,49.5000015106202,6|2|2|2,3:2|0:0|0:0|0:0,0:0:0:0:
225,268,206758,2,0,P|200:272|176:277,3,49.5000015106202,4|2|2|2,3:2|0:0|0:0|0:0,0:0:0:0:
74,296,207128,2,0,P|42:332|42:381,1,99.0000030212403,6|2,3:2|3:2,0:0:0:0:
185,375,207406,1,2,0:0:0:0:
185,375,207499,2,0,P|181:325|176:276,1,99.0000030212403,14|10,3:2|3:2,0:0:0:0:
13,147,207869,6,0,P|74:208|157:184,1,180,6|10,3:2|3:2,0:0:0:0:
162,1,208424,1,0,0:0:0:0:
272,100,208610,2,0,P|227:96|183:93,1,90,0|0,3:2|0:0,0:0:0:0:
379,26,208980,1,10,3:2:0:0:
470,217,209165,1,0,0:0:0:0:
470,217,209258,1,2,0:3:0:0:
470,217,209350,6,0,P|476:127|486:37,1,180,2|8,3:2|3:2,0:0:0:0:
282,102,209906,1,0,0:0:0:0:
373,293,210091,1,2,3:2:0:0:
269,348,210276,1,2,0:0:0:0:
176,276,210461,1,10,3:2:0:0:
280,221,210647,1,2,0:0:0:0:
72,331,210832,6,0,P|11:270|34:187,1,180,2|10,3:2|3:2,0:0:0:0:
178,157,211387,1,0,0:0:0:0:
24,61,211573,2,0,P|68:57|113:53,1,90,2|0,3:2|0:0,0:0:0:0:
229,5,211850,1,2,0:3:0:0:
229,5,211943,2,0,P|273:7|318:11,1,90,10|0,3:2|0:0,0:0:0:0:
178,157,212313,5,6,3:2:0:0:
370,102,212499,1,0,0:0:0:0:
280,221,212684,1,10,3:2:0:0:
229,5,212869,1,0,0:0:0:0:
30,170,213054,2,0,L|177:157,1,148.50000453186,10|8,3:2|0:0,0:0:0:0:
248,120,213424,1,8,3:2:0:0:
142,279,213610,1,10,0:0:0:0:
390,330,213795,6,0,P|427:268|400:201,2,148.50000453186,6|2|2,3:2|0:0|0:0,0:0:0:0:
239,218,214536,2,0,P|244:168|247:119,1,99.0000030212403,2|0,3:2|0:0,0:0:0:0:
345,261,214906,1,10,3:2:0:0:
142,279,215091,1,2,0:0:0:0:
142,279,215184,1,2,0:0:0:0:
142,279,215276,6,0,P|93:274|59:239,1,99.0000030212403,6|0,3:2|3:2,0:0:0:0:
149,134,215554,1,0,3:2:0:0:
149,134,215647,2,0,P|197:127|246:119,1,99.0000030212403,6|0,3:2|3:2,0:0:0:0:
59,56,215924,1,0,3:2:0:0:
59,56,216017,2,0,B|25:92|25:92|36:140,1,99.0000030212403,6|2,3:2|0:0,0:0:0:0:
246,119,216387,1,2,3:2:0:0:
59,239,216573,1,2,3:2:0:0:
59,239,216665,1,2,0:0:0:0:
59,239,216758,6,0,P|66:287|74:336,1,99.0000030212403,6|0,3:2|0:0,0:0:0:0:
81,375,217036,1,2,0:0:0:0:
81,375,217128,1,8,3:2:0:0:
208,239,217313,1,2,0:0:0:0:
335,375,217499,6,0,P|342:327|350:278,1,99.0000030212403,6|0,3:2|0:0,0:0:0:0:
357,239,217776,1,2,0:0:0:0:
357,239,217869,1,8,3:2:0:0:
208,344,218054,1,2,0:0:0:0:
427,320,218239,6,0,P|475:329|506:367,1,99.0000030212403,6|0,3:2|0:0,0:0:0:0:
357,239,218517,1,2,0:3:0:0:
357,239,218610,2,0,P|389:201|437:193,1,99.0000030212403,0|0,3:2|0:0,0:0:0:0:
277,150,218980,1,0,3:2:0:0:
443,64,219165,1,2,3:2:0:0:
435,192,219350,1,2,3:2:0:0:
349,26,219536,1,2,3:2:0:0:
194,193,219721,6,0,P|145:185|96:177,1,99.0000030212403,6|0,3:2|0:0,0:0:0:0:
251,10,220091,2,0,P|300:18|349:26,1,99.0000030212403,8|0,3:2|3:2,0:0:0:0:
126,49,220461,1,0,3:2:0:0:
277,150,220647,1,2,3:2:0:0:
96,177,220832,1,2,3:2:0:0:
247,278,221017,1,2,3:2:0:0:
41,346,221202,6,0,P|114:339|188:333,1,148.50000453186,6|0,3:2|0:0,0:0:0:0:
247,278,221573,1,2,0:0:0:0:
398,379,221758,1,2,0:0:0:0:
398,379,221850,1,2,0:0:0:0:
398,379,221943,2,0,P|393:329|389:280,1,99.0000030212403,2|0,0:0|0:0,0:0:0:0:
446,119,222313,1,2,0:0:0:0:
247,278,222499,5,6,3:2:0:0:
256,192,222591,12,0,225276,0:0:0:0:
