osu file format v14

[General]
AudioFilename: audio.mp3
AudioLeadIn: 0
PreviewTime: 69551
Countdown: 0
SampleSet: Soft
StackLeniency: 0.7
Mode: 0
LetterboxInBreaks: 0
WidescreenStoryboard: 0

[Editor]
Bookmarks: 9651,28851,41651,54451,225596,234396
DistanceSpacing: 1.2
BeatDivisor: 3
GridSize: 4
TimelineZoom: 2.6

[Metadata]
Title:Koborezu no Negaigoto
TitleUnicode:零れずの願いゴト
Artist:senya
ArtistUnicode:senya
Creator:Nao Tomori
Version:Lunatic
Source:東方スペルバブル
Tags:touhou spell bubble project yuuhei satellite 幽閉サテライト 砕月 Iceon broken moon 伊吹 萃香 Ibuki Suika 緋想天 scarlet weather rhapsody zun 幽閉サテライト楽曲パック Vol.2 lmt lmt1996 japanese video game pop rock
BeatmapID:2755693
BeatmapSetID:1330002

[Difficulty]
HPDrainRate:6
CircleSize:4.2
OverallDifficulty:7.5
ApproachRate:8
SliderMultiplier:1.4
SliderTickRate:1

[Events]
//Background and Video events
0,0,"suika bg.jpg",0,0
//Break Periods
2,203186,208436
//Storyboard Layer 0 (Background)
//Storyboard Layer 1 (Fail)
//Storyboard Layer 2 (Pass)
//Storyboard Layer 3 (Foreground)
//Storyboard Layer 4 (Overlay)
//Storyboard Sound Samples

[TimingPoints]
3186,400,4,2,1,42,1,0
3186,-100,4,2,1,42,0,0
9186,-71.4285714285714,4,2,1,62,0,0
9486,-80,4,2,1,62,0,0
28786,-80,4,2,1,42,0,0
40786,-51.2820512820513,4,2,1,62,0,0
40836,-51.2820512820513,4,2,1,32,0,0
41186,-66.6666666666667,4,2,1,62,0,0
41586,-86.2068965517241,4,2,1,62,0,0
44186,-71.4285714285714,4,2,1,72,0,0
44786,-86.2068965517241,4,2,1,62,0,0
47386,-71.4285714285714,4,2,1,62,0,0
47986,-86.2068965517241,4,2,1,62,0,0
50586,-71.4285714285714,4,2,1,62,0,0
50886,-86.2068965517241,4,2,1,62,0,0
54386,-86.2068965517241,4,2,1,62,0,0
63986,-83.3333333333333,4,2,1,62,0,0
65186,-76.9230769230769,4,2,1,62,0,0
69986,-66.6666666666667,4,2,1,82,0,0
70386,-80,4,2,1,72,0,1
95986,-133.333333333333,4,2,1,42,0,0
97786,-133.333333333333,4,2,1,42,0,0
101986,-100,4,2,1,52,0,0
102386,-86.2068965517241,4,2,1,52,0,0
114386,-51.2820512820513,4,2,1,52,0,0
114436,-51.2820512820513,4,2,1,32,0,0
114786,-66.6666666666667,4,2,1,62,0,0
115186,-86.2068965517241,4,2,1,62,0,0
117786,-71.4285714285714,4,2,1,62,0,0
117986,-86.2068965517241,4,2,1,62,0,0
120986,-71.4285714285714,4,2,1,62,0,0
121186,-86.2068965517241,4,2,1,62,0,0
124186,-71.4285714285714,4,2,1,62,0,0
124386,-86.2068965517241,4,2,1,62,0,0
143586,-66.6666666666667,4,2,1,82,0,0
143986,-80,4,2,1,72,0,1
148786,-66.6666666666667,4,2,1,72,0,1
148986,-80,4,2,1,72,0,1
149186,-80,4,2,1,72,0,1
169586,-133.333333333333,4,2,1,52,0,0
171186,-80,4,2,1,62,0,0
173586,-80,4,2,1,72,0,0
174386,-66.6666666666667,4,2,1,72,0,0
180786,-80,4,2,1,72,0,0
181986,-57.1428571428571,4,2,1,72,0,0
182386,-66.6666666666667,4,2,1,72,0,0
187186,-86.2068965517241,4,2,1,72,0,0
209141,-86.2068965517241,4,2,1,42,0,0
209586,-86.2068965517241,4,2,1,62,0,0
215986,-133.333333333333,4,2,1,62,0,0
217586,-86.2068965517241,4,2,1,62,0,0
219186,-227.272727272727,4,2,1,52,0,0
222786,-80,4,2,1,72,0,1
247986,-133.333333333333,4,2,1,72,0,1
249586,-80,4,2,1,72,0,1
251086,-80,4,2,1,72,0,0

[Colours]
Combo1 : 192,162,234
Combo2 : 219,132,132
Combo3 : 208,248,169
Combo4 : 179,221,247

[HitObjects]
48,138,3186,6,0,P|84:156|171:113,1,140,2|0,2:2|2:2,2:2:0:0:
185,32,3786,1,0,2:2:0:0:
226,187,3986,2,0,P|281:225|346:207,1,140,2|0,2:2|2:2,2:2:0:0:
416,137,4586,1,0,2:2:0:0:
438,234,4786,6,0,P|419:295|412:320,1,70,2|0,2:2|2:2,2:2:0:0:
347,206,5186,2,0,P|303:159|285:140,1,70,2|0,2:2|2:2,2:2:0:0:
420,141,5586,1,2,2:2:0:0:
420,141,5986,2,0,P|482:126|507:120,1,70,0|0,2:2|2:2,2:2:0:0:
381,35,6386,6,0,P|323:20|217:-1,1,140,2|0,2:2|2:2,2:2:0:0:
244,3,6986,1,0,2:2:0:0:
84,105,7186,2,0,P|130:124|195:59,1,140,2|0,2:2|2:2,2:2:0:0:
118,17,7786,1,0,2:2:0:0:
25,165,7986,6,0,P|11:222|5:250,1,70,2|0,2:2|2:2,2:2:0:0:
115,227,8386,2,0,P|131:289|149:382,1,140,2|2,2:2|2:2,2:2:0:0:
213,284,8986,1,0,2:2:0:0:
319,320,9186,6,2,B|360:332|360:332|374:353|374:353|423:357|461:413,1,146.999995513916,2|0,2:1|2:2,2:1:0:0:
502,342,9586,6,0,B|481:290|481:290|529:233|510:172,1,175,6|8,3:2|2:2,2:2:0:0:
403,98,10186,1,2,2:2:0:0:
387,192,10386,2,0,B|400:213|424:220|424:220|446:151|390:79,1,175,2|8,3:2|2:2,2:2:0:0:
306,238,10986,1,2,2:2:0:0:
306,238,11086,1,2,2:2:0:0:
306,238,11186,6,0,B|293:259|269:266|269:266|247:197|303:125,1,175,2|8,3:2|2:2,2:2:0:0:
341,326,11786,1,2,2:2:0:0:
180,263,11986,2,0,B|131:239|89:266|89:266|78:323|7:323,1,175,2|10,3:2|2:2,2:2:0:0:
84,174,12586,1,0,2:2:0:0:
168,356,12786,6,0,B|206:370|206:370|321:334,1,131.25,6|0,3:2|2:2,2:2:0:0:
309,336,13186,1,10,2:2:0:0:
383,382,13386,1,2,2:2:0:0:
453,208,13586,1,0,3:2:0:0:
374,257,13786,1,2,2:2:0:0:
374,257,13886,1,2,2:2:0:0:
374,257,13986,1,8,2:2:0:0:
459,303,14186,1,0,2:2:0:0:
381,139,14386,6,0,P|320:150|281:185,1,87.5,6|0,3:2|2:2,2:2:0:0:
299,163,14686,1,0,2:2:0:0:
299,163,14786,1,8,2:2:0:0:
217,112,14986,1,2,2:2:0:0:
217,112,15086,1,2,2:2:0:0:
217,112,15186,2,0,P|180:121|154:124,1,43.75,2|0,3:2|2:2,2:2:0:0:
112,188,15386,2,0,P|75:179|49:176,1,43.75,2|0,2:2|2:2,2:2:0:0:
5,106,15586,5,10,2:2:0:0:
12,52,15686,1,8,2:2:0:0:
50,14,15786,1,8,2:2:0:0:
102,4,15886,1,8,2:2:0:0:
151,29,15986,5,6,3:2:0:0:
269,129,16186,1,2,2:2:0:0:
363,12,16386,1,8,2:2:0:0:
347,171,16586,1,2,2:2:0:0:
487,115,16786,2,0,P|476:167|487:218,1,87.5,2|0,3:2|2:2,2:2:0:0:
480,200,17086,1,2,2:2:0:0:
479,199,17186,1,10,2:2:0:0:
401,89,17386,1,0,2:2:0:0:
300,258,17586,5,2,3:2:0:0:
226,215,17786,1,2,2:2:0:0:
226,215,17886,1,2,2:2:0:0:
226,215,17986,1,8,2:2:0:0:
156,265,18186,1,2,2:2:0:0:
14,142,18386,2,0,B|-3:184|-3:184|26:227|87:218,1,131.25,2|0,3:2|2:2,2:2:0:0:
86,212,18786,1,10,2:2:0:0:
98,116,18986,1,0,2:2:0:0:
25,334,19186,6,0,B|97:327|74:278|157:280,1,131.25,2|0,3:2|2:2,2:2:0:0:
155,289,19586,1,8,2:2:0:0:
248,348,19786,1,2,2:2:0:0:
417,289,19986,2,0,P|366:282|269:250,1,131.25,2|0,3:2|2:2,2:2:0:0:
278,248,20386,1,10,2:2:0:0:
365,167,20586,1,2,2:2:0:0:
365,167,20686,1,2,2:2:0:0:
365,167,20786,6,0,P|408:175|454:150,1,87.5,2|0,3:2|2:2,2:2:0:0:
406,81,21086,1,2,2:2:0:0:
406,81,21186,2,0,P|414:38|389:-8,1,87.5,10|0,2:2|2:2,2:2:0:0:
318,52,21586,2,0,B|250:70|252:17|152:64,1,131.25,2|0,3:2|2:2,2:2:0:0:
175,61,21986,1,8,2:2:0:0:
38,12,22186,1,2,2:2:0:0:
71,224,22386,5,6,3:2:0:0:
95,121,22586,1,2,2:2:0:0:
8,148,22786,1,8,2:2:0:0:
166,194,22986,1,2,2:2:0:0:
166,194,23086,1,2,2:2:0:0:
166,194,23186,2,0,P|217:184|317:162,1,131.25,2|0,3:2|2:2,2:2:0:0:
311,175,23586,2,0,P|300:228|290:278,1,87.5,8|2,2:2|2:2,2:2:0:0:
380,105,23986,5,2,3:2:0:0:
447,244,24186,1,2,2:2:0:0:
447,244,24286,1,2,2:2:0:0:
447,244,24386,1,8,2:2:0:0:
463,150,24586,1,2,2:2:0:0:
311,175,24786,2,0,B|261:165|261:165|245:141|245:141|174:105,1,131.25,2|0,3:2|2:2,2:2:0:0:
183,122,25186,1,8,2:2:0:0:
251,41,25386,1,2,2:2:0:0:
154,206,25586,6,0,P|104:224|54:245,1,87.5,2|2,3:2|2:2,2:2:0:0:
72,237,25886,1,2,2:2:0:0:
72,237,25986,1,8,2:2:0:0:
88,133,26186,1,2,2:2:0:0:
229,266,26386,2,0,P|222:309|214:352,1,87.5,2|0,3:2|2:2,2:2:0:0:
121,383,26686,1,2,2:2:0:0:
121,383,26786,2,0,P|86:356|53:327,1,87.5,8|2,2:2|2:2,2:2:0:0:
158,115,27186,6,0,B|232:108|219:164|294:164,1,131.25,2|2,3:2|2:2,2:2:0:0:
292,157,27586,1,8,2:2:0:0:
374,118,27786,1,2,2:2:0:0:
439,258,27986,1,2,3:2:0:0:
426,288,28086,1,0,3:2:0:0:
402,310,28186,1,0,3:2:0:0:
371,320,28286,1,0,3:2:0:0:
339,316,28386,1,10,2:2:0:0:
326,285,28486,1,8,2:2:0:0:
302,263,28586,1,8,2:2:0:0:
271,253,28686,1,8,2:2:0:0:
239,257,28786,5,6,2:2:0:0:
148,299,29386,1,0,2:2:0:0:
148,299,29586,1,2,2:2:0:0:
80,223,29986,1,2,2:2:0:0:
130,136,30386,1,2,2:2:0:0:
228,158,30986,1,0,2:2:0:0:
228,158,31186,1,2,2:2:0:0:
239,257,31786,5,0,2:2:0:0:
239,257,31986,1,2,2:2:0:0:
307,326,32586,1,0,2:2:0:0:
307,326,32786,1,2,2:2:0:0:
403,317,33186,1,2,2:2:0:0:
454,235,33586,1,2,2:2:0:0:
424,144,34186,1,0,2:2:0:0:
424,144,34386,1,2,2:2:0:0:
333,111,34786,1,2,2:2:0:0:
250,162,35186,5,2,2:2:0:0:
157,131,35786,1,0,2:2:0:0:
157,131,35986,1,2,2:2:0:0:
157,33,36386,1,2,2:2:0:0:
249,3,36786,1,2,2:2:0:0:
307,82,37386,1,0,2:2:0:0:
307,82,37586,1,2,2:2:0:0:
364,162,38186,5,0,2:2:0:0:
364,162,38386,1,2,2:2:0:0:
457,131,38986,1,0,2:2:0:0:
457,131,39186,1,2,2:2:0:0:
457,33,39586,1,2,2:2:0:0:
365,3,39986,1,2,2:2:0:0:
307,82,40586,1,2,2:2:0:0:
307,82,40686,1,2,2:2:0:0:
307,82,40786,6,0,P|288:89|256:96,6,34.1250001301765,0|0|0|0|0|0|0,3:2|3:2|3:2|3:2|3:2|3:2|3:2,2:2:0:0:
340,154,41186,2,0,P|359:161|391:166,3,52.5000020027161,2|0|0|0,3:2|3:2|3:2|3:2,2:2:0:0:
314,227,41586,6,0,P|269:248|169:173,1,162.400004956055,6|8,3:2|2:2,2:2:0:0:
115,284,42186,1,2,2:2:0:0:
25,222,42386,2,0,P|19:183|23:111,1,81.2000024780274,2|0,3:2|2:2,2:2:0:0:
115,284,42786,2,0,P|121:323|117:395,1,81.2000024780274,10|0,2:2|2:2,2:2:0:0:
177,199,43186,6,0,B|259:186|248:261|345:231,1,162.400004956055,2|8,3:2|2:2,2:2:0:0:
422,162,43786,1,2,2:2:0:0:
422,162,43886,1,2,2:2:0:0:
422,162,43986,1,0,3:2:0:0:
296,52,44186,2,0,B|301:95|301:95|306:103|306:103|312:154,1,97.9999970092774,2|8,2:1|2:2,2:2:0:0:
294,328,44586,1,2,2:2:0:0:
466,260,44786,6,0,B|430:303|379:295|379:295|365:257|311:237,1,162.400004956055,2|8,3:2|2:2,2:2:0:0:
206,355,45386,1,2,2:2:0:0:
122,317,45586,2,0,P|118:260|112:197,1,81.2000024780274,2|0,3:2|2:2,2:2:0:0:
28,201,45986,2,0,P|32:258|38:321,1,81.2000024780274,10|0,2:2|2:2,2:2:0:0:
206,355,46386,6,0,P|200:278|189:169,1,162.400004956055,2|8,3:2|2:2,2:2:0:0:
232,117,46986,1,2,2:2:0:0:
164,56,47186,1,2,3:2:0:0:
285,194,47386,2,0,B|328:188|328:188|336:183|336:183|387:177,2,97.9999970092774,2|10|2,2:1|2:2|2:2,2:2:0:0:
169,279,47986,6,0,B|113:255|113:255|73:304|5:287,1,162.400004956055,2|8,3:2|2:2,2:2:0:0:
42,121,48586,1,2,2:2:0:0:
42,121,48686,1,2,2:2:0:0:
42,121,48786,2,0,P|46:171|49:232,1,81.2000024780274,0|0,3:2|2:2,2:2:0:0:
174,359,49186,2,0,P|171:318|168:278,1,81.2000024780274,10|0,2:2|2:2,2:2:0:0:
141,193,49586,6,0,P|194:248|269:226,1,162.400004956055,2|8,3:2|2:2,2:2:0:0:
297,141,50186,1,2,2:2:0:0:
360,218,50386,1,2,3:2:0:0:
125,288,50586,2,0,B|130:243|130:243|135:235|135:235|140:192,1,97.9999970092774,2|8,2:1|2:2,2:2:0:0:
90,110,50986,1,2,2:2:0:0:
90,110,51086,1,2,2:2:0:0:
90,110,51186,6,0,B|67:126|57:141|57:141|-4:105|48:5,1,162.400004956055,0|8,3:2|2:2,2:2:0:0:
194,95,51786,1,2,2:2:0:0:
194,95,51886,1,2,2:2:0:0:
194,95,51986,2,0,P|230:120|276:105,1,81.2000024780274,0|0,3:2|2:2,2:2:0:0:
404,23,52386,2,0,P|365:17|334:42,1,81.2000024780274,8|0,2:2|2:2,2:2:0:0:
320,208,52786,6,0,B|355:242|355:242|425:240|459:187,1,162.400004956055,2|8,3:2|2:2,2:2:0:0:
275,292,53386,1,2,2:2:0:0:
275,292,53486,1,2,2:2:0:0:
275,292,53586,2,0,P|219:312|181:291,1,81.2000024780274,0|0,3:2|2:2,2:2:0:0:
123,238,53986,1,8,2:2:0:0:
101,216,54086,1,0,3:2:0:0:
72,206,54186,1,8,2:3:0:0:
42,209,54286,1,4,2:3:0:0:
16,223,54386,6,0,B|6:254|6:254|28:322,1,81.2000024780274,6|0,3:2|2:2,2:2:0:0:
92,120,54786,2,0,B|102:89|102:89|80:21,1,81.2000024780274,10|0,2:2|2:2,2:2:0:0:
159,208,55186,2,0,P|202:224|272:161,1,121.800003717041,2|0,3:2|2:2,2:2:0:0:
270,168,55586,1,10,2:2:0:0:
352,226,55786,1,2,2:2:0:0:
400,110,55986,6,0,P|442:89|485:102,1,81.2000024780274,2|0,3:2|2:2,2:2:0:0:
403,283,56386,2,0,P|363:257|353:213,1,81.2000024780274,10|0,2:2|2:2,2:2:0:0:
440,191,56786,1,2,3:2:0:0:
222,359,57186,5,10,2:2:0:0:
264,273,57386,1,2,2:2:0:0:
323,350,57586,2,0,P|373:339|429:326,1,81.2000024780274,2|0,3:2|2:2,2:2:0:0:
165,274,57986,2,0,P|125:264|85:256,1,81.2000024780274,10|0,2:2|2:2,2:2:0:0:
85,256,58286,1,0,2:2:0:0:
85,256,58386,6,0,P|48:287|-5:284,1,81.2000024780274,2|0,3:2|2:2,2:2:0:0:
156,171,58786,2,0,P|195:177|224:205,1,81.2000024780274,10|0,2:2|2:2,2:2:0:0:
244,198,59086,1,2,2:2:0:0:
261,188,59186,6,0,L|268:91,1,81.2000024780274,2|0,3:2|2:2,2:2:0:0:
282,94,59486,1,2,2:2:0:0:
299,83,59586,1,10,2:2:0:0:
240,10,59786,1,2,2:2:0:0:
315,71,59986,2,0,L|395:76,1,81.2000024780274,2|0,3:2|2:2,2:2:0:0:
496,171,60386,5,8,2:2:0:0:
457,159,60486,1,8,2:2:0:0:
418,169,60586,1,8,2:2:0:0:
390,197,60686,1,8,2:2:0:0:
381,236,60786,6,0,P|395:291|404:336,1,81.2000024780274,6|0,3:2|2:2,2:2:0:0:
480,243,61186,1,10,2:2:0:0:
308,297,61386,1,2,2:2:0:0:
350,76,61586,2,0,P|366:156|381:236,1,162.400004956055,2|8,3:2|2:2,2:2:0:0:
434,48,62186,1,2,2:2:0:0:
270,135,62386,6,0,P|216:147|175:153,1,81.2000024780274,6|0,3:2|2:2,2:2:0:0:
381,236,62786,2,0,P|421:242|460:252,1,81.2000024780274,14|0,2:2|2:2,2:2:0:0:
267,365,63186,2,0,B|251:329|251:329|260:283|287:241,1,121.800003717041,6|0,3:2|2:2,2:2:0:0:
294,267,63586,1,10,2:2:0:0:
166,372,63786,1,2,2:2:0:0:
93,244,63986,6,0,P|96:201|12:154,1,125.999996154785,6|0,3:2|2:2,2:2:0:0:
23,168,64386,1,10,2:2:0:0:
93,337,64586,1,2,2:2:0:0:
179,194,64786,1,2,3:2:0:0:
93,244,64986,1,0,2:2:0:0:
220,358,65186,2,0,B|299:338|248:288|353:270,1,136.499993751526,10|0,2:2|2:2,2:2:0:0:
392,320,65586,6,0,B|379:290|379:290|379:266|399:216,1,90.9999958343508,6|0,3:2|2:2,2:2:0:0:
483,40,65986,2,0,B|496:70|496:70|496:94|476:144,1,90.9999958343508,10|2,2:2|2:2,2:2:0:0:
482,126,66286,1,2,2:2:0:0:
482,126,66386,1,0,3:2:0:0:
370,93,66586,1,0,3:2:0:0:
364,110,66686,1,0,3:2:0:0:
360,125,66786,5,8,2:2:0:0:
316,138,66886,1,8,2:2:0:0:
272,151,66986,1,8,2:2:0:0:
229,163,67086,1,8,2:2:0:0:
185,176,67186,5,2,3:3:0:0:
251,268,67486,5,2,3:3:0:0:
185,361,67786,5,2,3:3:0:0:
76,325,68086,5,2,3:3:0:0:
76,212,68386,5,2,3:3:0:0:
360,227,69586,5,2,2:2:0:0:
360,227,69786,1,2,3:2:0:0:
346,321,69986,2,0,B|335:360|299:376|266:363|266:363|255:331|205:309,1,157.500006008148,10|0,2:2|2:2,2:2:0:0:
187,379,70386,6,0,P|174:327|147:234,1,131.25,6|0,3:2|2:2,2:2:0:0:
131,230,70786,1,10,2:2:0:0:
192,134,70986,1,2,2:2:0:0:
16,61,71186,2,0,P|67:76|129:0,1,131.25,2|0,3:2|2:2,2:2:0:0:
140,5,71586,1,10,2:2:0:0:
50,170,71786,1,2,2:2:0:0:
329,138,71986,5,2,3:2:0:0:
206,105,72186,1,2,2:2:0:0:
357,235,72386,2,0,P|317:244|252:263,1,87.5,10|0,2:2|2:2,2:2:0:0:
448,299,72786,2,0,B|469:260|469:260|469:206|438:163,1,131.25,2|0,3:2|2:2,2:2:0:0:
458,148,73186,1,10,2:2:0:0:
377,65,73386,1,2,2:2:0:0:
272,256,73586,6,0,B|209:251|226:191|132:196,1,131.25,2|0,3:2|2:2,2:2:0:0:
128,202,73986,1,10,2:2:0:0:
206,105,74186,1,2,2:2:0:0:
145,300,74386,2,0,P|100:309|28:340,1,87.5,2|0,3:2|2:2,2:2:0:0:
60,323,74686,1,0,2:2:0:0:
60,323,74786,2,0,P|51:278|20:206,1,87.5,8|2,2:2|2:2,2:2:0:0:
241,27,75186,5,0,3:2:0:0:
190,202,75386,1,2,2:2:0:0:
190,202,75486,1,2,2:2:0:0:
190,202,75586,1,8,2:2:0:0:
368,159,75786,1,2,2:2:0:0:
280,133,75986,6,0,B|271:159|271:159|280:198|305:228,1,87.5,2|0,3:2|2:2,2:2:0:0:
314,236,76286,1,0,2:2:0:0:
326,264,76386,1,10,2:2:0:0:
269,350,76586,1,2,2:2:0:0:
124,275,76786,6,0,P|55:248|-3:282,1,131.25,2|0,3:2|2:2,2:2:0:0:
20,298,77186,1,10,2:2:0:0:
136,168,77386,1,2,2:2:0:0:
48,57,77586,2,0,B|74:86|74:86|128:96|183:34,1,131.25,2|0,3:2|2:2,2:2:0:0:
178,34,77986,1,10,2:2:0:0:
136,168,78186,1,2,2:2:0:0:
321,203,78386,6,0,B|376:202|360:231|438:233,1,87.5,2|0,3:2|2:2,2:2:0:0:
403,229,78686,1,2,2:2:0:0:
403,229,78786,1,8,2:2:0:0:
342,109,78986,1,2,2:2:0:0:
316,288,79186,2,0,P|263:296|194:380,1,131.25,2|0,3:2|2:2,2:2:0:0:
230,365,79586,1,10,2:2:0:0:
191,207,79786,1,2,2:2:0:0:
70,320,79986,6,0,B|58:288|58:288|60:257|80:204,1,87.5,2|0,3:2|2:2,2:2:0:0:
84,209,80286,1,0,2:2:0:0:
83,178,80386,1,8,2:2:0:0:
41,96,80586,1,2,2:2:0:0:
191,207,80786,1,2,3:2:0:0:
249,134,80986,1,0,2:2:0:0:
401,172,81186,2,0,P|361:201|317:194,1,87.5,10|0,2:2|2:2,2:2:0:0:
440,78,81586,5,2,3:2:0:0:
428,273,81786,1,0,2:2:0:0:
428,273,81886,1,0,2:2:0:0:
428,273,81986,1,8,2:2:0:0:
332,111,82186,1,0,2:2:0:0:
319,311,82386,5,2,3:2:0:0:
276,321,82486,1,2,2:2:0:0:
236,306,82586,1,2,2:2:0:0:
210,271,82686,1,2,2:2:0:0:
208,229,82786,1,10,2:2:0:0:
183,193,82886,1,2,2:2:0:0:
142,178,82986,1,2,2:2:0:0:
100,188,83086,1,2,2:2:0:0:
71,219,83186,6,0,P|82:148|87:78,1,131.25,6|0,3:2|2:2,2:2:0:0:
74,60,83586,1,10,2:2:0:0:
0,133,83786,1,2,2:2:0:0:
105,305,83986,2,0,P|136:275|179:272,1,87.5,2|0,3:2|2:2,2:2:0:0:
222,338,84286,1,0,2:2:0:0:
222,338,84386,2,0,P|253:367|296:370,1,87.5,10|0,2:2|2:2,2:2:0:0:
480,277,84786,5,2,3:2:0:0:
351,157,84986,1,2,2:2:0:0:
351,157,85086,1,2,2:2:0:0:
351,157,85186,1,8,2:2:0:0:
385,331,85386,1,2,2:2:0:0:
459,170,85586,1,2,3:2:0:0:
305,256,85786,1,2,2:2:0:0:
305,256,85886,1,2,2:2:0:0:
305,256,85986,2,0,P|248:251|200:242,1,87.5,8|2,2:2|2:2,2:2:0:0:
21,184,86386,6,0,P|81:178|189:161,1,131.25,2|0,3:2|2:2,2:2:0:0:
174,147,86786,1,10,2:2:0:0:
121,68,86986,1,2,2:2:0:0:
313,109,87186,2,0,P|295:48|234:34,1,131.25,2|0,3:2|2:2,2:2:0:0:
215,58,87586,1,10,2:2:0:0:
382,182,87786,1,2,2:2:0:0:
376,11,87986,5,2,3:2:0:0:
293,198,88186,1,2,2:2:0:0:
218,148,88386,1,10,2:2:0:0:
199,184,88486,1,8,2:2:0:0:
165,206,88586,1,8,2:2:0:0:
124,206,88686,1,8,2:2:0:0:
88,186,88786,2,0,L|98:86,1,87.5,2|0,3:2|2:2,2:2:0:0:
20,115,89086,1,0,2:2:0:0:
20,115,89186,2,0,L|11:202,1,87.5,10|2,2:2|2:2,2:2:0:0:
94,351,89586,6,0,P|167:359|222:297,1,131.25,2|0,3:2|2:2,2:2:0:0:
219,296,89986,1,10,2:2:0:0:
146,238,90186,1,2,2:2:0:0:
313,352,90386,2,0,B|379:325|344:287|428:264,1,131.25,2|0,3:2|2:2,2:2:0:0:
438,284,90786,1,10,2:2:0:0:
493,365,90986,1,2,2:2:0:0:
367,171,91186,6,0,B|328:192|328:192|287:180,1,87.5,2|0,3:2|2:2,2:2:0:0:
257,184,91486,1,0,2:2:0:0:
232,202,91586,1,10,2:2:0:0:
149,135,91786,1,2,2:2:0:0:
245,6,91986,2,0,P|238:66|235:114,1,87.5,2|0,3:2|2:2,2:2:0:0:
71,199,92386,2,0,P|64:139|61:91,1,87.5,10|0,2:2|2:2,2:2:0:0:
26,278,92786,6,0,P|70:292|148:246,1,131.25,2|0,3:2|2:2,2:2:0:0:
169,269,93186,1,10,2:2:0:0:
247,205,93386,1,2,2:2:0:0:
379,294,93586,2,0,B|349:313|349:313|301:308|289:275,1,87.5,2|0,3:2|2:2,2:2:0:0:
308,110,93986,2,0,P|356:105|404:126,1,87.5,10|0,2:2|2:2,2:2:0:0:
343,207,94386,5,6,3:2:0:0:
273,28,94586,1,2,2:2:0:0:
273,28,94686,1,2,2:2:0:0:
273,28,94786,1,8,2:2:0:0:
471,59,94986,1,2,2:2:0:0:
471,59,95086,1,2,2:2:0:0:
471,59,95186,5,4,3:2:0:0:
355,103,95386,1,2,2:2:0:0:
318,105,95486,1,2,2:2:0:0:
286,120,95586,1,8,2:2:0:0:
261,147,95686,1,8,2:2:0:0:
236,173,95786,1,8,2:2:0:0:
202,187,95886,1,8,2:2:0:0:
166,191,95986,6,0,P|164:138|153:74,1,105.000004005432,2|0,2:2|2:2,2:2:0:0:
56,95,96786,2,0,P|58:147|66:199,1,105.000004005432,2|0,2:2|2:2,2:2:0:0:
8,253,97386,2,0,P|53:283|91:335,1,105.000004005432,2|0,2:2|2:2,2:2:0:0:
162,364,97986,1,2,2:2:0:0:
162,364,98186,2,0,P|196:353|283:335,1,105.000004005432,2|0,2:2|2:2,2:2:0:0:
337,286,98786,2,0,P|378:307|393:312,1,52.5000020027161,2|0,2:2|2:2,2:2:0:0:
463,351,99186,6,0,P|468:315|488:241,1,105.000004005432,2|0,2:2|2:2,2:2:0:0:
411,200,99786,2,0,P|385:154|377:103,1,105.000004005432,2|0,2:2|2:2,2:2:0:0:
441,34,100386,1,2,2:2:0:0:
441,34,100586,2,0,P|479:43|509:52,1,52.5000020027161,2|0,2:2|2:2,2:2:0:0:
491,46,101986,6,0,P|459:49|405:116,1,105,2|0,2:2|2:2,2:2:0:0:
406,118,102386,6,0,L|440:296,1,162.400004956055,6|0,3:2|3:2,2:2:0:0:
385,355,102986,1,2,2:2:0:0:
243,310,103186,2,0,B|265:292|265:292|299:292|340:304,1,81.2000024780274,2|0,3:2|2:2,2:2:0:0:
176,373,103586,2,0,P|138:363|116:319,1,81.2000024780274,2|0,3:2|2:2,2:2:0:0:
130,163,103986,6,0,B|146:127|146:127|187:194|144:247,1,162.400004956055,2|0,3:2|3:2,2:2:0:0:
51,256,104586,1,2,2:2:0:0:
51,256,104786,2,0,B|35:220|35:220|-6:287|37:340,1,162.400004956055,2|0,3:2|3:2,2:2:0:0:
147,242,105386,1,2,2:2:0:0:
244,318,105586,6,0,B|336:309|294:250|405:246,1,162.400004956055,2|0,3:2|3:2,2:2:0:0:
388,335,106186,1,2,2:2:0:0:
334,177,106386,2,0,P|388:162|435:176,1,81.2000024780274,2|0,3:2|2:2,2:2:0:0:
244,224,106786,2,0,P|204:184|192:137,1,81.2000024780274,2|0,3:2|2:2,2:2:0:0:
110,65,107186,6,0,P|96:133|11:173,1,162.400004956055,2|0,3:2|3:2,2:2:0:0:
23,77,107786,1,2,2:2:0:0:
93,243,107986,1,2,3:2:0:0:
93,243,108386,2,0,P|83:318|82:339,1,81.2000024780274,2|0,3:2|2:2,2:2:0:0:
188,289,108786,6,0,P|208:341|316:356,1,162.400004956055,2|0,3:2|3:2,2:2:0:0:
442,285,109386,2,0,P|406:284|361:291,1,81.2000024780274,2|0,2:2|3:2,2:2:0:0:
300,204,109786,1,2,2:2:0:0:
300,204,109986,2,0,P|335:204|380:197,1,81.2000024780274,2|0,3:2|2:2,2:2:0:0:
455,121,110386,6,0,B|493:68|450:5|450:5|438:31|422:52,1,162.400004956055,2|0,3:2|3:2,2:2:0:0:
356,82,110986,1,2,2:2:0:0:
272,26,111186,2,0,B|178:48|238:92|138:112,1,162.400004956055,2|0,3:2|3:2,2:2:0:0:
67,65,111786,1,2,2:2:0:0:
112,208,111986,6,0,P|166:204|276:147,1,162.400004956055,2|0,3:2|3:2,2:2:0:0:
335,217,112586,1,2,2:2:0:0:
429,163,112786,2,0,P|418:213|420:262,1,81.2000024780274,2|2,3:2|2:2,2:2:0:0:
493,276,113086,1,2,2:2:0:0:
493,276,113186,2,0,P|504:226|502:177,1,81.2000024780274,0|0,3:2|2:2,2:2:0:0:
418,325,113586,6,0,B|381:322|352:331|352:331|336:355|336:355|311:371|259:367,1,162.400004956055,2|0,3:2|3:2,2:2:0:0:
194,316,114186,1,2,2:2:0:0:
194,316,114286,1,2,2:2:0:0:
194,316,114386,2,0,L|199:260,6,34.1250001301765,0|0|0|0|0|0|0,3:2|3:2|3:2|3:2|3:2|3:2|3:2,2:2:0:0:
112,331,114786,2,0,L|119:390,1,52.5000020027161,2|0,3:2|3:2,2:2:0:0:
87,320,114986,2,0,L|94:379,1,52.5000020027161,2|0,3:2|3:2,2:2:0:0:
17,246,115186,6,0,P|-3:197|62:115,1,162.400004956055,6|8,3:2|2:2,2:2:0:0:
151,161,115786,1,2,2:2:0:0:
151,161,115886,1,2,2:2:0:0:
151,161,115986,1,0,3:2:0:0:
232,89,116186,1,0,2:2:0:0:
136,42,116386,1,10,2:2:0:0:
241,195,116586,1,2,2:2:0:0:
318,39,116786,6,0,P|369:54|479:83,1,162.400004956055,2|8,3:2|2:2,2:2:0:0:
306,21,117386,1,2,2:2:0:0:
354,155,117586,1,2,3:2:0:0:
322,244,117786,2,0,B|279:249|279:249|271:254|271:254|220:260,1,97.9999970092774,2|8,2:1|2:2,2:2:0:0:
373,330,118186,1,2,2:2:0:0:
373,330,118286,1,2,2:2:0:0:
373,330,118386,6,0,P|423:344|478:239,1,162.400004956055,2|8,3:2|2:2,2:2:0:0:
416,202,118986,1,2,2:2:0:0:
290,371,119186,2,0,P|280:321|265:269,1,81.2000024780274,2|0,3:2|2:2,2:2:0:0:
161,308,119586,2,0,P|168:268|180:229,1,81.2000024780274,10|0,2:2|2:2,2:2:0:0:
84,371,119986,6,0,B|7:328|61:291|-29:254,1,162.400004956055,2|8,3:2|2:2,2:2:0:0:
63,197,120586,1,2,2:2:0:0:
3,95,120786,1,2,3:2:0:0:
65,35,120986,2,0,B|108:40|108:40|116:45|116:45|167:51,2,97.9999970092774,2|10|2,2:1|2:2|2:2,2:2:0:0:
220,140,121586,6,0,B|278:132|278:132|307:107|307:107|382:99,1,162.400004956055,2|8,3:2|2:2,2:2:0:0:
271,21,122186,1,2,2:2:0:0:
271,21,122286,1,2,2:2:0:0:
271,21,122386,1,0,3:2:0:0:
462,94,122586,2,0,P|441:162|427:208,1,81.2000024780274,2|8,2:2|2:2,2:2:0:0:
484,260,122986,1,2,2:2:0:0:
484,260,123086,1,2,2:2:0:0:
484,260,123186,6,0,P|425:283|354:224,1,162.400004956055,2|8,3:2|2:2,2:2:0:0:
280,291,123786,1,2,2:2:0:0:
289,310,123886,1,2,2:2:0:0:
291,329,123986,1,0,3:2:0:0:
435,188,124186,2,0,B|441:144|441:144|446:136|446:136|451:93,1,97.9999970092774,2|8,2:1|2:2,2:2:0:0:
484,260,124586,1,2,2:2:0:0:
499,23,124786,5,2,3:2:0:0:
464,2,124886,1,2,2:2:0:0:
424,2,124986,1,2,2:2:0:0:
389,22,125086,1,2,2:2:0:0:
369,57,125186,2,0,P|327:84|280:83,1,81.2000024780274,8|0,2:2|3:2,2:2:0:0:
234,48,125486,1,0,3:2:0:0:
234,48,125586,2,0,P|191:21|144:22,1,81.2000024780274,2|0,3:2|2:2,2:2:0:0:
56,100,125986,2,0,P|54:150|78:190,1,81.2000024780274,10|0,2:2|2:2,2:2:0:0:
130,232,126386,6,0,B|228:239|184:191|293:202,1,162.400004956055,2|8,3:2|2:2,2:2:0:0:
386,323,126986,1,2,2:2:0:0:
384,335,127086,1,2,2:2:0:0:
382,347,127186,5,0,3:2:0:0:
343,359,127286,1,0,3:2:0:0:
304,350,127386,1,0,3:2:0:0:
274,323,127486,1,0,3:2:0:0:
262,284,127586,1,8,2:2:0:0:
250,323,127686,1,8,2:2:0:0:
220,350,127786,1,8,2:2:0:0:
181,359,127886,1,8,2:2:0:0:
142,347,127986,6,0,B|119:334|119:334|89:341|51:367,1,81.2000024780274,6|0,3:2|2:2,2:2:0:0:
5,253,128386,1,10,2:2:0:0:
5,253,128586,1,2,2:2:0:0:
59,188,128786,2,0,P|95:204|179:144,1,121.800003717041,2|0,3:2|2:2,2:2:0:0:
175,154,129186,1,10,2:2:0:0:
104,97,129386,1,2,2:2:0:0:
222,249,129586,5,2,3:2:0:0:
303,197,129786,1,2,2:2:0:0:
303,197,129886,1,2,2:2:0:0:
303,197,129986,2,0,P|290:136|282:96,1,81.2000024780274,8|0,2:2|2:2,2:2:0:0:
384,252,130386,2,0,B|463:249|439:320|548:334,1,162.400004956055,2|8,3:2|2:2,2:2:0:0:
459,124,130986,1,2,2:2:0:0:
459,124,131086,1,2,2:2:0:0:
459,124,131186,6,0,P|406:151|363:153,1,81.2000024780274,0|0,3:2|2:2,2:2:0:0:
299,290,131586,2,0,P|246:263|203:261,1,81.2000024780274,10|0,2:2|2:2,2:2:0:0:
160,195,131986,2,0,P|113:206|55:289,1,121.800003717041,2|0,3:2|2:2,2:2:0:0:
47,271,132386,2,0,P|61:322|67:356,1,81.2000024780274,10|0,2:2|2:2,2:2:0:0:
51,364,132686,1,2,2:2:0:0:
32,372,132786,5,2,3:2:0:0:
108,101,133086,1,2,2:2:0:0:
123,113,133186,2,0,P|177:129|204:119,1,81.2000024780274,10|0,2:2|2:2,2:2:0:0:
213,27,133586,2,0,P|159:11|132:21,1,81.2000024780274,2|0,3:2|2:2,2:2:0:0:
235,190,133986,1,10,2:2:0:0:
321,80,134186,1,2,2:2:0:0:
123,113,134386,6,0,B|99:138|99:138|96:209|129:278,1,162.400004956055,6|10,3:2|2:2,2:2:0:0:
208,333,134986,1,2,2:2:0:0:
307,275,135186,2,0,P|341:293|432:287,1,121.800003717041,2|0,3:2|2:2,2:2:0:0:
437,277,135586,1,10,2:2:0:0:
365,197,135786,1,2,2:2:0:0:
456,372,135986,5,6,3:2:0:0:
489,166,136186,1,2,2:2:0:0:
489,166,136286,1,2,2:2:0:0:
489,166,136386,1,8,2:2:0:0:
437,277,136586,1,2,2:2:0:0:
307,275,136786,2,0,P|258:259|202:242,1,81.2000024780274,6|0,3:2|2:2,2:2:0:0:
174,304,137086,1,0,2:2:0:0:
174,304,137186,2,0,P|125:320|69:337,1,81.2000024780274,10|0,2:2|2:2,2:2:0:0:
0,184,137586,5,6,3:2:0:0:
77,339,137786,1,2,0:0:0:0:
173,204,137986,2,0,P|134:216|96:229,1,81.2000024780274,10|0,2:2|2:2,2:2:0:0:
241,61,138386,2,0,B|261:87|261:87|261:107|251:141,1,81.2000024780274,6|0,3:2|2:2,2:2:0:0:
248,161,138686,1,0,0:0:0:0:
248,161,138786,2,0,B|294:182|294:182|339:175|384:143,1,121.800003717041,10|0,2:2|2:2,2:2:0:0:
377,145,139186,5,6,3:2:0:0:
483,249,139386,1,2,2:2:0:0:
483,249,139486,1,2,2:2:0:0:
483,249,139586,1,8,2:2:0:0:
372,322,139786,1,2,2:2:0:0:
372,322,139886,1,2,2:2:0:0:
372,322,139986,2,0,P|331:315|304:307,1,40.6000012390137,0|0,3:2|2:2,2:2:0:0:
257,348,140186,2,0,P|216:355|189:363,1,40.6000012390137,0|0,3:2|2:2,2:2:0:0:
168,278,140386,5,8,2:2:0:0:
138,250,140486,1,8,2:2:0:0:
102,231,140586,1,8,2:2:0:0:
63,220,140686,1,8,2:2:0:0:
23,218,140786,5,2,3:3:0:0:
99,203,141086,5,2,3:3:0:0:
162,153,141386,5,2,3:3:0:0:
191,78,141686,5,2,3:3:0:0:
178,3,141986,5,2,3:3:0:0:
178,3,143186,5,2,2:2:0:0:
178,3,143386,1,2,3:2:0:0:
221,70,143586,2,0,B|239:59|255:40|255:40|230:94|239:149,1,157.500006008148,10|0,3:2|2:2,3:2:0:0:
310,188,143986,6,0,B|342:211|370:212|370:212|398:178|449:173,1,131.25,6|0,3:2|2:2,2:2:0:0:
454,183,144386,1,10,2:2:0:0:
368,336,144586,1,2,2:2:0:0:
287,281,144786,2,0,B|209:280|240:340|143:335,1,131.25,2|0,3:2|2:2,2:2:0:0:
143,322,145186,1,10,2:2:0:0:
25,195,145386,6,0,B|56:208|56:208|108:204|125:177,1,87.5,2|0,2:2|3:2,2:2:0:0:
194,104,145786,1,2,2:2:0:0:
194,104,145886,1,2,2:2:0:0:
194,104,145986,2,0,P|180:33|171:-9,1,87.5,10|0,2:2|2:2,2:2:0:0:
292,36,146386,2,0,P|306:107|315:149,1,87.5,2|0,3:2|2:2,2:2:0:0:
334,139,146686,1,0,2:2:0:0:
359,156,146786,1,10,2:2:0:0:
438,99,146986,1,2,2:2:0:0:
432,220,147186,6,0,B|406:254|406:254|359:261|301:233,1,131.25,2|0,3:2|2:2,2:2:0:0:
295,261,147586,1,10,2:2:0:0:
345,129,147786,1,2,2:2:0:0:
241,39,147986,2,0,P|186:31|133:97,1,131.25,2|0,3:2|2:2,2:2:0:0:
152,106,148386,1,10,2:2:0:0:
54,175,148586,1,2,2:2:0:0:
187,368,148786,5,2,3:2:0:0:
164,255,148986,1,2,2:2:0:0:
153,225,149086,1,2,2:2:0:0:
139,196,149186,1,8,2:2:0:0:
70,341,149386,1,2,2:2:0:0:
269,310,149586,2,0,P|310:297|355:288,1,87.5,2|0,3:2|2:2,2:2:0:0:
378,269,149886,1,0,2:2:0:0:
398,245,149986,2,0,P|385:204|376:159,1,87.5,10|2,2:2|2:2,2:2:0:0:
481,19,150386,6,0,P|459:70|372:58,1,131.25,2|0,3:2|2:2,2:2:0:0:
363,59,150786,1,10,2:2:0:0:
274,163,150986,1,2,2:2:0:0:
102,86,151186,2,0,P|174:88|248:50,1,131.25,2|0,3:2|2:2,2:2:0:0:
237,36,151586,1,10,2:2:0:0:
130,190,151786,1,2,2:2:0:0:
4,55,151986,6,0,P|19:121|26:174,1,87.5,2|0,3:2|2:2,2:2:0:0:
18,170,152286,1,0,2:2:0:0:
8,198,152386,1,10,2:2:0:0:
91,303,152586,1,2,2:2:0:0:
168,248,152786,1,2,3:2:0:0:
190,253,152886,1,2,2:2:0:0:
213,257,152986,1,2,2:2:0:0:
236,261,153086,1,2,2:2:0:0:
260,265,153186,2,0,P|245:331|238:384,1,87.5,8|2,2:2|2:2,2:2:0:0:
344,225,153586,6,0,P|304:181|210:181,1,131.25,0|0,3:2|2:2,2:2:0:0:
210,188,153986,1,10,2:2:0:0:
92,99,154186,1,2,2:2:0:0:
205,35,154386,1,2,3:2:0:0:
114,232,154586,1,2,2:2:0:0:
114,232,154686,1,2,2:2:0:0:
114,232,154786,2,0,P|67:250|9:232,1,87.5,8|0,2:2|2:2,2:2:0:0:
188,314,155186,5,0,3:2:0:0:
223,289,155286,1,0,3:2:0:0:
266,286,155386,1,0,3:2:0:0:
305,306,155486,1,0,3:2:0:0:
328,342,155586,1,8,2:2:0:0:
363,366,155686,1,8,2:2:0:0:
406,369,155786,1,8,2:2:0:0:
445,349,155886,1,8,2:2:0:0:
468,313,155986,6,0,L|458:243,3,43.75,2|0|0|0,3:2|3:2|3:2|3:2,2:2:0:0:
507,202,156386,2,0,L|496:131,3,43.75,10|8|8|8,2:2|2:2|2:2|2:2,2:2:0:0:
421,119,156786,6,0,B|395:88|395:88|398:31|436:0,1,131.25,6|0,3:2|2:2,2:2:0:0:
453,25,157186,1,10,2:2:0:0:
311,130,157386,1,2,2:2:0:0:
233,48,157586,2,0,P|191:61|71:83,1,131.25,2|0,3:2|2:2,2:2:0:0:
78,64,157986,1,10,2:2:0:0:
0,7,158186,1,2,2:2:0:0:
130,165,158386,6,0,P|138:209|152:273,1,87.5,2|0,3:2|2:2,2:2:0:0:
46,147,158786,1,10,2:2:0:0:
232,193,158986,1,2,2:2:0:0:
35,373,159186,2,0,P|15:356|29:289,1,87.5,2|0,3:2|2:2,2:2:0:0:
42,283,159486,1,0,2:2:0:0:
72,286,159586,1,10,2:2:0:0:
130,165,159786,1,2,2:2:0:0:
233,332,159986,6,0,P|292:348|345:279,1,131.25,2|0,3:2|2:2,2:2:0:0:
338,274,160386,1,10,2:2:0:0:
437,336,160586,1,2,2:2:0:0:
512,215,160786,2,0,B|486:183|486:183|516:119|479:72,1,131.25,2|0,3:2|2:2,2:2:0:0:
469,76,161186,1,10,2:2:0:0:
376,186,161386,1,2,2:2:0:0:
178,74,161586,6,0,B|213:59|213:59|252:70|280:95,1,87.5,2|2,3:2|2:2,2:2:0:0:
278,101,161886,1,2,2:2:0:0:
291,128,161986,1,8,2:2:0:0:
350,12,162186,1,2,2:2:0:0:
210,173,162386,2,0,P|223:229|236:284,1,87.5,2|0,3:2|2:2,2:2:0:0:
219,289,162686,1,0,2:2:0:0:
219,289,162786,2,0,P|176:299|133:308,1,87.5,10|2,2:2|2:2,2:2:0:0:
0,117,163186,6,0,P|55:167|128:130,1,131.25,2|0,3:2|2:2,2:2:0:0:
126,133,163586,1,10,2:2:0:0:
59,32,163786,1,2,2:2:0:0:
50,285,163986,2,0,B|134:273|92:236|182:233,1,131.25,2|0,3:2|2:2,2:2:0:0:
194,248,164386,1,10,2:2:0:0:
163,362,164586,1,2,2:2:0:0:
264,181,164786,6,0,P|314:211|353:212,1,87.5,2|0,3:2|2:2,2:2:0:0:
371,204,165086,1,0,2:2:0:0:
397,188,165186,1,10,2:2:0:0:
433,108,165386,1,2,2:2:0:0:
369,46,165586,2,0,B|345:65|326:77|326:77|291:74|243:51,1,131.25,2|0,3:2|2:2,2:2:0:0:
226,37,165986,2,0,P|169:47|132:85,1,87.5,10|2,2:2|2:2,2:2:0:0:
302,283,166386,6,0,P|321:228|307:177,1,87.5,2|0,3:2|2:2,2:2:0:0:
295,179,166686,1,0,2:2:0:0:
265,169,166786,1,10,2:2:0:0:
178,232,166986,1,2,2:2:0:0:
23,174,167186,5,2,3:2:0:0:
86,227,167386,1,2,2:2:0:0:
80,243,167486,1,2,2:2:0:0:
74,259,167586,2,0,P|111:303|162:316,1,87.5,8|0,2:2|2:2,2:2:0:0:
278,368,167986,5,6,3:2:0:0:
299,330,168086,1,0,3:2:0:0:
335,306,168186,1,0,3:2:0:0:
379,302,168286,1,0,3:2:0:0:
419,318,168386,1,10,2:2:0:0:
403,277,168486,1,0,3:2:0:0:
407,234,168586,1,0,3:2:0:0:
431,198,168686,1,0,3:2:0:0:
468,176,168786,5,6,3:2:0:0:
456,134,168886,1,0,3:2:0:0:
443,92,168986,1,0,3:2:0:0:
431,50,169086,1,0,3:2:0:0:
418,8,169186,2,0,P|360:28|342:32,1,43.75,10|0,2:2|2:2,2:2:0:0:
321,78,169386,2,0,P|262:58|244:54,1,43.75,10|0,2:2|2:2,2:2:0:0:
194,31,169586,6,0,B|166:61|166:61|114:76|46:52,1,157.500006008148,6|0,3:2|0:0,0:0:0:0:
40,45,170386,2,0,B|68:84|66:129|66:129|30:165|30:200,1,157.500006008148,10|0,2:2|0:0,0:0:0:0:
39,202,171186,6,0,L|81:193,3,43.75,6|2|2|2,3:2|0:2|0:2|0:2,0:2:0:0:
49,276,171586,2,0,L|93:269,3,43.75,10|2|2|2,0:2|0:2|0:2|0:2,0:2:0:0:
164,330,171986,5,2,3:2:0:0:
216,341,172086,1,2,3:2:0:0:
262,313,172186,1,2,3:2:0:0:
276,262,172286,1,2,3:2:0:0:
251,215,172386,5,2,3:2:0:0:
232,153,172486,5,2,3:2:0:0:
256,94,172586,5,10,0:3:0:0:
313,63,172686,5,10,0:3:0:0:
376,75,172786,5,12,3:3:0:0:
376,75,173586,6,0,P|406:109|419:138,1,43.75,2|0,0:1|0:2,0:2:0:0:
209,133,173786,2,0,P|223:90|242:64,1,43.75,2|0,0:1|0:2,0:2:0:0:
366,204,173986,1,8,0:2:0:0:
358,228,174086,1,8,0:2:0:0:
343,249,174186,2,0,P|298:257|266:254,1,43.75,2|0,3:1|3:2,3:2:0:0:
44,186,174386,6,2,B|90:195|113:220|113:220|148:187|148:187|186:224|186:224|238:151|320:156,1,315.000012016297,6|0,3:1|0:2,0:1:0:0:
376,191,175086,1,2,0:2:0:0:
376,191,175186,2,0,B|445:213|445:213|416:136,1,105.000004005432,2|0,3:1|0:2,0:2:0:0:
363,107,175486,2,0,B|347:36|347:36|295:99,1,105.000004005432,2|0,0:1|0:2,0:2:0:0:
298,156,175786,1,2,0:1:0:0:
487,298,175986,6,2,B|437:287|408:308|408:308|383:286|360:252|360:252|338:297|332:341|332:341|306:325|279:303|279:303|230:331|172:294,1,420.000016021729,6|0,3:1|3:2,0:1:0:0:
100,231,176986,2,0,B|93:282|93:282|88:292|88:292|82:341,1,105.000004005432,2|8,2:1|2:2,2:2:0:0:
83,333,177286,1,2,0:2:0:0:
83,333,177386,1,2,0:2:0:0:
194,202,177586,5,2,3:1:0:0:
141,71,177786,1,2,0:1:0:0:
10,121,177986,1,8,0:2:0:0:
63,252,178186,1,2,0:1:0:0:
107,160,178386,5,2,3:1:0:0:
14,340,178586,2,0,P|88:304|197:394,1,210.000008010865,2|2,0:1|0:1,0:2:0:0:
451,269,179186,2,0,B|418:295|391:327|391:327|316:338|283:262,1,210.000008010865,2|8,3:1|0:2,0:2:0:0:
298,239,179686,1,2,0:2:0:0:
313,205,179786,2,0,L|298:89,1,105.000004005432,2|0,0:1|3:2,0:2:0:0:
407,150,180186,1,2,0:1:0:0:
202,131,180386,2,0,L|187:15,1,105.000004005432,10|0,0:1|0:2,0:2:0:0:
32,278,180786,5,6,3:1:0:0:
87,201,180986,1,2,0:2:0:0:
97,212,181086,2,0,P|150:224|189:195,1,87.5,2|0,0:1|0:2,0:2:0:0:
192,200,181386,2,0,L|183:320,1,87.5,2|0,2:1|3:2,3:2:0:0:
219,313,181686,1,2,0:2:0:0:
262,315,181786,1,2,0:2:0:0:
298,291,181886,1,2,0:2:0:0:
313,251,181986,2,0,B|314:210|314:210|291:185|291:185|269:106,1,122.500001168251,10|0,0:1|0:2,0:2:0:0:
445,46,182386,6,0,B|464:84|464:84|465:113|446:170,1,105.000004005432,6|2,3:1|0:2,0:2:0:0:
429,180,182686,1,2,0:2:0:0:
416,214,182786,2,0,P|434:260|445:292,1,52.5000020027161,10|0,0:1|0:2,0:2:0:0:
390,351,182986,1,2,0:2:0:0:
390,351,183086,1,2,0:2:0:0:
390,351,183186,6,0,P|331:368|295:363,1,52.5000020027161,2|0,3:1|0:2,0:2:0:0:
246,311,183386,1,2,0:2:0:0:
231,303,183486,1,2,0:2:0:0:
214,305,183586,1,10,0:2:0:0:
224,254,183686,1,2,0:2:0:0:
209,204,183786,1,2,0:2:0:0:
173,166,183886,1,2,0:2:0:0:
124,150,183986,6,0,B|104:172|81:176|81:176|65:153|39:136,1,105.000004005432,2|2,3:1|0:2,0:2:0:0:
22,132,184286,1,2,0:2:0:0:
22,132,184386,1,10,0:2:0:0:
48,261,184586,1,2,0:2:0:0:
48,261,184686,1,2,0:2:0:0:
48,261,184786,6,0,P|85:272|122:268,1,52.5000020027161,2|0,3:1|0:2,0:2:0:0:
207,199,184986,2,0,P|244:188|281:192,1,52.5000020027161,2|0,0:1|0:2,0:2:0:0:
398,251,185186,1,10,0:1:0:0:
392,276,185286,1,2,0:2:0:0:
386,302,185386,1,2,0:2:0:0:
381,327,185486,1,2,0:2:0:0:
376,353,185586,5,6,3:1:0:0:
512,194,185786,1,2,0:2:0:0:
299,163,185986,1,10,0:1:0:0:
398,251,186186,1,2,0:1:0:0:
341,50,186386,5,2,3:1:0:0:
261,294,186586,1,0,0:2:0:0:
93,95,186786,1,8,0:2:0:0:
143,82,186886,1,8,0:2:0:0:
190,103,186986,1,0,3:2:0:0:
215,148,187086,1,0,3:2:0:0:
207,199,187186,5,6,3:2:0:0:
149,274,187386,2,0,P|95:260|37:248,1,81.2000024780274,2|8,0:2|0:2,0:2:0:0:
189,357,187786,1,2,0:2:0:0:
122,170,187986,2,0,P|47:150|7:137,1,81.2000024780274,2|0,3:2|0:2,0:2:0:0:
260,282,188386,1,10,2:2:0:0:
310,194,188586,1,2,0:2:0:0:
310,194,188686,1,2,0:2:0:0:
310,194,188786,6,0,L|286:77,1,81.2000024780274,0|0,3:2|0:2,0:2:0:0:
411,214,189186,2,0,L|387:97,1,81.2000024780274,10|0,0:2|0:2,0:2:0:0:
348,282,189586,1,2,3:2:0:0:
496,146,189786,1,0,0:2:0:0:
496,146,189886,1,0,0:2:0:0:
496,146,189986,1,10,0:2:0:0:
292,114,190186,1,2,0:2:0:0:
148,230,190386,5,2,3:2:0:0:
245,214,190586,1,2,0:2:0:0:
245,214,190686,1,2,0:2:0:0:
245,214,190786,1,8,0:2:0:0:
331,193,190986,1,2,0:2:0:0:
153,78,191186,6,0,B|179:51|179:51|199:104|167:141,1,121.800003717041,2|0,3:2|2:2,2:2:0:0:
161,156,191586,2,0,P|112:168|69:140,1,81.2000024780274,10|0,0:2|0:2,0:2:0:0:
67,134,191886,1,2,0:2:0:0:
67,134,191986,5,2,3:2:0:0:
153,301,192286,1,2,0:2:0:0:
153,301,192386,1,10,0:2:0:0:
225,255,192586,1,2,0:2:0:0:
358,341,192786,2,0,B|392:353|392:353|452:329,1,81.2000024780274,2|0,3:2|0:2,0:2:0:0:
474,145,193186,1,10,0:2:0:0:
395,220,193386,1,2,0:2:0:0:
324,16,193586,6,0,P|368:30|456:36,1,121.800003717041,6|0,3:2|0:2,0:2:0:0:
460,26,193986,1,10,0:2:0:0:
298,114,194186,1,2,0:2:0:0:
214,53,194386,2,0,P|153:78|44:100,1,162.400004956055,2|8,3:2|0:2,0:2:0:0:
41,14,194986,1,2,0:2:0:0:
41,14,195086,1,2,0:2:0:0:
41,14,195186,5,0,3:2:0:0:
101,204,195386,1,2,0:2:0:0:
101,204,195486,1,2,0:2:0:0:
101,204,195586,1,8,0:2:0:0:
10,177,195786,1,2,0:2:0:0:
0,338,195986,2,0,B|36:359|36:359|76:359|111:332,1,121.800003717041,2|0,3:2|0:2,0:2:0:0:
128,341,196386,1,10,0:2:0:0:
219,379,196586,1,2,0:2:0:0:
319,285,196786,6,0,P|315:223|312:175,1,81.2000024780274,2|0,3:2|0:2,0:2:0:0:
204,153,197186,2,0,P|208:215|211:263,1,81.2000024780274,10|2,0:2|0:2,0:2:0:0:
290,104,197586,1,2,3:2:0:0:
201,58,197786,1,2,0:2:0:0:
201,58,197886,1,2,0:2:0:0:
201,58,197986,1,8,0:2:0:0:
290,104,198186,1,2,0:2:0:0:
22,78,198386,6,0,B|-2:111|-2:111|4:129|8:150,1,81.2000024780274,6|0,3:2|2:2,0:2:0:0:
8,150,198686,1,0,2:2:0:0:
8,150,198786,1,8,0:2:0:0:
123,253,198986,1,2,0:2:0:0:
128,262,199086,1,2,0:2:0:0:
134,271,199186,5,0,3:2:0:0:
170,288,199286,1,0,3:2:0:0:
210,285,199386,1,0,3:2:0:0:
243,263,199486,1,0,3:2:0:0:
261,227,199586,1,8,0:2:0:0:
297,209,199686,1,8,0:2:0:0:
337,212,199786,1,8,0:2:0:0:
370,234,199886,1,8,0:2:0:0:
388,270,199986,5,2,3:3:0:0:
289,106,200286,5,2,3:3:0:0:
462,179,200586,5,2,3:3:0:0:
279,222,200886,5,2,3:3:0:0:
403,79,201186,5,2,3:3:0:0:
18,77,209186,6,0,B|61:96|61:96|71:121|71:121|134:172,1,121.800003717041,2|0,0:2|0:2,0:2:0:0:
173,99,209586,6,0,P|225:84|352:35,1,162.400004956055,6|8,3:2|0:2,0:2:0:0:
402,105,210186,1,2,0:2:0:0:
238,181,210386,2,0,B|325:170|320:232|416:218,1,162.400004956055,2|8,3:2|0:2,0:2:0:0:
466,269,210986,1,2,0:2:0:0:
266,373,211186,6,0,P|256:332|323:288,1,121.800003717041,6|0,3:2|0:2,0:2:0:0:
329,298,211586,1,10,0:2:0:0:
169,356,211786,1,2,0:2:0:0:
116,282,211986,2,0,P|45:261|9:248,1,81.2000024780274,6|0,3:2|0:2,0:2:0:0:
18,264,212286,1,0,0:2:0:0:
18,264,212386,2,0,P|0:192|-6:154,1,81.2000024780274,10|0,0:2|0:2,0:2:0:0:
134,30,212786,6,0,P|123:85|108:163,1,121.800003717041,6|0,3:2|0:2,0:2:0:0:
120,168,213186,1,8,0:0:0:0:
35,74,213386,1,2,0:2:0:0:
208,123,213586,2,0,P|260:114|303:110,1,81.2000024780274,2|0,3:2|0:2,0:2:0:0:
115,62,213986,2,0,P|63:71|20:75,1,81.2000024780274,10|0,0:2|0:2,0:2:0:0:
187,206,214386,5,2,3:2:0:0:
283,189,214586,1,2,0:2:0:0:
283,189,214686,1,2,0:2:0:0:
283,189,214786,1,8,0:2:0:0:
372,240,214986,1,2,0:2:0:0:
372,240,215086,1,2,0:2:0:0:
372,240,215186,5,0,3:2:0:0:
377,279,215286,1,2,2:2:0:0:
359,315,215386,1,2,2:2:0:0:
324,334,215486,1,2,2:2:0:0:
284,330,215586,1,8,0:2:0:0:
268,293,215686,1,2,0:2:0:0:
235,271,215786,1,2,0:2:0:0:
195,272,215886,1,2,0:2:0:0:
162,295,215986,6,0,P|143:339|36:337,1,157.500006008148,2|0,3:2|0:2,0:2:0:0:
7,261,216786,2,0,P|26:217|133:219,1,157.500006008148,10|0,0:2|0:2,0:2:0:0:
214,215,217586,6,0,P|221:143|223:117,1,81.2000024780274,2|2,3:2|0:2,0:2:0:0:
214,114,217886,1,2,2:2:0:0:
203,96,217986,1,8,2:2:0:0:
327,50,218186,2,0,P|320:122|318:148,1,81.2000024780274,2|0,0:2|3:2,0:2:0:0:
343,162,218486,1,2,0:2:0:0:
380,176,218586,1,2,0:2:0:0:
419,168,218686,1,2,0:2:0:0:
447,140,218786,5,8,0:2:0:0:
442,200,218886,5,8,0:2:0:0:
437,261,218986,5,8,0:2:0:0:
432,322,219086,5,8,0:2:0:0:
427,382,219186,6,2,B|270:383|217:243|315:256|249:70|110:83,1,477.400014569092,6|0,0:2|0:2,0:2:0:0:
120,82,222786,5,14,2:2:0:0:
225,8,222986,1,2,0:2:0:0:
414,101,223186,2,0,B|386:108|366:116|366:116|312:99|294:61,1,131.25,2|0,3:2|0:2,0:2:0:0:
316,45,223586,1,10,0:2:0:0:
299,195,223786,6,0,P|234:204|180:220,1,87.5,2|0,0:2|3:2,0:2:0:0:
107,293,224186,1,2,0:2:0:0:
107,293,224286,1,2,0:2:0:0:
107,293,224386,1,8,0:2:0:0:
12,213,224586,1,2,0:2:0:0:
170,367,224786,2,0,B|199:396|246:389|246:389|263:357|310:330,1,131.25,2|0,3:2|0:2,0:2:0:0:
304,337,225186,1,10,0:2:0:0:
409,363,225386,1,2,0:2:0:0:
496,133,225586,6,0,P|458:170|369:139,1,131.25,2|0,3:2|0:2,0:2:0:0:
362,138,225986,1,10,0:2:0:0:
415,54,226186,1,2,0:2:0:0:
349,241,226386,2,0,B|279:233|308:182|209:177,1,131.25,2|0,3:2|0:2,0:2:0:0:
207,189,226786,1,10,0:2:0:0:
138,268,226986,1,2,0:2:0:0:
53,70,227186,5,2,3:2:0:0:
236,180,227386,1,2,0:2:0:0:
236,180,227486,1,2,0:2:0:0:
236,180,227586,1,8,0:2:0:0:
24,197,227786,1,2,0:2:0:0:
185,58,227986,1,2,3:2:0:0:
138,268,228186,1,0,0:2:0:0:
138,268,228286,1,0,0:2:0:0:
138,268,228386,1,10,0:2:0:0:
128,153,228586,1,2,2:2:0:0:
109,365,228786,6,0,P|167:371|222:298,1,131.25,2|0,3:2|0:2,0:2:0:0:
220,293,229186,1,10,0:2:0:0:
319,364,229386,1,2,0:2:0:0:
434,230,229586,2,0,B|411:260|411:260|421:313|457:364,1,131.25,2|0,3:2|0:2,0:2:0:0:
475,350,229986,1,10,0:2:0:0:
377,154,230186,1,2,0:2:0:0:
303,231,230386,6,0,P|258:242|195:212,1,87.5,2|0,3:2|0:2,0:2:0:0:
195,210,230686,1,0,0:2:0:0:
192,179,230786,1,10,0:2:0:0:
261,119,230986,1,2,0:2:0:0:
104,292,231186,2,0,B|86:249|86:249|99:219|99:219|81:131,1,131.25,2|0,3:2|0:2,0:2:0:0:
70,143,231586,1,10,0:2:0:0:
4,305,231786,1,2,0:2:0:0:
195,216,231986,6,0,B|268:212|243:267|341:260,1,131.25,2|0,3:2|0:2,0:2:0:0:
345,260,232386,1,10,0:2:0:0:
253,111,232586,1,2,0:2:0:0:
206,332,232786,1,2,3:2:0:0:
419,221,232986,1,2,0:2:0:0:
419,221,233086,1,2,0:2:0:0:
419,221,233186,2,0,P|376:230|344:259,1,87.5,8|0,0:2|0:2,0:2:0:0:
502,20,233586,5,2,3:2:0:0:
461,3,233686,1,2,0:2:0:0:
418,8,233786,1,2,0:2:0:0:
382,31,233886,1,2,0:2:0:0:
361,69,233986,1,8,0:2:0:0:
320,85,234086,1,2,0:2:0:0:
277,80,234186,1,2,0:2:0:0:
241,57,234286,1,2,0:2:0:0:
220,19,234386,5,0,3:2:0:0:
169,3,234486,1,0,3:2:0:0:
120,26,234586,1,0,3:2:0:0:
100,76,234686,1,0,3:2:0:0:
119,126,234786,1,8,0:2:0:0:
175,158,234886,1,8,0:2:0:0:
203,217,234986,1,8,0:2:0:0:
193,280,235086,1,8,0:2:0:0:
149,328,235186,6,0,B|110:349|73:358|73:358|56:347|18:327,1,131.25,6|0,3:2|0:2,0:2:0:0:
1,324,235586,1,10,0:2:0:0:
76,236,235786,1,2,0:2:0:0:
242,375,235986,2,0,B|315:357|280:319|376:304,1,131.25,2|0,3:2|0:2,0:2:0:0:
381,317,236386,1,10,0:2:0:0:
466,235,236586,1,2,0:2:0:0:
254,127,236786,5,2,3:2:0:0:
372,215,236986,1,2,0:2:0:0:
372,215,237086,1,2,0:2:0:0:
372,215,237186,1,8,0:2:0:0:
388,72,237386,1,2,0:2:0:0:
231,247,237586,2,0,P|168:239|122:240,1,87.5,2|0,3:2|0:2,0:2:0:0:
116,251,237886,1,0,0:2:0:0:
90,267,237986,1,10,0:2:0:0:
32,182,238186,1,2,0:2:0:0:
100,6,238386,6,0,P|144:49|233:25,1,131.25,2|0,3:2|0:2,0:2:0:0:
235,26,238786,1,10,0:2:0:0:
324,101,238986,1,2,0:2:0:0:
457,11,239186,2,0,B|422:41|422:41|427:104|465:143,1,131.25,2|0,3:2|0:2,0:2:0:0:
462,148,239586,2,0,P|477:214|485:259,1,87.5,10|2,0:2|0:2,0:2:0:0:
250,343,239986,5,2,3:2:0:0:
214,157,240186,1,2,0:2:0:0:
214,157,240286,1,2,0:2:0:0:
214,157,240386,1,8,0:2:0:0:
393,219,240586,1,2,0:2:0:0:
178,261,240786,1,2,3:2:0:0:
321,137,240986,1,0,0:2:0:0:
321,137,241086,1,0,0:2:0:0:
321,137,241186,1,10,0:2:0:0:
358,323,241386,1,2,0:2:0:0:
369,51,241586,6,0,B|293:35|293:35|274:59|243:66,1,131.25,2|0,3:2|0:2,0:2:0:0:
220,52,241986,1,10,0:2:0:0:
34,140,242186,1,2,0:2:0:0:
109,33,242386,2,0,P|121:90|145:193,1,131.25,2|0,3:2|0:2,0:2:0:0:
154,186,242786,1,10,0:2:0:0:
110,297,242986,1,2,0:2:0:0:
228,374,243186,6,0,P|288:384|319:308,1,131.25,2|0,3:2|0:2,0:2:0:0:
317,301,243586,1,10,0:2:0:0:
402,202,243786,1,2,0:2:0:0:
506,330,243986,2,0,P|458:337|423:305,1,87.5,2|0,3:2|0:2,0:2:0:0:
428,315,244286,1,0,0:2:0:0:
428,315,244386,1,10,0:2:0:0:
401,180,244586,1,2,0:2:0:0:
487,32,244786,6,0,P|433:63|345:121,1,131.25,2|0,3:2|0:2,0:2:0:0:
346,89,245186,1,10,0:2:0:0:
265,159,245386,1,2,0:2:0:0:
72,58,245586,2,0,P|134:70|185:75,1,87.5,2|0,3:2|0:2,0:2:0:0:
7,199,245986,2,0,P|50:190|94:185,1,87.5,10|0,0:2|0:2,0:2:0:0:
284,300,246386,5,2,3:2:0:0:
371,349,246586,1,2,0:2:0:0:
371,349,246686,1,2,0:2:0:0:
371,349,246786,1,8,0:2:0:0:
427,271,246986,1,2,0:2:0:0:
437,280,247086,1,2,0:2:0:0:
447,290,247186,5,0,3:2:0:0:
474,256,247286,1,0,3:2:0:0:
482,213,247386,1,0,3:2:0:0:
468,172,247486,1,0,3:2:0:0:
436,143,247586,1,8,0:2:0:0:
404,100,247686,1,0,3:2:0:0:
412,47,247786,1,0,3:2:0:0:
454,15,247886,1,0,3:2:0:0:
507,21,247986,6,0,P|493:96|480:186,1,157.500006008148,6|0,3:2|0:2,0:2:0:0:
399,274,248786,2,0,B|319:282|350:346|272:370,1,157.500006008148,6|0,3:2|0:2,0:2:0:0:
39,230,249586,5,6,3:2:0:0:
81,262,249686,1,0,3:2:0:0:
135,260,249786,1,8,0:2:0:0:
174,224,249886,1,8,0:2:0:0:
182,171,249986,1,0,3:2:0:0:
189,117,250086,1,0,3:2:0:0:
229,82,250186,1,8,0:2:0:0:
282,79,250286,1,8,0:2:0:0:
325,112,250386,5,0,3:2:0:0:
317,168,250486,1,0,3:2:0:0:
308,224,250586,1,0,3:2:0:0:
300,280,250686,1,0,3:2:0:0:
289,335,250786,5,10,0:2:0:0:
353,369,250886,5,10,0:2:0:0:
426,363,250986,5,10,0:2:0:0:
482,317,251086,5,10,0:2:0:0:
