osu file format v14

[General]
AudioFilename: audio.mp3
AudioLeadIn: 0
PreviewTime: 156451
Countdown: 0
SampleSet: None
StackLeniency: 0.7
Mode: 3
LetterboxInBreaks: 0
SpecialStyle: 0
WidescreenStoryboard: 0

[Editor]
DistanceSpacing: 1
BeatDivisor: 4
GridSize: 16
TimelineZoom: 1

[Metadata]
Title:Kimi to Dareka no Yasashisa ni
TitleUnicode:君と誰かの優しさに
Artist:senya
ArtistUnicode:senya
Creator:Damaree
Version:Entanged Fate
Source:艦隊これくしょん~艦これ~
Tags:c87 kantai collection kancolle You Communing With Someone Yuuhei Catharsis A Shimmer of Demise Married Ship girls Image Song Combined Fleet
BeatmapID:1971076
BeatmapSetID:934234

[Difficulty]
HPDrainRate:7.5
CircleSize:4
OverallDifficulty:7.5
ApproachRate:5
SliderMultiplier:1.4
SliderTickRate:1

[Events]
//Background and Video events
0,0,"bg.jpg",0,0
//Break Periods
//Storyboard Layer 0 (Background)
//Storyboard Layer 1 (Fail)
//Storyboard Layer 2 (Pass)
//Storyboard Layer 3 (Foreground)
//Storyboard Sound Samples

[TimingPoints]
1108,375,4,2,0,0,1,0
13108,-100,4,2,0,0,0,0
22044,-200,4,2,0,0,0,0
22108,-50,4,2,0,0,0,0
22201,-100,4,2,0,0,0,0
22295,-200,4,2,0,0,0,0
22389,-50,4,2,0,0,0,0
22483,-100,4,2,0,0,0,0
22576,-200,4,2,0,0,0,0
22670,-50,4,2,0,0,0,0
22764,-200,4,2,0,0,0,0
22858,-50,4,2,0,0,0,0
22951,-100,4,2,0,0,0,0
23045,-200,4,2,0,0,0,0
23139,-50,4,2,0,0,0,0
23233,-100,4,2,0,0,0,0
23326,-200,4,2,0,0,0,0
23420,-50,4,2,0,0,0,0
23514,-200,4,2,0,0,0,0
23608,-100,4,2,0,0,0,0
28044,-200,4,2,0,0,0,0
28108,-50,4,2,0,0,0,0
28201,-100,4,2,0,0,0,0
28295,-166.666666666667,4,2,0,0,0,0
28389,-250,4,2,0,0,0,0
28483,-50,4,2,0,0,0,0
28576,-200,4,2,0,0,0,0
28670,-50,4,2,0,0,0,0
28764,-100,4,2,0,0,0,0
28858,-166.666666666667,4,2,0,0,0,0
28951,-250,4,2,0,0,0,0
29045,-50,4,2,0,0,0,0
29139,-200,4,2,0,0,0,0
29233,-50,4,2,0,0,0,0
29326,-100,4,2,0,0,0,0
29420,-166.666666666667,4,2,0,0,0,0
29514,-250,4,2,0,0,0,0
29608,-100,4,2,0,0,0,0
34044,-200,4,2,0,0,0,0
34108,-50,4,2,0,0,0,0
34201,-100,4,2,0,0,0,0
34295,-166.666666666667,4,2,0,0,0,0
34389,-250,4,2,0,0,0,0
34483,-50,4,2,0,0,0,0
34576,-200,4,2,0,0,0,0
34670,-50,4,2,0,0,0,0
34764,-100,4,2,0,0,0,0
34858,-166.666666666667,4,2,0,0,0,0
34951,-250,4,2,0,0,0,0
35045,-50,4,2,0,0,0,0
35139,-200,4,2,0,0,0,0
35233,-50,4,2,0,0,0,0
35326,-100,4,2,0,0,0,0
35420,-166.666666666667,4,2,0,0,0,0
35514,-250,4,2,0,0,0,0
35608,-100,4,2,0,0,0,0
40044,-200,4,2,0,0,0,0
40108,-50,4,2,0,0,0,0
40201,-100,4,2,0,0,0,0
40295,-166.666666666667,4,2,0,0,0,0
40389,-250,4,2,0,0,0,0
40483,-50,4,2,0,0,0,0
40576,-200,4,2,0,0,0,0
40670,-50,4,2,0,0,0,0
40764,-100,4,2,0,0,0,0
40858,-166.666666666667,4,2,0,0,0,0
40951,-250,4,2,0,0,0,0
41045,-50,4,2,0,0,0,0
41139,-200,4,2,0,0,0,0
41233,-100,4,2,0,0,0,0
46295,-166.666666666667,4,2,0,0,0,0
46389,-250,4,2,0,0,0,0
46483,-50,4,2,0,0,0,0
46576,-200,4,2,0,0,0,0
46670,-50,4,2,0,0,0,0
46764,-100,4,2,0,0,0,0
46858,-166.666666666667,4,2,0,0,0,0
46951,-250,4,2,0,0,0,0
47045,-50,4,2,0,0,0,0
47139,-200,4,2,0,0,0,0
47233,-50,4,2,0,0,0,0
47326,-100,4,2,0,0,0,0
47420,-166.666666666667,4,2,0,0,0,0
47514,-250,4,2,0,0,0,0
47608,-100,4,2,0,0,0,0
60358,-50,4,2,0,0,0,0
60545,-33.3333333333333,4,2,0,0,0,0
60733,-66.6666666666667,4,2,0,0,0,0
60920,-100,4,2,0,0,0,0
61108,-100,4,2,0,0,0,1
71544,-200,4,2,0,0,0,1
71608,-50,4,2,0,0,0,1
71701,-100,4,2,0,0,0,1
71795,-200,4,2,0,0,0,1
71889,-50,4,2,0,0,0,1
71983,-100,4,2,0,0,0,1
72076,-200,4,2,0,0,0,1
72170,-50,4,2,0,0,0,1
72264,-200,4,2,0,0,0,1
72358,-50,4,2,0,0,0,1
72451,-100,4,2,0,0,0,1
82044,-200,4,2,0,0,0,1
82108,-50,4,2,0,0,0,1
82201,-100,4,2,0,0,0,1
82295,-200,4,2,0,0,0,1
82389,-50,4,2,0,0,0,1
82483,-100,4,2,0,0,0,1
82576,-200,4,2,0,0,0,1
82670,-50,4,2,0,0,0,1
82764,-200,4,2,0,0,0,1
82858,-50,4,2,0,0,0,1
82951,-100,4,2,0,0,0,1
83045,-200,4,2,0,0,0,1
83139,-50,4,2,0,0,0,1
83233,-100,4,2,0,0,0,1
83326,-200,4,2,0,0,0,1
83420,-50,4,2,0,0,0,1
83514,-200,4,2,0,0,0,1
83608,-50,4,2,0,0,0,1
83701,-100,4,2,0,0,0,1
85108,-100,4,2,0,0,0,0
94044,-200,4,2,0,0,0,0
94108,-50,4,2,0,0,0,0
94201,-100,4,2,0,0,0,0
94295,-200,4,2,0,0,0,0
94389,-50,4,2,0,0,0,0
94483,-100,4,2,0,0,0,0
94576,-200,4,2,0,0,0,0
94670,-50,4,2,0,0,0,0
94764,-200,4,2,0,0,0,0
94858,-50,4,2,0,0,0,0
94951,-100,4,2,0,0,0,0
95045,-200,4,2,0,0,0,0
95139,-50,4,2,0,0,0,0
95233,-100,4,2,0,0,0,0
95326,-200,4,2,0,0,0,0
95420,-50,4,2,0,0,0,0
95514,-200,4,2,0,0,0,0
95608,-100,4,2,0,0,0,0
100044,-200,4,2,0,0,0,0
100108,-50,4,2,0,0,0,0
100201,-100,4,2,0,0,0,0
100295,-166.666666666667,4,2,0,0,0,0
100389,-250,4,2,0,0,0,0
100483,-50,4,2,0,0,0,0
100576,-200,4,2,0,0,0,0
100670,-50,4,2,0,0,0,0
100764,-100,4,2,0,0,0,0
100858,-166.666666666667,4,2,0,0,0,0
100951,-250,4,2,0,0,0,0
101045,-50,4,2,0,0,0,0
101139,-200,4,2,0,0,0,0
101233,-100,4,2,0,0,0,0
106295,-166.666666666667,4,2,0,0,0,0
106389,-250,4,2,0,0,0,0
106483,-50,4,2,0,0,0,0
106576,-200,4,2,0,0,0,0
106670,-50,4,2,0,0,0,0
106764,-100,4,2,0,0,0,0
106858,-166.666666666667,4,2,0,0,0,0
106951,-250,4,2,0,0,0,0
107045,-50,4,2,0,0,0,0
107139,-200,4,2,0,0,0,0
107233,-50,4,2,0,0,0,0
107326,-100,4,2,0,0,0,0
120358,-50,4,2,0,0,0,0
120545,-33.3333333333333,4,2,0,0,0,0
120733,-66.6666666666667,4,2,0,0,0,0
120920,-100,4,2,0,0,0,0
121108,-100,4,2,0,0,0,1
131544,-200,4,2,0,0,0,1
131608,-50,4,2,0,0,0,1
131701,-100,4,2,0,0,0,1
131795,-200,4,2,0,0,0,1
131889,-50,4,2,0,0,0,1
131983,-100,4,2,0,0,0,1
132076,-200,4,2,0,0,0,1
132170,-50,4,2,0,0,0,1
132264,-200,4,2,0,0,0,1
132358,-50,4,2,0,0,0,1
132451,-100,4,2,0,0,0,1
142044,-200,4,2,0,0,0,1
142108,-50,4,2,0,0,0,1
142201,-100,4,2,0,0,0,1
142295,-200,4,2,0,0,0,1
142389,-50,4,2,0,0,0,1
142483,-100,4,2,0,0,0,1
142576,-200,4,2,0,0,0,1
142670,-50,4,2,0,0,0,1
142764,-200,4,2,0,0,0,1
142858,-50,4,2,0,0,0,1
142951,-100,4,2,0,0,0,1
143045,-200,4,2,0,0,0,1
143139,-50,4,2,0,0,0,1
143233,-100,4,2,0,0,0,1
143326,-200,4,2,0,0,0,1
143420,-50,4,2,0,0,0,1
143514,-200,4,2,0,0,0,1
143608,-50,4,2,0,0,0,1
143701,-100,4,2,0,0,0,1
144358,-50,4,2,0,0,0,1
144545,-33.3333333333333,4,2,0,0,0,1
144733,-66.6666666666667,4,2,0,0,0,1
144920,-100,4,2,0,0,0,1
145108,-100,4,2,0,0,0,0
167544,-200,4,2,0,0,0,0
167608,-50,4,2,0,0,0,0
167701,-100,4,2,0,0,0,0
167795,-200,4,2,0,0,0,0
167889,-50,4,2,0,0,0,0
167983,-100,4,2,0,0,0,0
168076,-200,4,2,0,0,0,0
168170,-50,4,2,0,0,0,0
168264,-200,4,2,0,0,0,0
168358,-50,4,2,0,0,0,0
168451,-100,4,2,0,0,0,0
178044,-200,4,2,0,0,0,0
178108,-50,4,2,0,0,0,0
178201,-100,4,2,0,0,0,0
178295,-200,4,2,0,0,0,0
178389,-50,4,2,0,0,0,0
178483,-100,4,2,0,0,0,0
178576,-200,4,2,0,0,0,0
178670,-50,4,2,0,0,0,0
178764,-200,4,2,0,0,0,0
178858,-50,4,2,0,0,0,0
178951,-100,4,2,0,0,0,0
179045,-200,4,2,0,0,0,0
179139,-50,4,2,0,0,0,0
179233,-100,4,2,0,0,0,0
179326,-200,4,2,0,0,0,0
179420,-50,4,2,0,0,0,0
179514,-200,4,2,0,0,0,0
179608,-50,4,2,0,0,0,0
179701,-100,4,2,0,0,0,0
180358,-50,4,2,0,0,0,0
180545,-33.3333333333333,4,2,0,0,0,0
180733,-66.6666666666667,4,2,0,0,0,0
180920,-100,4,2,0,0,0,0
181108,-100,4,2,0,0,0,1
191544,-200,4,2,0,0,0,1
191608,-50,4,2,0,0,0,1
191701,-100,4,2,0,0,0,1
191795,-200,4,2,0,0,0,1
191889,-50,4,2,0,0,0,1
191983,-100,4,2,0,0,0,1
192076,-200,4,2,0,0,0,1
192170,-50,4,2,0,0,0,1
192264,-200,4,2,0,0,0,1
192358,-50,4,2,0,0,0,1
192451,-100,4,2,0,0,0,1
202044,-200,4,2,0,0,0,1
202108,-50,4,2,0,0,0,1
202201,-100,4,2,0,0,0,1
202295,-200,4,2,0,0,0,1
202389,-50,4,2,0,0,0,1
202483,-100,4,2,0,0,0,1
202576,-200,4,2,0,0,0,1
202670,-50,4,2,0,0,0,1
202764,-200,4,2,0,0,0,1
202858,-50,4,2,0,0,0,1
202951,-100,4,2,0,0,0,1
203045,-200,4,2,0,0,0,1
203139,-50,4,2,0,0,0,1
203233,-100,4,2,0,0,0,1
203326,-200,4,2,0,0,0,1
203420,-50,4,2,0,0,0,1
203514,-200,4,2,0,0,0,1
203608,-50,4,2,0,0,0,1
203701,-100,4,2,0,0,0,1
205108,-100,4,2,0,0,0,0

[HitObjects]
64,192,1108,5,0,0:0:0:0:
320,192,1108,1,0,0:0:0:0:
192,192,1295,1,0,0:0:0:0:
448,192,1483,1,0,0:0:0:0:
320,192,1670,1,0,0:0:0:0:
192,192,1670,1,0,0:0:0:0:
64,192,2233,1,0,0:0:0:0:
192,192,2420,1,0,0:0:0:0:
320,192,2608,1,0,0:0:0:0:
448,192,2608,1,0,0:0:0:0:
192,192,2983,1,0,0:0:0:0:
320,192,2983,1,0,0:0:0:0:
448,192,3170,1,0,0:0:0:0:
192,192,3358,1,0,0:0:0:0:
64,192,3358,1,0,0:0:0:0:
320,192,3545,1,0,0:0:0:0:
448,192,3733,1,0,0:0:0:0:
64,192,3733,1,0,0:0:0:0:
448,192,4108,1,0,0:0:0:0:
192,192,4108,1,0,0:0:0:0:
64,192,4295,1,0,0:0:0:0:
320,192,4483,1,0,0:0:0:0:
448,192,4670,1,0,0:0:0:0:
320,192,4764,1,0,0:0:0:0:
192,192,4858,1,0,0:0:0:0:
64,192,4858,1,0,0:0:0:0:
448,192,5045,1,0,0:0:0:0:
192,192,5233,1,0,0:0:0:0:
320,192,5608,1,0,0:0:0:0:
448,192,5608,1,0,0:0:0:0:
64,192,5795,1,0,0:0:0:0:
320,192,5983,1,0,0:0:0:0:
192,192,6170,1,0,0:0:0:0:
64,192,6358,1,0,0:0:0:0:
448,192,6358,1,0,0:0:0:0:
320,192,7108,1,0,0:0:0:0:
64,192,7108,1,0,0:0:0:0:
192,192,7483,1,0,0:0:0:0:
320,192,7858,1,0,0:0:0:0:
448,192,7858,1,0,0:0:0:0:
192,192,8233,1,0,0:0:0:0:
64,192,8233,1,0,0:0:0:0:
320,192,8420,1,0,0:0:0:0:
448,192,8608,1,0,0:0:0:0:
64,192,8608,1,0,0:0:0:0:
448,192,8889,1,0,0:0:0:0:
64,192,8889,1,0,0:0:0:0:
64,192,9170,1,0,0:0:0:0:
448,192,9170,1,0,0:0:0:0:
320,192,9358,1,0,0:0:0:0:
192,192,9358,1,0,0:0:0:0:
448,192,9733,1,0,0:0:0:0:
64,192,10108,1,0,0:0:0:0:
320,192,10295,1,0,0:0:0:0:
192,192,10483,1,0,0:0:0:0:
448,192,10670,1,0,0:0:0:0:
192,192,10858,1,0,0:0:0:0:
64,192,10858,1,0,0:0:0:0:
320,192,11233,1,0,0:0:0:0:
448,192,11608,1,0,0:0:0:0:
192,192,11608,1,0,0:0:0:0:
64,192,11608,1,0,0:0:0:0:
448,192,13108,1,0,0:0:0:0:
192,192,13108,1,0,0:0:0:0:
64,192,13108,1,0,0:0:0:0:
320,192,13295,1,0,0:0:0:0:
64,192,13295,1,0,0:0:0:0:
192,192,13483,1,0,0:0:0:0:
448,192,13483,1,0,0:0:0:0:
320,192,13483,1,0,0:0:0:0:
64,192,13670,1,0,0:0:0:0:
448,192,13670,1,0,0:0:0:0:
192,192,13858,1,0,0:0:0:0:
320,192,13858,1,0,0:0:0:0:
64,192,13858,1,0,0:0:0:0:
192,192,14045,1,0,0:0:0:0:
448,192,14045,1,0,0:0:0:0:
320,192,14233,1,0,0:0:0:0:
448,192,14233,1,0,0:0:0:0:
64,192,14233,1,0,0:0:0:0:
192,192,14420,1,0,0:0:0:0:
320,192,14514,1,0,0:0:0:0:
448,192,14608,1,0,0:0:0:0:
64,192,14608,1,0,0:0:0:0:
192,192,14701,1,0,0:0:0:0:
320,192,14795,1,0,0:0:0:0:
448,192,14889,1,0,0:0:0:0:
192,192,14983,1,0,0:0:0:0:
64,192,14983,1,0,0:0:0:0:
320,192,15076,1,0,0:0:0:0:
64,192,15170,1,0,0:0:0:0:
448,192,15264,1,0,0:0:0:0:
320,192,15358,1,0,0:0:0:0:
192,192,15358,1,0,0:0:0:0:
64,192,15451,1,0,0:0:0:0:
320,192,15545,1,0,0:0:0:0:
448,192,15639,1,0,0:0:0:0:
64,192,15733,1,0,0:0:0:0:
192,192,15733,1,0,0:0:0:0:
320,192,15826,1,0,0:0:0:0:
448,192,15920,1,0,0:0:0:0:
192,192,16014,1,0,0:0:0:0:
64,192,16014,1,0,0:0:0:0:
320,192,16108,1,0,0:0:0:0:
448,192,16108,1,0,0:0:0:0:
192,192,16201,1,0,0:0:0:0:
64,192,16295,1,0,0:0:0:0:
448,192,16389,1,0,0:0:0:0:
320,192,16483,1,0,0:0:0:0:
192,192,16483,1,0,0:0:0:0:
64,192,16576,1,0,0:0:0:0:
192,192,16670,1,0,0:0:0:0:
448,192,16764,1,0,0:0:0:0:
320,192,16858,1,0,0:0:0:0:
64,192,16858,1,0,0:0:0:0:
192,192,16951,1,0,0:0:0:0:
320,192,17045,1,0,0:0:0:0:
448,192,17139,1,0,0:0:0:0:
64,192,17233,1,0,0:0:0:0:
192,192,17233,1,0,0:0:0:0:
320,192,17326,1,0,0:0:0:0:
64,192,17420,1,0,0:0:0:0:
448,192,17514,1,0,0:0:0:0:
320,192,17608,1,0,0:0:0:0:
192,192,17608,1,0,0:0:0:0:
64,192,17701,1,0,0:0:0:0:
320,192,17795,1,0,0:0:0:0:
448,192,17889,1,0,0:0:0:0:
64,192,17983,1,0,0:0:0:0:
192,192,17983,1,0,0:0:0:0:
320,192,18076,1,0,0:0:0:0:
64,192,18170,1,0,0:0:0:0:
448,192,18264,1,0,0:0:0:0:
320,192,18358,1,0,0:0:0:0:
192,192,18358,1,0,0:0:0:0:
64,192,18420,1,0,0:0:0:0:
192,192,18483,1,0,0:0:0:0:
320,192,18545,1,0,0:0:0:0:
448,192,18608,1,0,0:0:0:0:
64,192,18670,1,0,0:0:0:0:
192,192,18733,1,0,0:0:0:0:
320,192,18733,1,0,0:0:0:0:
448,192,18795,1,0,0:0:0:0:
64,192,18858,1,0,0:0:0:0:
192,192,18920,1,0,0:0:0:0:
320,192,18983,1,0,0:0:0:0:
448,192,19045,1,0,0:0:0:0:
192,192,19108,1,0,0:0:0:0:
64,192,19108,1,0,0:0:0:0:
320,192,19201,1,0,0:0:0:0:
448,192,19295,1,0,0:0:0:0:
192,192,19389,1,0,0:0:0:0:
320,192,19483,1,0,0:0:0:0:
448,192,19483,1,0,0:0:0:0:
64,192,19576,1,0,0:0:0:0:
320,192,19670,1,0,0:0:0:0:
192,192,19764,1,0,0:0:0:0:
64,192,19858,1,0,0:0:0:0:
448,192,19858,1,0,0:0:0:0:
320,192,19951,1,0,0:0:0:0:
192,192,20045,1,0,0:0:0:0:
64,192,20139,1,0,0:0:0:0:
448,192,20233,1,0,0:0:0:0:
320,192,20233,1,0,0:0:0:0:
64,192,20326,1,0,0:0:0:0:
320,192,20420,1,0,0:0:0:0:
192,192,20514,1,0,0:0:0:0:
320,192,20608,1,0,0:0:0:0:
64,192,20608,1,0,0:0:0:0:
448,192,20701,1,0,0:0:0:0:
192,192,20795,1,0,0:0:0:0:
64,192,20889,1,0,0:0:0:0:
448,192,20983,1,0,0:0:0:0:
320,192,20983,1,0,0:0:0:0:
192,192,21076,1,0,0:0:0:0:
448,192,21170,1,0,0:0:0:0:
64,192,21264,1,0,0:0:0:0:
192,192,21358,1,0,0:0:0:0:
320,192,21358,1,0,0:0:0:0:
448,192,21545,1,0,0:0:0:0:
192,192,21545,1,0,0:0:0:0:
320,192,21733,1,0,0:0:0:0:
64,192,21733,1,0,0:0:0:0:
448,192,21733,1,0,0:0:0:0:
192,192,21920,1,0,0:0:0:0:
320,192,22014,1,0,0:0:0:0:
192,192,22108,1,0,0:0:0:0:
64,192,22108,1,0,0:0:0:0:
448,192,22108,1,0,0:0:0:0:
320,192,22389,1,0,0:0:0:0:
448,192,22389,1,0,0:0:0:0:
64,192,22389,1,0,0:0:0:0:
192,192,22670,1,0,0:0:0:0:
64,192,22670,1,0,0:0:0:0:
448,192,22670,1,0,0:0:0:0:
320,192,22858,1,0,0:0:0:0:
448,192,22858,1,0,0:0:0:0:
192,192,22858,1,0,0:0:0:0:
64,192,23139,1,0,0:0:0:0:
192,192,23139,1,0,0:0:0:0:
320,192,23139,1,0,0:0:0:0:
192,192,23420,1,0,0:0:0:0:
320,192,23420,1,0,0:0:0:0:
448,192,23420,1,0,0:0:0:0:
448,192,23608,128,0,24358:0:0:0:0:
192,192,23608,128,0,23983:0:0:0:0:
320,192,23608,128,0,24170:0:0:0:0:
64,192,23608,128,0,23795:0:0:0:0:
64,192,23983,128,0,24545:0:0:0:0:
192,192,24170,128,0,24733:0:0:0:0:
320,192,24358,128,0,25014:0:0:0:0:
448,192,24545,128,0,25014:0:0:0:0:
64,192,24733,128,0,25014:0:0:0:0:
192,192,24920,128,0,25014:0:0:0:0:
64,192,25108,1,0,0:0:0:0:
192,192,25108,1,0,0:0:0:0:
320,192,25108,1,0,0:0:0:0:
448,192,25108,1,0,0:0:0:0:
192,192,25295,1,0,0:0:0:0:
448,192,25295,1,0,0:0:0:0:
64,192,25483,1,0,0:0:0:0:
320,192,25483,1,0,0:0:0:0:
448,192,25483,1,0,0:0:0:0:
192,192,25670,1,0,0:0:0:0:
64,192,25670,1,0,0:0:0:0:
192,192,25858,1,0,0:0:0:0:
320,192,25858,1,0,0:0:0:0:
448,192,25858,1,0,0:0:0:0:
320,192,26045,1,0,0:0:0:0:
64,192,26045,1,0,0:0:0:0:
192,192,26233,1,0,0:0:0:0:
64,192,26233,1,0,0:0:0:0:
448,192,26233,1,0,0:0:0:0:
320,192,26420,1,0,0:0:0:0:
448,192,26420,1,0,0:0:0:0:
320,192,26608,1,0,0:0:0:0:
192,192,26608,1,0,0:0:0:0:
64,192,26608,1,0,0:0:0:0:
192,192,26795,1,0,0:0:0:0:
448,192,26795,1,0,0:0:0:0:
320,192,26983,1,0,0:0:0:0:
448,192,26983,1,0,0:0:0:0:
64,192,26983,1,0,0:0:0:0:
192,192,27170,1,0,0:0:0:0:
320,192,27170,1,0,0:0:0:0:
192,192,27358,1,0,0:0:0:0:
64,192,27358,1,0,0:0:0:0:
448,192,27358,1,0,0:0:0:0:
320,192,27545,1,0,0:0:0:0:
448,192,27545,1,0,0:0:0:0:
192,192,27733,1,0,0:0:0:0:
64,192,27733,1,0,0:0:0:0:
320,192,27733,1,0,0:0:0:0:
448,192,27920,1,0,0:0:0:0:
192,192,27920,1,0,0:0:0:0:
320,192,28014,1,0,0:0:0:0:
192,192,28108,1,0,0:0:0:0:
64,192,28108,1,0,0:0:0:0:
448,192,28108,1,0,0:0:0:0:
192,192,28483,1,0,0:0:0:0:
64,192,28483,1,0,0:0:0:0:
320,192,28483,1,0,0:0:0:0:
448,192,28670,1,0,0:0:0:0:
320,192,28670,1,0,0:0:0:0:
192,192,28670,1,0,0:0:0:0:
448,192,29045,1,0,0:0:0:0:
320,192,29045,1,0,0:0:0:0:
192,192,29045,1,0,0:0:0:0:
64,192,29233,1,0,0:0:0:0:
192,192,29233,1,0,0:0:0:0:
320,192,29233,1,0,0:0:0:0:
448,192,29608,1,0,0:0:0:0:
64,192,29608,1,0,0:0:0:0:
320,192,29670,1,0,0:0:0:0:
192,192,29733,1,0,0:0:0:0:
64,192,29795,1,0,0:0:0:0:
448,192,29795,1,0,0:0:0:0:
320,192,29858,1,0,0:0:0:0:
64,192,29920,1,0,0:0:0:0:
192,192,29983,1,0,0:0:0:0:
320,192,30045,1,0,0:0:0:0:
448,192,30108,1,0,0:0:0:0:
192,192,30170,1,0,0:0:0:0:
64,192,30170,1,0,0:0:0:0:
320,192,30264,1,0,0:0:0:0:
448,192,30358,1,0,0:0:0:0:
64,192,30358,1,0,0:0:0:0:
192,192,30451,1,0,0:0:0:0:
320,192,30545,1,0,0:0:0:0:
448,192,30545,1,0,0:0:0:0:
64,192,30639,1,0,0:0:0:0:
320,192,30733,1,0,0:0:0:0:
448,192,30733,1,0,0:0:0:0:
192,192,30826,1,0,0:0:0:0:
64,192,30826,1,0,0:0:0:0:
320,192,30920,1,0,0:0:0:0:
448,192,30920,1,0,0:0:0:0:
192,192,31014,1,0,0:0:0:0:
64,192,31014,1,0,0:0:0:0:
320,192,31108,1,0,0:0:0:0:
448,192,31108,1,0,0:0:0:0:
64,192,31108,1,0,0:0:0:0:
192,192,31295,1,0,0:0:0:0:
320,192,31295,1,0,0:0:0:0:
192,192,31483,1,0,0:0:0:0:
64,192,31483,1,0,0:0:0:0:
448,192,31483,1,0,0:0:0:0:
320,192,31670,1,0,0:0:0:0:
64,192,31670,1,0,0:0:0:0:
192,192,31858,1,0,0:0:0:0:
320,192,31858,1,0,0:0:0:0:
448,192,31858,1,0,0:0:0:0:
448,192,32045,1,0,0:0:0:0:
64,192,32045,1,0,0:0:0:0:
320,192,32233,1,0,0:0:0:0:
192,192,32233,1,0,0:0:0:0:
64,192,32233,1,0,0:0:0:0:
320,192,32420,1,0,0:0:0:0:
448,192,32420,1,0,0:0:0:0:
320,192,32608,1,0,0:0:0:0:
192,192,32608,1,0,0:0:0:0:
64,192,32608,1,0,0:0:0:0:
64,192,32795,1,0,0:0:0:0:
448,192,32795,1,0,0:0:0:0:
320,192,32983,1,0,0:0:0:0:
448,192,32983,1,0,0:0:0:0:
192,192,32983,1,0,0:0:0:0:
320,192,33170,1,0,0:0:0:0:
64,192,33170,1,0,0:0:0:0:
64,192,33358,1,0,0:0:0:0:
448,192,33358,1,0,0:0:0:0:
192,192,33358,1,0,0:0:0:0:
320,192,33545,1,0,0:0:0:0:
448,192,33545,1,0,0:0:0:0:
320,192,33733,1,0,0:0:0:0:
192,192,33733,1,0,0:0:0:0:
64,192,33733,1,0,0:0:0:0:
192,192,33920,1,0,0:0:0:0:
448,192,33920,1,0,0:0:0:0:
64,192,34014,1,0,0:0:0:0:
320,192,34108,1,0,0:0:0:0:
448,192,34108,1,0,0:0:0:0:
192,192,34108,1,0,0:0:0:0:
64,192,34483,1,0,0:0:0:0:
192,192,34483,1,0,0:0:0:0:
448,192,34483,1,0,0:0:0:0:
320,192,34670,1,0,0:0:0:0:
448,192,34670,1,0,0:0:0:0:
64,192,34670,1,0,0:0:0:0:
448,192,35045,1,0,0:0:0:0:
64,192,35045,1,0,0:0:0:0:
320,192,35045,1,0,0:0:0:0:
192,192,35233,1,0,0:0:0:0:
64,192,35233,1,0,0:0:0:0:
448,192,35233,1,0,0:0:0:0:
64,192,35608,1,0,0:0:0:0:
448,192,35608,1,0,0:0:0:0:
192,192,35670,1,0,0:0:0:0:
320,192,35733,1,0,0:0:0:0:
448,192,35795,1,0,0:0:0:0:
64,192,35795,1,0,0:0:0:0:
192,192,35858,1,0,0:0:0:0:
320,192,35920,1,0,0:0:0:0:
448,192,35983,1,0,0:0:0:0:
64,192,36045,1,0,0:0:0:0:
192,192,36108,1,0,0:0:0:0:
320,192,36170,1,0,0:0:0:0:
448,192,36170,1,0,0:0:0:0:
64,192,36264,1,0,0:0:0:0:
192,192,36358,1,0,0:0:0:0:
320,192,36358,1,0,0:0:0:0:
448,192,36451,1,0,0:0:0:0:
192,192,36545,1,0,0:0:0:0:
64,192,36545,1,0,0:0:0:0:
320,192,36639,1,0,0:0:0:0:
192,192,36733,1,0,0:0:0:0:
64,192,36733,1,0,0:0:0:0:
448,192,36779,1,0,0:0:0:0:
320,192,36826,1,0,0:0:0:0:
192,192,36873,1,0,0:0:0:0:
64,192,36920,1,0,0:0:0:0:
448,192,36967,1,0,0:0:0:0:
320,192,37014,1,0,0:0:0:0:
192,192,37061,1,0,0:0:0:0:
64,192,37108,1,0,0:0:0:0:
320,192,37108,1,0,0:0:0:0:
448,192,37108,1,0,0:0:0:0:
192,192,37295,1,0,0:0:0:0:
320,192,37295,1,0,0:0:0:0:
448,192,37389,1,0,0:0:0:0:
192,192,37483,1,0,0:0:0:0:
64,192,37483,1,0,0:0:0:0:
320,192,37670,1,0,0:0:0:0:
448,192,37670,1,0,0:0:0:0:
192,192,37764,1,0,0:0:0:0:
64,192,37858,1,0,0:0:0:0:
320,192,37858,1,0,0:0:0:0:
192,192,38045,1,0,0:0:0:0:
448,192,38045,1,0,0:0:0:0:
320,192,38233,1,0,0:0:0:0:
64,192,38233,1,0,0:0:0:0:
192,192,38233,1,0,0:0:0:0:
448,192,38420,1,0,0:0:0:0:
64,192,38420,1,0,0:0:0:0:
192,192,38514,1,0,0:0:0:0:
320,192,38608,1,0,0:0:0:0:
448,192,38608,1,0,0:0:0:0:
64,192,38701,1,0,0:0:0:0:
192,192,38795,1,0,0:0:0:0:
320,192,38795,1,0,0:0:0:0:
448,192,38889,1,0,0:0:0:0:
192,192,38983,1,0,0:0:0:0:
64,192,38983,1,0,0:0:0:0:
320,192,39170,1,0,0:0:0:0:
448,192,39170,1,0,0:0:0:0:
192,192,39264,1,0,0:0:0:0:
64,192,39358,1,0,0:0:0:0:
320,192,39358,1,0,0:0:0:0:
448,192,39545,1,0,0:0:0:0:
192,192,39545,1,0,0:0:0:0:
320,192,39733,1,0,0:0:0:0:
64,192,39733,1,0,0:0:0:0:
448,192,39920,1,0,0:0:0:0:
192,192,39920,1,0,0:0:0:0:
64,192,40014,1,0,0:0:0:0:
320,192,40108,1,0,0:0:0:0:
448,192,40108,1,0,0:0:0:0:
192,192,40108,1,0,0:0:0:0:
320,192,40483,1,0,0:0:0:0:
192,192,40483,1,0,0:0:0:0:
64,192,40483,1,0,0:0:0:0:
320,192,40670,1,0,0:0:0:0:
448,192,40670,1,0,0:0:0:0:
64,192,40670,1,0,0:0:0:0:
192,192,41045,1,0,0:0:0:0:
320,192,41045,1,0,0:0:0:0:
448,192,41045,1,0,0:0:0:0:
64,192,41233,1,0,0:0:0:0:
320,192,41233,1,0,0:0:0:0:
448,192,41233,1,0,0:0:0:0:
192,192,41326,1,0,0:0:0:0:
320,192,41420,1,0,0:0:0:0:
448,192,41514,1,0,0:0:0:0:
64,192,41608,1,0,0:0:0:0:
320,192,41701,1,0,0:0:0:0:
192,192,41795,1,0,0:0:0:0:
64,192,41795,1,0,0:0:0:0:
448,192,41889,1,0,0:0:0:0:
320,192,41983,1,0,0:0:0:0:
192,192,41983,1,0,0:0:0:0:
64,192,42076,1,0,0:0:0:0:
448,192,42170,1,0,0:0:0:0:
320,192,42170,1,0,0:0:0:0:
192,192,42264,1,0,0:0:0:0:
64,192,42358,1,0,0:0:0:0:
448,192,42358,1,0,0:0:0:0:
320,192,42451,1,0,0:0:0:0:
448,192,42545,1,0,0:0:0:0:
64,192,42545,1,0,0:0:0:0:
192,192,42639,1,0,0:0:0:0:
320,192,42733,1,0,0:0:0:0:
448,192,42733,1,0,0:0:0:0:
192,192,42826,1,0,0:0:0:0:
64,192,42826,1,0,0:0:0:0:
448,192,42920,1,0,0:0:0:0:
320,192,42920,1,0,0:0:0:0:
192,192,43014,1,0,0:0:0:0:
64,192,43014,1,0,0:0:0:0:
448,192,43108,1,0,0:0:0:0:
320,192,43108,1,0,0:0:0:0:
64,192,43108,1,0,0:0:0:0:
192,192,43295,1,0,0:0:0:0:
448,192,43295,1,0,0:0:0:0:
320,192,43389,1,0,0:0:0:0:
192,192,43483,1,0,0:0:0:0:
64,192,43483,1,0,0:0:0:0:
448,192,43670,1,0,0:0:0:0:
320,192,43670,1,0,0:0:0:0:
64,192,43764,1,0,0:0:0:0:
192,192,43858,1,0,0:0:0:0:
320,192,43858,1,0,0:0:0:0:
448,192,44045,1,0,0:0:0:0:
192,192,44045,1,0,0:0:0:0:
320,192,44233,1,0,0:0:0:0:
64,192,44233,1,0,0:0:0:0:
192,192,44420,1,0,0:0:0:0:
448,192,44420,1,0,0:0:0:0:
320,192,44514,1,0,0:0:0:0:
192,192,44608,1,0,0:0:0:0:
64,192,44608,1,0,0:0:0:0:
448,192,44701,1,0,0:0:0:0:
192,192,44795,1,0,0:0:0:0:
320,192,44889,1,0,0:0:0:0:
448,192,44983,1,0,0:0:0:0:
64,192,44983,1,0,0:0:0:0:
192,192,45170,1,0,0:0:0:0:
320,192,45170,1,0,0:0:0:0:
64,192,45264,1,0,0:0:0:0:
448,192,45358,1,0,0:0:0:0:
320,192,45358,1,0,0:0:0:0:
192,192,45451,1,0,0:0:0:0:
64,192,45545,1,0,0:0:0:0:
448,192,45545,1,0,0:0:0:0:
320,192,45592,1,0,0:0:0:0:
192,192,45639,1,0,0:0:0:0:
64,192,45686,1,0,0:0:0:0:
448,192,45733,1,0,0:0:0:0:
320,192,45733,1,0,0:0:0:0:
192,192,45779,1,0,0:0:0:0:
64,192,45826,1,0,0:0:0:0:
448,192,45873,1,0,0:0:0:0:
320,192,45920,1,0,0:0:0:0:
192,192,45967,1,0,0:0:0:0:
64,192,46014,1,0,0:0:0:0:
448,192,46014,1,0,0:0:0:0:
320,192,46061,1,0,0:0:0:0:
192,192,46108,1,0,0:0:0:0:
64,192,46108,1,0,0:0:0:0:
448,192,46108,1,0,0:0:0:0:
320,192,46483,1,0,0:0:0:0:
448,192,46483,1,0,0:0:0:0:
64,192,46483,1,0,0:0:0:0:
192,192,46670,1,0,0:0:0:0:
320,192,46670,1,0,0:0:0:0:
448,192,46670,1,0,0:0:0:0:
64,192,47045,1,0,0:0:0:0:
192,192,47045,1,0,0:0:0:0:
448,192,47045,1,0,0:0:0:0:
320,192,47233,1,0,0:0:0:0:
192,192,47233,1,0,0:0:0:0:
64,192,47233,1,0,0:0:0:0:
448,192,47608,1,0,0:0:0:0:
320,192,47608,1,0,0:0:0:0:
64,192,47701,1,0,0:0:0:0:
192,192,47795,1,0,0:0:0:0:
320,192,47795,1,0,0:0:0:0:
448,192,47889,1,0,0:0:0:0:
64,192,47983,1,0,0:0:0:0:
192,192,47983,1,0,0:0:0:0:
320,192,48076,1,0,0:0:0:0:
448,192,48170,1,0,0:0:0:0:
64,192,48170,1,0,0:0:0:0:
192,192,48264,1,0,0:0:0:0:
320,192,48358,1,0,0:0:0:0:
448,192,48358,1,0,0:0:0:0:
192,192,48451,1,0,0:0:0:0:
64,192,48451,1,0,0:0:0:0:
320,192,48545,1,0,0:0:0:0:
448,192,48545,1,0,0:0:0:0:
192,192,48639,1,0,0:0:0:0:
64,192,48639,1,0,0:0:0:0:
320,192,48733,1,0,0:0:0:0:
448,192,48733,1,0,0:0:0:0:
192,192,48826,1,0,0:0:0:0:
64,192,48826,1,0,0:0:0:0:
320,192,48920,1,0,0:0:0:0:
448,192,48920,1,0,0:0:0:0:
192,192,49014,1,0,0:0:0:0:
64,192,49014,1,0,0:0:0:0:
320,192,49108,1,0,0:0:0:0:
448,192,49108,1,0,0:0:0:0:
64,192,49108,1,0,0:0:0:0:
192,192,49295,1,0,0:0:0:0:
448,192,49295,1,0,0:0:0:0:
320,192,49483,1,0,0:0:0:0:
64,192,49483,1,0,0:0:0:0:
192,192,49483,1,0,0:0:0:0:
64,192,49670,1,0,0:0:0:0:
448,192,49670,1,0,0:0:0:0:
320,192,49858,1,0,0:0:0:0:
448,192,49858,1,0,0:0:0:0:
192,192,49858,1,0,0:0:0:0:
320,192,50045,1,0,0:0:0:0:
64,192,50045,1,0,0:0:0:0:
192,192,50233,1,0,0:0:0:0:
64,192,50233,1,0,0:0:0:0:
448,192,50233,1,0,0:0:0:0:
192,192,50420,1,0,0:0:0:0:
320,192,50420,1,0,0:0:0:0:
320,192,50608,1,0,0:0:0:0:
448,192,50608,1,0,0:0:0:0:
64,192,50608,1,0,0:0:0:0:
192,192,50701,1,0,0:0:0:0:
64,192,50795,1,0,0:0:0:0:
448,192,50889,1,0,0:0:0:0:
320,192,50983,1,0,0:0:0:0:
192,192,50983,1,0,0:0:0:0:
64,192,51170,1,0,0:0:0:0:
320,192,51170,1,0,0:0:0:0:
192,192,51264,1,0,0:0:0:0:
320,192,51358,1,0,0:0:0:0:
448,192,51358,1,0,0:0:0:0:
64,192,51545,1,0,0:0:0:0:
320,192,51545,1,0,0:0:0:0:
192,192,51733,1,0,0:0:0:0:
448,192,51733,1,0,0:0:0:0:
64,192,51733,1,0,0:0:0:0:
320,192,51920,1,0,0:0:0:0:
192,192,52014,1,0,0:0:0:0:
64,192,52014,1,0,0:0:0:0:
320,192,52108,1,0,0:0:0:0:
448,192,52108,128,0,52295:0:0:0:0:
64,192,52201,1,0,0:0:0:0:
320,192,52295,128,0,52483:0:0:0:0:
448,192,52389,1,0,0:0:0:0:
192,192,52483,128,0,52670:0:0:0:0:
64,192,52483,1,0,0:0:0:0:
448,192,52576,1,0,0:0:0:0:
64,192,52670,128,0,52858:0:0:0:0:
320,192,52764,1,0,0:0:0:0:
448,192,52858,128,0,53045:0:0:0:0:
192,192,52858,1,0,0:0:0:0:
320,192,52951,1,0,0:0:0:0:
192,192,53045,128,0,53233:0:0:0:0:
64,192,53139,1,0,0:0:0:0:
320,192,53233,128,0,53420:0:0:0:0:
448,192,53233,1,0,0:0:0:0:
64,192,53326,1,0,0:0:0:0:
448,192,53420,128,0,53608:0:0:0:0:
192,192,53514,1,0,0:0:0:0:
64,192,53608,128,0,53983:0:0:0:0:
320,192,53608,1,0,0:0:0:0:
192,192,53701,1,0,0:0:0:0:
320,192,53795,1,0,0:0:0:0:
448,192,53889,1,0,0:0:0:0:
320,192,53983,1,0,0:0:0:0:
192,192,53983,1,0,0:0:0:0:
448,192,54170,1,0,0:0:0:0:
64,192,54170,1,0,0:0:0:0:
192,192,54264,1,0,0:0:0:0:
320,192,54358,1,0,0:0:0:0:
448,192,54358,1,0,0:0:0:0:
192,192,54545,1,0,0:0:0:0:
64,192,54545,1,0,0:0:0:0:
320,192,54733,1,0,0:0:0:0:
448,192,54733,1,0,0:0:0:0:
64,192,54733,1,0,0:0:0:0:
192,192,54920,1,0,0:0:0:0:
448,192,54920,1,0,0:0:0:0:
320,192,55014,1,0,0:0:0:0:
192,192,55108,1,0,0:0:0:0:
64,192,55108,1,0,0:0:0:0:
448,192,55201,1,0,0:0:0:0:
320,192,55295,1,0,0:0:0:0:
192,192,55389,1,0,0:0:0:0:
64,192,55483,1,0,0:0:0:0:
448,192,55483,1,0,0:0:0:0:
320,192,55576,1,0,0:0:0:0:
448,192,55670,1,0,0:0:0:0:
64,192,55764,1,0,0:0:0:0:
192,192,55858,1,0,0:0:0:0:
320,192,55858,1,0,0:0:0:0:
448,192,55951,1,0,0:0:0:0:
192,192,56045,1,0,0:0:0:0:
64,192,56139,1,0,0:0:0:0:
448,192,56233,1,0,0:0:0:0:
320,192,56233,1,0,0:0:0:0:
192,192,56326,1,0,0:0:0:0:
64,192,56420,1,0,0:0:0:0:
320,192,56514,1,0,0:0:0:0:
448,192,56608,1,0,0:0:0:0:
192,192,56608,1,0,0:0:0:0:
64,192,56701,1,0,0:0:0:0:
320,192,56795,1,0,0:0:0:0:
448,192,56889,1,0,0:0:0:0:
192,192,56983,1,0,0:0:0:0:
64,192,56983,1,0,0:0:0:0:
320,192,57076,1,0,0:0:0:0:
448,192,57170,1,0,0:0:0:0:
192,192,57264,1,0,0:0:0:0:
320,192,57358,1,0,0:0:0:0:
448,192,57358,1,0,0:0:0:0:
64,192,57451,1,0,0:0:0:0:
192,192,57545,1,0,0:0:0:0:
448,192,57639,1,0,0:0:0:0:
320,192,57733,1,0,0:0:0:0:
192,192,57733,1,0,0:0:0:0:
64,192,57826,1,0,0:0:0:0:
320,192,57920,1,0,0:0:0:0:
192,192,58014,1,0,0:0:0:0:
448,192,58108,1,0,0:0:0:0:
320,192,58108,1,0,0:0:0:0:
64,192,58201,1,0,0:0:0:0:
320,192,58295,1,0,0:0:0:0:
192,192,58389,1,0,0:0:0:0:
64,192,58483,1,0,0:0:0:0:
448,192,58483,1,0,0:0:0:0:
320,192,58576,1,0,0:0:0:0:
192,192,58670,1,0,0:0:0:0:
320,192,58764,1,0,0:0:0:0:
448,192,58858,1,0,0:0:0:0:
64,192,58858,1,0,0:0:0:0:
192,192,58951,1,0,0:0:0:0:
448,192,59045,1,0,0:0:0:0:
320,192,59139,1,0,0:0:0:0:
192,192,59233,1,0,0:0:0:0:
64,192,59233,1,0,0:0:0:0:
448,192,59326,1,0,0:0:0:0:
320,192,59420,1,0,0:0:0:0:
192,192,59514,1,0,0:0:0:0:
64,192,59608,1,0,0:0:0:0:
448,192,59608,1,0,0:0:0:0:
320,192,59654,1,0,0:0:0:0:
192,192,59701,1,0,0:0:0:0:
64,192,59748,1,0,0:0:0:0:
448,192,59795,1,0,0:0:0:0:
320,192,59842,1,0,0:0:0:0:
192,192,59889,1,0,0:0:0:0:
64,192,59936,1,0,0:0:0:0:
448,192,59983,1,0,0:0:0:0:
320,192,60029,1,0,0:0:0:0:
192,192,60076,1,0,0:0:0:0:
64,192,60123,1,0,0:0:0:0:
448,192,60170,1,0,0:0:0:0:
320,192,60217,1,0,0:0:0:0:
192,192,60264,1,0,0:0:0:0:
64,192,60311,1,0,0:0:0:0:
448,192,60358,1,0,0:0:0:0:
320,192,60358,1,0,0:0:0:0:
64,192,61108,1,0,0:0:0:0:
448,192,61108,1,0,0:0:0:0:
320,192,61108,1,0,0:0:0:0:
192,192,61201,1,0,0:0:0:0:
64,192,61295,1,0,0:0:0:0:
320,192,61389,1,0,0:0:0:0:
448,192,61483,1,0,0:0:0:0:
192,192,61483,1,0,0:0:0:0:
64,192,61576,1,0,0:0:0:0:
320,192,61670,1,0,0:0:0:0:
448,192,61764,1,0,0:0:0:0:
64,192,61858,1,0,0:0:0:0:
192,192,61858,1,0,0:0:0:0:
320,192,61858,1,0,0:0:0:0:
448,192,61951,1,0,0:0:0:0:
192,192,62045,1,0,0:0:0:0:
64,192,62139,1,0,0:0:0:0:
448,192,62233,1,0,0:0:0:0:
320,192,62233,1,0,0:0:0:0:
192,192,62326,1,0,0:0:0:0:
64,192,62420,1,0,0:0:0:0:
320,192,62514,1,0,0:0:0:0:
448,192,62608,1,0,0:0:0:0:
64,192,62608,128,0,62983:0:0:0:0:
192,192,62701,1,0,0:0:0:0:
320,192,62795,1,0,0:0:0:0:
448,192,62889,1,0,0:0:0:0:
192,192,62983,128,0,63358:0:0:0:0:
320,192,62983,1,0,0:0:0:0:
64,192,63076,1,0,0:0:0:0:
320,192,63170,1,0,0:0:0:0:
64,192,63264,1,0,0:0:0:0:
320,192,63358,128,0,63733:0:0:0:0:
448,192,63358,1,0,0:0:0:0:
64,192,63451,1,0,0:0:0:0:
448,192,63545,1,0,0:0:0:0:
192,192,63639,1,0,0:0:0:0:
448,192,63733,128,0,64108:0:0:0:0:
64,192,63733,1,0,0:0:0:0:
192,192,63826,1,0,0:0:0:0:
320,192,63920,1,0,0:0:0:0:
192,192,64014,1,0,0:0:0:0:
64,192,64108,128,0,64483:0:0:0:0:
320,192,64108,1,0,0:0:0:0:
192,192,64201,1,0,0:0:0:0:
448,192,64295,1,0,0:0:0:0:
320,192,64389,1,0,0:0:0:0:
192,192,64483,1,0,0:0:0:0:
448,192,64483,1,0,0:0:0:0:
320,192,64576,1,0,0:0:0:0:
64,192,64670,1,0,0:0:0:0:
192,192,64764,1,0,0:0:0:0:
320,192,64858,1,0,0:0:0:0:
448,192,64858,1,0,0:0:0:0:
64,192,64951,1,0,0:0:0:0:
192,192,65045,1,0,0:0:0:0:
448,192,65139,1,0,0:0:0:0:
320,192,65233,1,0,0:0:0:0:
192,192,65233,1,0,0:0:0:0:
64,192,65233,1,0,0:0:0:0:
448,192,65326,1,0,0:0:0:0:
192,192,65420,1,0,0:0:0:0:
320,192,65514,1,0,0:0:0:0:
448,192,65608,1,0,0:0:0:0:
192,192,65608,1,0,0:0:0:0:
64,192,65608,128,0,66358:0:0:0:0:
320,192,65701,1,0,0:0:0:0:
448,192,65795,1,0,0:0:0:0:
192,192,65889,1,0,0:0:0:0:
320,192,65983,1,0,0:0:0:0:
448,192,65983,1,0,0:0:0:0:
192,192,66076,1,0,0:0:0:0:
320,192,66170,1,0,0:0:0:0:
192,192,66264,1,0,0:0:0:0:
448,192,66358,128,0,67108:0:0:0:0:
320,192,66358,1,0,0:0:0:0:
192,192,66451,1,0,0:0:0:0:
64,192,66545,1,0,0:0:0:0:
320,192,66639,1,0,0:0:0:0:
192,192,66733,1,0,0:0:0:0:
64,192,66733,1,0,0:0:0:0:
320,192,66826,1,0,0:0:0:0:
64,192,66920,1,0,0:0:0:0:
192,192,67014,1,0,0:0:0:0:
320,192,67108,1,0,0:0:0:0:
64,192,67108,1,0,0:0:0:0:
192,192,67201,1,0,0:0:0:0:
448,192,67295,1,0,0:0:0:0:
320,192,67389,1,0,0:0:0:0:
192,192,67483,1,0,0:0:0:0:
64,192,67483,1,0,0:0:0:0:
448,192,67483,1,0,0:0:0:0:
320,192,67576,1,0,0:0:0:0:
64,192,67670,1,0,0:0:0:0:
192,192,67764,1,0,0:0:0:0:
320,192,67858,1,0,0:0:0:0:
448,192,67858,1,0,0:0:0:0:
64,192,67951,1,0,0:0:0:0:
320,192,68045,1,0,0:0:0:0:
192,192,68139,1,0,0:0:0:0:
64,192,68233,1,0,0:0:0:0:
448,192,68233,1,0,0:0:0:0:
320,192,68233,1,0,0:0:0:0:
192,192,68326,1,0,0:0:0:0:
448,192,68420,1,0,0:0:0:0:
320,192,68514,1,0,0:0:0:0:
192,192,68608,1,0,0:0:0:0:
64,192,68608,1,0,0:0:0:0:
448,192,68701,1,0,0:0:0:0:
192,192,68795,1,0,0:0:0:0:
320,192,68889,1,0,0:0:0:0:
448,192,68983,1,0,0:0:0:0:
64,192,68983,1,0,0:0:0:0:
192,192,68983,1,0,0:0:0:0:
320,192,69076,1,0,0:0:0:0:
64,192,69170,1,0,0:0:0:0:
192,192,69264,1,0,0:0:0:0:
320,192,69358,1,0,0:0:0:0:
448,192,69358,1,0,0:0:0:0:
64,192,69451,1,0,0:0:0:0:
320,192,69545,1,0,0:0:0:0:
192,192,69639,1,0,0:0:0:0:
64,192,69733,1,0,0:0:0:0:
448,192,69733,1,0,0:0:0:0:
320,192,69733,1,0,0:0:0:0:
192,192,69826,1,0,0:0:0:0:
64,192,69920,1,0,0:0:0:0:
448,192,70014,1,0,0:0:0:0:
320,192,70014,1,0,0:0:0:0:
192,192,70108,1,0,0:0:0:0:
64,192,70108,1,0,0:0:0:0:
320,192,70201,1,0,0:0:0:0:
448,192,70295,1,0,0:0:0:0:
64,192,70389,1,0,0:0:0:0:
192,192,70483,1,0,0:0:0:0:
320,192,70483,1,0,0:0:0:0:
448,192,70576,1,0,0:0:0:0:
64,192,70670,1,0,0:0:0:0:
192,192,70764,1,0,0:0:0:0:
320,192,70858,1,0,0:0:0:0:
448,192,70858,1,0,0:0:0:0:
64,192,70858,1,0,0:0:0:0:
192,192,70951,1,0,0:0:0:0:
448,192,71045,1,0,0:0:0:0:
320,192,71139,1,0,0:0:0:0:
192,192,71233,1,0,0:0:0:0:
64,192,71233,1,0,0:0:0:0:
448,192,71326,1,0,0:0:0:0:
320,192,71420,1,0,0:0:0:0:
192,192,71514,1,0,0:0:0:0:
64,192,71608,1,0,0:0:0:0:
320,192,71608,1,0,0:0:0:0:
448,192,71608,1,0,0:0:0:0:
320,192,71889,1,0,0:0:0:0:
448,192,71889,1,0,0:0:0:0:
64,192,71889,1,0,0:0:0:0:
192,192,72170,1,0,0:0:0:0:
64,192,72170,1,0,0:0:0:0:
448,192,72170,1,0,0:0:0:0:
320,192,72358,1,0,0:0:0:0:
448,192,72358,1,0,0:0:0:0:
192,192,72358,1,0,0:0:0:0:
64,192,72358,1,0,0:0:0:0:
64,192,72733,1,0,0:0:0:0:
192,192,72779,1,0,0:0:0:0:
320,192,72826,1,0,0:0:0:0:
448,192,72873,1,0,0:0:0:0:
64,192,72920,1,0,0:0:0:0:
192,192,72967,1,0,0:0:0:0:
320,192,73014,1,0,0:0:0:0:
448,192,73061,1,0,0:0:0:0:
64,192,73108,1,0,0:0:0:0:
192,192,73108,1,0,0:0:0:0:
320,192,73108,1,0,0:0:0:0:
448,192,73201,1,0,0:0:0:0:
192,192,73295,1,0,0:0:0:0:
320,192,73389,1,0,0:0:0:0:
448,192,73483,1,0,0:0:0:0:
64,192,73483,1,0,0:0:0:0:
192,192,73576,1,0,0:0:0:0:
448,192,73670,1,0,0:0:0:0:
320,192,73764,1,0,0:0:0:0:
192,192,73858,1,0,0:0:0:0:
64,192,73858,1,0,0:0:0:0:
448,192,73858,1,0,0:0:0:0:
320,192,73951,1,0,0:0:0:0:
64,192,74045,1,0,0:0:0:0:
192,192,74139,1,0,0:0:0:0:
320,192,74233,1,0,0:0:0:0:
448,192,74233,1,0,0:0:0:0:
64,192,74326,1,0,0:0:0:0:
320,192,74420,1,0,0:0:0:0:
192,192,74514,1,0,0:0:0:0:
64,192,74608,1,0,0:0:0:0:
448,192,74608,128,0,74983:0:0:0:0:
320,192,74608,1,0,0:0:0:0:
192,192,74701,1,0,0:0:0:0:
64,192,74795,1,0,0:0:0:0:
192,192,74889,1,0,0:0:0:0:
320,192,74983,128,0,75358:0:0:0:0:
64,192,74983,1,0,0:0:0:0:
448,192,75076,1,0,0:0:0:0:
192,192,75170,1,0,0:0:0:0:
64,192,75264,1,0,0:0:0:0:
192,192,75358,128,0,75733:0:0:0:0:
448,192,75358,1,0,0:0:0:0:
64,192,75451,1,0,0:0:0:0:
320,192,75545,1,0,0:0:0:0:
448,192,75639,1,0,0:0:0:0:
64,192,75733,128,0,76108:0:0:0:0:
320,192,75733,1,0,0:0:0:0:
448,192,75826,1,0,0:0:0:0:
192,192,75920,1,0,0:0:0:0:
320,192,76014,1,0,0:0:0:0:
448,192,76108,128,0,76483:0:0:0:0:
192,192,76108,1,0,0:0:0:0:
64,192,76201,1,0,0:0:0:0:
320,192,76295,1,0,0:0:0:0:
192,192,76389,1,0,0:0:0:0:
64,192,76483,1,0,0:0:0:0:
320,192,76483,1,0,0:0:0:0:
192,192,76576,1,0,0:0:0:0:
320,192,76670,1,0,0:0:0:0:
448,192,76764,1,0,0:0:0:0:
192,192,76858,1,0,0:0:0:0:
64,192,76858,1,0,0:0:0:0:
320,192,76951,1,0,0:0:0:0:
192,192,77045,1,0,0:0:0:0:
64,192,77139,1,0,0:0:0:0:
448,192,77233,1,0,0:0:0:0:
320,192,77233,1,0,0:0:0:0:
192,192,77233,1,0,0:0:0:0:
64,192,77326,1,0,0:0:0:0:
320,192,77420,1,0,0:0:0:0:
192,192,77514,1,0,0:0:0:0:
448,192,77608,128,0,78358:0:0:0:0:
64,192,77608,1,0,0:0:0:0:
320,192,77608,1,0,0:0:0:0:
192,192,77701,1,0,0:0:0:0:
64,192,77795,1,0,0:0:0:0:
320,192,77889,1,0,0:0:0:0:
64,192,77983,1,0,0:0:0:0:
192,192,77983,1,0,0:0:0:0:
320,192,78076,1,0,0:0:0:0:
64,192,78170,1,0,0:0:0:0:
192,192,78264,1,0,0:0:0:0:
64,192,78358,128,0,79108:0:0:0:0:
320,192,78358,1,0,0:0:0:0:
192,192,78451,1,0,0:0:0:0:
448,192,78545,1,0,0:0:0:0:
320,192,78639,1,0,0:0:0:0:
192,192,78733,1,0,0:0:0:0:
448,192,78733,1,0,0:0:0:0:
320,192,78826,1,0,0:0:0:0:
192,192,78920,1,0,0:0:0:0:
448,192,79014,1,0,0:0:0:0:
320,192,79108,1,0,0:0:0:0:
192,192,79108,1,0,0:0:0:0:
448,192,79201,1,0,0:0:0:0:
64,192,79295,1,0,0:0:0:0:
192,192,79389,1,0,0:0:0:0:
320,192,79483,1,0,0:0:0:0:
448,192,79483,1,0,0:0:0:0:
64,192,79483,1,0,0:0:0:0:
192,192,79576,1,0,0:0:0:0:
448,192,79670,1,0,0:0:0:0:
320,192,79764,1,0,0:0:0:0:
192,192,79858,1,0,0:0:0:0:
64,192,79858,1,0,0:0:0:0:
320,192,79951,1,0,0:0:0:0:
192,192,80045,1,0,0:0:0:0:
448,192,80139,1,0,0:0:0:0:
320,192,80233,1,0,0:0:0:0:
64,192,80233,1,0,0:0:0:0:
192,192,80233,1,0,0:0:0:0:
448,192,80326,1,0,0:0:0:0:
192,192,80420,1,0,0:0:0:0:
320,192,80514,1,0,0:0:0:0:
448,192,80608,1,0,0:0:0:0:
64,192,80608,1,0,0:0:0:0:
192,192,80701,1,0,0:0:0:0:
320,192,80795,1,0,0:0:0:0:
64,192,80889,1,0,0:0:0:0:
448,192,80983,1,0,0:0:0:0:
320,192,80983,1,0,0:0:0:0:
192,192,80983,1,0,0:0:0:0:
64,192,81076,1,0,0:0:0:0:
320,192,81170,1,0,0:0:0:0:
192,192,81264,1,0,0:0:0:0:
320,192,81358,1,0,0:0:0:0:
448,192,81358,1,0,0:0:0:0:
64,192,81451,1,0,0:0:0:0:
192,192,81545,1,0,0:0:0:0:
320,192,81639,1,0,0:0:0:0:
448,192,81733,1,0,0:0:0:0:
64,192,81733,1,0,0:0:0:0:
192,192,81733,1,0,0:0:0:0:
320,192,81920,1,0,0:0:0:0:
192,192,82014,1,0,0:0:0:0:
64,192,82014,1,0,0:0:0:0:
448,192,82108,1,0,0:0:0:0:
320,192,82108,1,0,0:0:0:0:
64,192,82108,1,0,0:0:0:0:
192,192,82389,1,0,0:0:0:0:
448,192,82389,1,0,0:0:0:0:
64,192,82389,1,0,0:0:0:0:
320,192,82670,1,0,0:0:0:0:
448,192,82670,1,0,0:0:0:0:
64,192,82670,1,0,0:0:0:0:
192,192,82858,1,0,0:0:0:0:
64,192,82858,1,0,0:0:0:0:
320,192,82858,1,0,0:0:0:0:
448,192,83139,1,0,0:0:0:0:
320,192,83139,1,0,0:0:0:0:
192,192,83139,1,0,0:0:0:0:
320,192,83420,1,0,0:0:0:0:
192,192,83420,1,0,0:0:0:0:
64,192,83420,1,0,0:0:0:0:
192,192,83608,1,0,0:0:0:0:
320,192,83608,1,0,0:0:0:0:
448,192,83608,1,0,0:0:0:0:
64,192,83608,1,0,0:0:0:0:
64,192,85108,128,0,85295:0:0:0:0:
448,192,85108,1,0,0:0:0:0:
192,192,85108,1,0,0:0:0:0:
320,192,85201,1,0,0:0:0:0:
192,192,85295,1,0,0:0:0:0:
320,192,85389,1,0,0:0:0:0:
448,192,85483,128,0,85858:0:0:0:0:
64,192,85483,1,0,0:0:0:0:
192,192,85576,1,0,0:0:0:0:
320,192,85670,1,0,0:0:0:0:
64,192,85764,1,0,0:0:0:0:
192,192,85858,128,0,86045:0:0:0:0:
320,192,85858,1,0,0:0:0:0:
64,192,85951,1,0,0:0:0:0:
448,192,86045,1,0,0:0:0:0:
192,192,86139,1,0,0:0:0:0:
320,192,86233,128,0,86420:0:0:0:0:
64,192,86233,1,0,0:0:0:0:
448,192,86326,1,0,0:0:0:0:
192,192,86420,1,0,0:0:0:0:
320,192,86514,1,0,0:0:0:0:
64,192,86608,128,0,86795:0:0:0:0:
448,192,86608,1,0,0:0:0:0:
192,192,86701,1,0,0:0:0:0:
320,192,86795,128,0,86983:0:0:0:0:
448,192,86889,1,0,0:0:0:0:
192,192,86983,128,0,87170:0:0:0:0:
64,192,86983,1,0,0:0:0:0:
320,192,87076,1,0,0:0:0:0:
448,192,87170,128,0,87358:0:0:0:0:
192,192,87264,1,0,0:0:0:0:
64,192,87358,128,0,87545:0:0:0:0:
320,192,87358,1,0,0:0:0:0:
192,192,87451,1,0,0:0:0:0:
320,192,87545,128,0,87733:0:0:0:0:
64,192,87639,1,0,0:0:0:0:
192,192,87733,128,0,87920:0:0:0:0:
448,192,87733,1,0,0:0:0:0:
64,192,87826,1,0,0:0:0:0:
448,192,87920,128,0,88108:0:0:0:0:
192,192,88014,1,0,0:0:0:0:
320,192,88108,128,0,88295:0:0:0:0:
64,192,88108,1,0,0:0:0:0:
448,192,88201,1,0,0:0:0:0:
192,192,88295,128,0,88483:0:0:0:0:
320,192,88389,1,0,0:0:0:0:
64,192,88483,128,0,88670:0:0:0:0:
448,192,88483,1,0,0:0:0:0:
192,192,88576,1,0,0:0:0:0:
320,192,88670,128,0,88858:0:0:0:0:
192,192,88764,1,0,0:0:0:0:
448,192,88858,128,0,89045:0:0:0:0:
64,192,88858,1,0,0:0:0:0:
192,192,88951,1,0,0:0:0:0:
64,192,89045,128,0,89233:0:0:0:0:
320,192,89139,1,0,0:0:0:0:
448,192,89233,128,0,89420:0:0:0:0:
192,192,89233,1,0,0:0:0:0:
64,192,89326,1,0,0:0:0:0:
192,192,89420,128,0,89608:0:0:0:0:
448,192,89514,1,0,0:0:0:0:
320,192,89608,128,0,89795:0:0:0:0:
64,192,89608,1,0,0:0:0:0:
192,192,89701,1,0,0:0:0:0:
448,192,89795,1,0,0:0:0:0:
64,192,89889,1,0,0:0:0:0:
192,192,89983,1,0,0:0:0:0:
320,192,89983,1,0,0:0:0:0:
448,192,90076,1,0,0:0:0:0:
64,192,90170,128,0,90358:0:0:0:0:
192,192,90264,1,0,0:0:0:0:
448,192,90358,128,0,91108:0:0:0:0:
320,192,90358,1,0,0:0:0:0:
64,192,90420,1,0,0:0:0:0:
192,192,90483,1,0,0:0:0:0:
320,192,90545,1,0,0:0:0:0:
64,192,90608,1,0,0:0:0:0:
192,192,90670,1,0,0:0:0:0:
320,192,90733,1,0,0:0:0:0:
64,192,90795,1,0,0:0:0:0:
192,192,90858,1,0,0:0:0:0:
320,192,90920,1,0,0:0:0:0:
64,192,90983,1,0,0:0:0:0:
192,192,91045,1,0,0:0:0:0:
64,192,91108,128,0,91295:0:0:0:0:
320,192,91108,1,0,0:0:0:0:
192,192,91201,1,0,0:0:0:0:
448,192,91295,1,0,0:0:0:0:
320,192,91389,1,0,0:0:0:0:
192,192,91483,128,0,91858:0:0:0:0:
64,192,91483,1,0,0:0:0:0:
448,192,91576,1,0,0:0:0:0:
64,192,91670,1,0,0:0:0:0:
448,192,91764,1,0,0:0:0:0:
320,192,91858,128,0,92045:0:0:0:0:
64,192,91858,1,0,0:0:0:0:
192,192,91951,1,0,0:0:0:0:
448,192,92045,128,0,92233:0:0:0:0:
64,192,92139,1,0,0:0:0:0:
192,192,92233,128,0,92420:0:0:0:0:
320,192,92233,1,0,0:0:0:0:
448,192,92326,1,0,0:0:0:0:
320,192,92420,128,0,92608:0:0:0:0:
192,192,92514,1,0,0:0:0:0:
64,192,92608,128,0,92983:0:0:0:0:
448,192,92608,1,0,0:0:0:0:
192,192,92701,1,0,0:0:0:0:
320,192,92795,1,0,0:0:0:0:
448,192,92889,1,0,0:0:0:0:
192,192,92983,128,0,93170:0:0:0:0:
320,192,92983,1,0,0:0:0:0:
64,192,93076,1,0,0:0:0:0:
320,192,93170,128,0,93358:0:0:0:0:
192,192,93264,1,0,0:0:0:0:
448,192,93358,128,0,94108:0:0:0:0:
64,192,93358,1,0,0:0:0:0:
320,192,93451,1,0,0:0:0:0:
192,192,93545,1,0,0:0:0:0:
64,192,93639,1,0,0:0:0:0:
192,192,93733,1,0,0:0:0:0:
320,192,93733,1,0,0:0:0:0:
64,192,93826,1,0,0:0:0:0:
192,192,93920,1,0,0:0:0:0:
320,192,94014,1,0,0:0:0:0:
64,192,94108,1,0,0:0:0:0:
192,192,94108,1,0,0:0:0:0:
192,192,94389,1,0,0:0:0:0:
320,192,94389,1,0,0:0:0:0:
448,192,94389,1,0,0:0:0:0:
192,192,94670,1,0,0:0:0:0:
320,192,94670,1,0,0:0:0:0:
64,192,94670,1,0,0:0:0:0:
320,192,94858,1,0,0:0:0:0:
448,192,94858,1,0,0:0:0:0:
64,192,94858,1,0,0:0:0:0:
320,192,95139,1,0,0:0:0:0:
192,192,95139,1,0,0:0:0:0:
64,192,95139,1,0,0:0:0:0:
192,192,95420,1,0,0:0:0:0:
320,192,95420,1,0,0:0:0:0:
448,192,95420,1,0,0:0:0:0:
64,192,95608,1,0,0:0:0:0:
192,192,95608,1,0,0:0:0:0:
320,192,95608,1,0,0:0:0:0:
448,192,95670,1,0,0:0:0:0:
320,192,95733,1,0,0:0:0:0:
192,192,95795,1,0,0:0:0:0:
64,192,95858,1,0,0:0:0:0:
320,192,95920,1,0,0:0:0:0:
448,192,95983,1,0,0:0:0:0:
64,192,96045,1,0,0:0:0:0:
192,192,96108,1,0,0:0:0:0:
320,192,96170,1,0,0:0:0:0:
448,192,96233,1,0,0:0:0:0:
192,192,96295,1,0,0:0:0:0:
64,192,96358,1,0,0:0:0:0:
448,192,96420,1,0,0:0:0:0:
320,192,96483,1,0,0:0:0:0:
192,192,96545,1,0,0:0:0:0:
64,192,96608,1,0,0:0:0:0:
320,192,96670,1,0,0:0:0:0:
448,192,96733,1,0,0:0:0:0:
64,192,96795,1,0,0:0:0:0:
192,192,96858,1,0,0:0:0:0:
320,192,96920,1,0,0:0:0:0:
448,192,96983,1,0,0:0:0:0:
64,192,97045,1,0,0:0:0:0:
192,192,97108,1,0,0:0:0:0:
320,192,97108,1,0,0:0:0:0:
448,192,97108,1,0,0:0:0:0:
320,192,97295,1,0,0:0:0:0:
64,192,97295,1,0,0:0:0:0:
192,192,97389,1,0,0:0:0:0:
320,192,97483,1,0,0:0:0:0:
448,192,97483,1,0,0:0:0:0:
192,192,97670,1,0,0:0:0:0:
64,192,97670,1,0,0:0:0:0:
320,192,97764,1,0,0:0:0:0:
448,192,97858,1,0,0:0:0:0:
192,192,97858,1,0,0:0:0:0:
320,192,98045,1,0,0:0:0:0:
64,192,98045,1,0,0:0:0:0:
192,192,98233,1,0,0:0:0:0:
448,192,98233,1,0,0:0:0:0:
320,192,98233,1,0,0:0:0:0:
64,192,98420,1,0,0:0:0:0:
448,192,98420,1,0,0:0:0:0:
320,192,98514,1,0,0:0:0:0:
192,192,98608,1,0,0:0:0:0:
64,192,98608,1,0,0:0:0:0:
448,192,98701,1,0,0:0:0:0:
320,192,98795,1,0,0:0:0:0:
192,192,98795,1,0,0:0:0:0:
64,192,98889,1,0,0:0:0:0:
320,192,98983,1,0,0:0:0:0:
448,192,98983,1,0,0:0:0:0:
192,192,99170,1,0,0:0:0:0:
64,192,99170,1,0,0:0:0:0:
320,192,99264,1,0,0:0:0:0:
448,192,99358,1,0,0:0:0:0:
192,192,99358,1,0,0:0:0:0:
64,192,99545,1,0,0:0:0:0:
320,192,99545,1,0,0:0:0:0:
192,192,99733,1,0,0:0:0:0:
448,192,99733,1,0,0:0:0:0:
64,192,99920,1,0,0:0:0:0:
320,192,99920,1,0,0:0:0:0:
448,192,100014,1,0,0:0:0:0:
192,192,100108,1,0,0:0:0:0:
64,192,100108,1,0,0:0:0:0:
320,192,100108,1,0,0:0:0:0:
192,192,100483,1,0,0:0:0:0:
320,192,100483,1,0,0:0:0:0:
448,192,100483,1,0,0:0:0:0:
192,192,100670,1,0,0:0:0:0:
64,192,100670,1,0,0:0:0:0:
448,192,100670,1,0,0:0:0:0:
320,192,101045,1,0,0:0:0:0:
192,192,101045,1,0,0:0:0:0:
64,192,101045,1,0,0:0:0:0:
448,192,101233,1,0,0:0:0:0:
192,192,101233,1,0,0:0:0:0:
64,192,101233,1,0,0:0:0:0:
320,192,101326,1,0,0:0:0:0:
192,192,101420,1,0,0:0:0:0:
64,192,101514,1,0,0:0:0:0:
448,192,101608,1,0,0:0:0:0:
192,192,101701,1,0,0:0:0:0:
320,192,101795,1,0,0:0:0:0:
448,192,101795,1,0,0:0:0:0:
64,192,101889,1,0,0:0:0:0:
192,192,101983,1,0,0:0:0:0:
320,192,101983,1,0,0:0:0:0:
448,192,102076,1,0,0:0:0:0:
64,192,102170,1,0,0:0:0:0:
192,192,102170,1,0,0:0:0:0:
320,192,102264,1,0,0:0:0:0:
448,192,102358,1,0,0:0:0:0:
64,192,102358,1,0,0:0:0:0:
192,192,102451,1,0,0:0:0:0:
64,192,102545,1,0,0:0:0:0:
448,192,102545,1,0,0:0:0:0:
320,192,102639,1,0,0:0:0:0:
192,192,102733,1,0,0:0:0:0:
64,192,102733,1,0,0:0:0:0:
320,192,102826,1,0,0:0:0:0:
448,192,102826,1,0,0:0:0:0:
64,192,102920,1,0,0:0:0:0:
192,192,102920,1,0,0:0:0:0:
320,192,103014,1,0,0:0:0:0:
448,192,103014,1,0,0:0:0:0:
64,192,103108,1,0,0:0:0:0:
192,192,103108,1,0,0:0:0:0:
448,192,103108,1,0,0:0:0:0:
320,192,103295,1,0,0:0:0:0:
64,192,103295,1,0,0:0:0:0:
192,192,103389,1,0,0:0:0:0:
320,192,103483,1,0,0:0:0:0:
448,192,103483,1,0,0:0:0:0:
64,192,103670,1,0,0:0:0:0:
192,192,103670,1,0,0:0:0:0:
448,192,103764,1,0,0:0:0:0:
320,192,103858,1,0,0:0:0:0:
192,192,103858,1,0,0:0:0:0:
64,192,104045,1,0,0:0:0:0:
320,192,104045,1,0,0:0:0:0:
192,192,104233,1,0,0:0:0:0:
448,192,104233,1,0,0:0:0:0:
320,192,104420,1,0,0:0:0:0:
64,192,104420,1,0,0:0:0:0:
192,192,104514,1,0,0:0:0:0:
320,192,104608,1,0,0:0:0:0:
448,192,104608,1,0,0:0:0:0:
64,192,104701,1,0,0:0:0:0:
320,192,104795,1,0,0:0:0:0:
192,192,104889,1,0,0:0:0:0:
64,192,104983,1,0,0:0:0:0:
448,192,104983,1,0,0:0:0:0:
320,192,105170,1,0,0:0:0:0:
192,192,105170,1,0,0:0:0:0:
448,192,105264,1,0,0:0:0:0:
64,192,105358,1,0,0:0:0:0:
192,192,105358,1,0,0:0:0:0:
320,192,105451,1,0,0:0:0:0:
448,192,105545,1,0,0:0:0:0:
64,192,105545,1,0,0:0:0:0:
192,192,105592,1,0,0:0:0:0:
320,192,105639,1,0,0:0:0:0:
448,192,105686,1,0,0:0:0:0:
64,192,105733,1,0,0:0:0:0:
192,192,105733,1,0,0:0:0:0:
320,192,105779,1,0,0:0:0:0:
448,192,105826,1,0,0:0:0:0:
64,192,105873,1,0,0:0:0:0:
192,192,105920,1,0,0:0:0:0:
320,192,105967,1,0,0:0:0:0:
448,192,106014,1,0,0:0:0:0:
64,192,106014,1,0,0:0:0:0:
192,192,106061,1,0,0:0:0:0:
320,192,106108,1,0,0:0:0:0:
448,192,106108,1,0,0:0:0:0:
64,192,106108,1,0,0:0:0:0:
192,192,106483,1,0,0:0:0:0:
64,192,106483,1,0,0:0:0:0:
448,192,106483,1,0,0:0:0:0:
320,192,106670,1,0,0:0:0:0:
192,192,106670,1,0,0:0:0:0:
64,192,106670,1,0,0:0:0:0:
448,192,107045,1,0,0:0:0:0:
320,192,107045,1,0,0:0:0:0:
64,192,107045,1,0,0:0:0:0:
192,192,107233,1,0,0:0:0:0:
320,192,107233,1,0,0:0:0:0:
448,192,107233,1,0,0:0:0:0:
64,192,107608,1,0,0:0:0:0:
192,192,107608,1,0,0:0:0:0:
448,192,107701,1,0,0:0:0:0:
320,192,107795,1,0,0:0:0:0:
192,192,107795,1,0,0:0:0:0:
64,192,107889,1,0,0:0:0:0:
448,192,107983,1,0,0:0:0:0:
320,192,107983,1,0,0:0:0:0:
192,192,108076,1,0,0:0:0:0:
64,192,108170,1,0,0:0:0:0:
448,192,108170,1,0,0:0:0:0:
320,192,108264,1,0,0:0:0:0:
192,192,108358,1,0,0:0:0:0:
64,192,108358,1,0,0:0:0:0:
320,192,108451,1,0,0:0:0:0:
448,192,108451,1,0,0:0:0:0:
192,192,108545,1,0,0:0:0:0:
64,192,108545,1,0,0:0:0:0:
320,192,108639,1,0,0:0:0:0:
448,192,108639,1,0,0:0:0:0:
192,192,108733,1,0,0:0:0:0:
64,192,108733,1,0,0:0:0:0:
320,192,108826,1,0,0:0:0:0:
448,192,108826,1,0,0:0:0:0:
192,192,108920,1,0,0:0:0:0:
64,192,108920,1,0,0:0:0:0:
320,192,109014,1,0,0:0:0:0:
448,192,109014,1,0,0:0:0:0:
192,192,109108,1,0,0:0:0:0:
64,192,109108,1,0,0:0:0:0:
448,192,109108,1,0,0:0:0:0:
320,192,109295,1,0,0:0:0:0:
64,192,109295,1,0,0:0:0:0:
192,192,109483,1,0,0:0:0:0:
448,192,109483,1,0,0:0:0:0:
320,192,109483,1,0,0:0:0:0:
448,192,109670,1,0,0:0:0:0:
64,192,109670,1,0,0:0:0:0:
192,192,109858,1,0,0:0:0:0:
64,192,109858,1,0,0:0:0:0:
320,192,109858,1,0,0:0:0:0:
192,192,110045,1,0,0:0:0:0:
448,192,110045,1,0,0:0:0:0:
320,192,110233,1,0,0:0:0:0:
448,192,110233,1,0,0:0:0:0:
64,192,110233,1,0,0:0:0:0:
320,192,110420,1,0,0:0:0:0:
192,192,110420,1,0,0:0:0:0:
192,192,110608,1,0,0:0:0:0:
64,192,110608,1,0,0:0:0:0:
448,192,110608,1,0,0:0:0:0:
320,192,110701,1,0,0:0:0:0:
448,192,110795,1,0,0:0:0:0:
64,192,110889,1,0,0:0:0:0:
192,192,110983,1,0,0:0:0:0:
320,192,110983,1,0,0:0:0:0:
448,192,111170,1,0,0:0:0:0:
192,192,111170,1,0,0:0:0:0:
320,192,111264,1,0,0:0:0:0:
192,192,111358,1,0,0:0:0:0:
64,192,111358,1,0,0:0:0:0:
448,192,111545,1,0,0:0:0:0:
192,192,111545,1,0,0:0:0:0:
320,192,111733,1,0,0:0:0:0:
64,192,111733,1,0,0:0:0:0:
448,192,111733,1,0,0:0:0:0:
192,192,111920,1,0,0:0:0:0:
320,192,112014,1,0,0:0:0:0:
448,192,112014,1,0,0:0:0:0:
192,192,112108,1,0,0:0:0:0:
64,192,112108,128,0,112295:0:0:0:0:
448,192,112201,1,0,0:0:0:0:
192,192,112295,128,0,112483:0:0:0:0:
64,192,112389,1,0,0:0:0:0:
320,192,112483,128,0,112670:0:0:0:0:
448,192,112483,1,0,0:0:0:0:
64,192,112576,1,0,0:0:0:0:
448,192,112670,128,0,112858:0:0:0:0:
192,192,112764,1,0,0:0:0:0:
64,192,112858,128,0,113045:0:0:0:0:
320,192,112858,1,0,0:0:0:0:
192,192,112951,1,0,0:0:0:0:
320,192,113045,128,0,113233:0:0:0:0:
448,192,113139,1,0,0:0:0:0:
192,192,113233,128,0,113420:0:0:0:0:
64,192,113233,1,0,0:0:0:0:
448,192,113326,1,0,0:0:0:0:
64,192,113420,128,0,113608:0:0:0:0:
320,192,113514,1,0,0:0:0:0:
448,192,113608,128,0,113983:0:0:0:0:
192,192,113608,1,0,0:0:0:0:
320,192,113701,1,0,0:0:0:0:
192,192,113795,1,0,0:0:0:0:
64,192,113889,1,0,0:0:0:0:
192,192,113983,1,0,0:0:0:0:
320,192,113983,1,0,0:0:0:0:
64,192,114170,1,0,0:0:0:0:
448,192,114170,1,0,0:0:0:0:
320,192,114264,1,0,0:0:0:0:
192,192,114358,1,0,0:0:0:0:
64,192,114358,1,0,0:0:0:0:
320,192,114545,1,0,0:0:0:0:
448,192,114545,1,0,0:0:0:0:
192,192,114733,1,0,0:0:0:0:
64,192,114733,1,0,0:0:0:0:
448,192,114733,1,0,0:0:0:0:
320,192,114920,1,0,0:0:0:0:
64,192,114920,1,0,0:0:0:0:
192,192,115014,1,0,0:0:0:0:
320,192,115108,1,0,0:0:0:0:
448,192,115108,1,0,0:0:0:0:
64,192,115201,1,0,0:0:0:0:
192,192,115295,1,0,0:0:0:0:
320,192,115389,1,0,0:0:0:0:
448,192,115483,1,0,0:0:0:0:
192,192,115483,1,0,0:0:0:0:
64,192,115576,1,0,0:0:0:0:
192,192,115670,1,0,0:0:0:0:
448,192,115764,1,0,0:0:0:0:
320,192,115858,1,0,0:0:0:0:
192,192,115858,1,0,0:0:0:0:
64,192,115951,1,0,0:0:0:0:
320,192,116045,1,0,0:0:0:0:
448,192,116139,1,0,0:0:0:0:
64,192,116233,1,0,0:0:0:0:
192,192,116233,1,0,0:0:0:0:
320,192,116326,1,0,0:0:0:0:
448,192,116420,1,0,0:0:0:0:
192,192,116514,1,0,0:0:0:0:
64,192,116608,1,0,0:0:0:0:
320,192,116608,1,0,0:0:0:0:
448,192,116701,1,0,0:0:0:0:
192,192,116795,1,0,0:0:0:0:
64,192,116889,1,0,0:0:0:0:
320,192,116983,1,0,0:0:0:0:
448,192,116983,1,0,0:0:0:0:
192,192,117076,1,0,0:0:0:0:
64,192,117170,1,0,0:0:0:0:
320,192,117264,1,0,0:0:0:0:
192,192,117358,1,0,0:0:0:0:
64,192,117358,1,0,0:0:0:0:
448,192,117451,1,0,0:0:0:0:
320,192,117545,1,0,0:0:0:0:
64,192,117639,1,0,0:0:0:0:
192,192,117733,1,0,0:0:0:0:
320,192,117733,1,0,0:0:0:0:
448,192,117826,1,0,0:0:0:0:
192,192,117920,1,0,0:0:0:0:
320,192,118014,1,0,0:0:0:0:
64,192,118108,1,0,0:0:0:0:
192,192,118108,1,0,0:0:0:0:
448,192,118201,1,0,0:0:0:0:
192,192,118295,1,0,0:0:0:0:
320,192,118389,1,0,0:0:0:0:
448,192,118483,1,0,0:0:0:0:
64,192,118483,1,0,0:0:0:0:
192,192,118576,1,0,0:0:0:0:
320,192,118670,1,0,0:0:0:0:
192,192,118764,1,0,0:0:0:0:
64,192,118858,1,0,0:0:0:0:
448,192,118858,1,0,0:0:0:0:
320,192,118951,1,0,0:0:0:0:
64,192,119045,1,0,0:0:0:0:
192,192,119139,1,0,0:0:0:0:
320,192,119233,1,0,0:0:0:0:
448,192,119233,1,0,0:0:0:0:
64,192,119326,1,0,0:0:0:0:
192,192,119420,1,0,0:0:0:0:
320,192,119514,1,0,0:0:0:0:
448,192,119608,1,0,0:0:0:0:
64,192,119608,1,0,0:0:0:0:
192,192,119654,1,0,0:0:0:0:
320,192,119701,1,0,0:0:0:0:
448,192,119748,1,0,0:0:0:0:
64,192,119795,1,0,0:0:0:0:
192,192,119842,1,0,0:0:0:0:
320,192,119889,1,0,0:0:0:0:
448,192,119936,1,0,0:0:0:0:
64,192,119983,1,0,0:0:0:0:
192,192,120029,1,0,0:0:0:0:
320,192,120076,1,0,0:0:0:0:
448,192,120123,1,0,0:0:0:0:
64,192,120170,1,0,0:0:0:0:
192,192,120217,1,0,0:0:0:0:
320,192,120264,1,0,0:0:0:0:
448,192,120311,1,0,0:0:0:0:
64,192,120358,1,0,0:0:0:0:
192,192,120358,1,0,0:0:0:0:
448,192,121108,1,0,0:0:0:0:
64,192,121108,1,0,0:0:0:0:
192,192,121108,1,0,0:0:0:0:
320,192,121201,1,0,0:0:0:0:
448,192,121295,1,0,0:0:0:0:
192,192,121389,1,0,0:0:0:0:
64,192,121483,1,0,0:0:0:0:
320,192,121483,1,0,0:0:0:0:
448,192,121576,1,0,0:0:0:0:
192,192,121670,1,0,0:0:0:0:
64,192,121764,1,0,0:0:0:0:
448,192,121858,1,0,0:0:0:0:
320,192,121858,1,0,0:0:0:0:
192,192,121858,1,0,0:0:0:0:
64,192,121951,1,0,0:0:0:0:
320,192,122045,1,0,0:0:0:0:
448,192,122139,1,0,0:0:0:0:
64,192,122233,1,0,0:0:0:0:
192,192,122233,1,0,0:0:0:0:
320,192,122326,1,0,0:0:0:0:
448,192,122420,1,0,0:0:0:0:
192,192,122514,1,0,0:0:0:0:
64,192,122608,1,0,0:0:0:0:
448,192,122608,128,0,122983:0:0:0:0:
320,192,122701,1,0,0:0:0:0:
192,192,122795,1,0,0:0:0:0:
64,192,122889,1,0,0:0:0:0:
320,192,122983,128,0,123358:0:0:0:0:
192,192,122983,1,0,0:0:0:0:
448,192,123076,1,0,0:0:0:0:
192,192,123170,1,0,0:0:0:0:
448,192,123264,1,0,0:0:0:0:
192,192,123358,128,0,123733:0:0:0:0:
64,192,123358,1,0,0:0:0:0:
448,192,123451,1,0,0:0:0:0:
64,192,123545,1,0,0:0:0:0:
320,192,123639,1,0,0:0:0:0:
64,192,123733,128,0,124108:0:0:0:0:
448,192,123733,1,0,0:0:0:0:
320,192,123826,1,0,0:0:0:0:
192,192,123920,1,0,0:0:0:0:
320,192,124014,1,0,0:0:0:0:
448,192,124108,128,0,124483:0:0:0:0:
192,192,124108,1,0,0:0:0:0:
320,192,124201,1,0,0:0:0:0:
64,192,124295,1,0,0:0:0:0:
192,192,124389,1,0,0:0:0:0:
320,192,124483,1,0,0:0:0:0:
64,192,124483,1,0,0:0:0:0:
192,192,124576,1,0,0:0:0:0:
448,192,124670,1,0,0:0:0:0:
320,192,124764,1,0,0:0:0:0:
192,192,124858,1,0,0:0:0:0:
64,192,124858,1,0,0:0:0:0:
448,192,124951,1,0,0:0:0:0:
320,192,125045,1,0,0:0:0:0:
64,192,125139,1,0,0:0:0:0:
192,192,125233,1,0,0:0:0:0:
320,192,125233,1,0,0:0:0:0:
448,192,125233,1,0,0:0:0:0:
64,192,125326,1,0,0:0:0:0:
320,192,125420,1,0,0:0:0:0:
192,192,125514,1,0,0:0:0:0:
64,192,125608,1,0,0:0:0:0:
320,192,125608,1,0,0:0:0:0:
448,192,125608,128,0,126358:0:0:0:0:
192,192,125701,1,0,0:0:0:0:
64,192,125795,1,0,0:0:0:0:
320,192,125889,1,0,0:0:0:0:
192,192,125983,1,0,0:0:0:0:
64,192,125983,1,0,0:0:0:0:
320,192,126076,1,0,0:0:0:0:
192,192,126170,1,0,0:0:0:0:
320,192,126264,1,0,0:0:0:0:
64,192,126358,128,0,127108:0:0:0:0:
192,192,126358,1,0,0:0:0:0:
320,192,126451,1,0,0:0:0:0:
448,192,126545,1,0,0:0:0:0:
192,192,126639,1,0,0:0:0:0:
320,192,126733,1,0,0:0:0:0:
448,192,126733,1,0,0:0:0:0:
192,192,126826,1,0,0:0:0:0:
448,192,126920,1,0,0:0:0:0:
320,192,127014,1,0,0:0:0:0:
192,192,127108,1,0,0:0:0:0:
448,192,127108,1,0,0:0:0:0:
320,192,127201,1,0,0:0:0:0:
64,192,127295,1,0,0:0:0:0:
192,192,127389,1,0,0:0:0:0:
320,192,127483,1,0,0:0:0:0:
448,192,127483,1,0,0:0:0:0:
64,192,127483,1,0,0:0:0:0:
192,192,127576,1,0,0:0:0:0:
448,192,127670,1,0,0:0:0:0:
320,192,127764,1,0,0:0:0:0:
192,192,127858,1,0,0:0:0:0:
64,192,127858,1,0,0:0:0:0:
448,192,127951,1,0,0:0:0:0:
192,192,128045,1,0,0:0:0:0:
320,192,128139,1,0,0:0:0:0:
448,192,128233,1,0,0:0:0:0:
64,192,128233,1,0,0:0:0:0:
192,192,128233,1,0,0:0:0:0:
320,192,128326,1,0,0:0:0:0:
64,192,128420,1,0,0:0:0:0:
192,192,128514,1,0,0:0:0:0:
320,192,128608,1,0,0:0:0:0:
448,192,128608,1,0,0:0:0:0:
64,192,128701,1,0,0:0:0:0:
320,192,128795,1,0,0:0:0:0:
192,192,128889,1,0,0:0:0:0:
64,192,128983,1,0,0:0:0:0:
448,192,128983,1,0,0:0:0:0:
320,192,128983,1,0,0:0:0:0:
192,192,129076,1,0,0:0:0:0:
448,192,129170,1,0,0:0:0:0:
320,192,129264,1,0,0:0:0:0:
192,192,129358,1,0,0:0:0:0:
64,192,129358,1,0,0:0:0:0:
448,192,129451,1,0,0:0:0:0:
192,192,129545,1,0,0:0:0:0:
320,192,129639,1,0,0:0:0:0:
448,192,129733,1,0,0:0:0:0:
64,192,129733,1,0,0:0:0:0:
192,192,129733,1,0,0:0:0:0:
320,192,129826,1,0,0:0:0:0:
448,192,129920,1,0,0:0:0:0:
64,192,130014,1,0,0:0:0:0:
192,192,130014,1,0,0:0:0:0:
320,192,130108,1,0,0:0:0:0:
448,192,130108,1,0,0:0:0:0:
192,192,130201,1,0,0:0:0:0:
64,192,130295,1,0,0:0:0:0:
448,192,130389,1,0,0:0:0:0:
320,192,130483,1,0,0:0:0:0:
192,192,130483,1,0,0:0:0:0:
64,192,130576,1,0,0:0:0:0:
448,192,130670,1,0,0:0:0:0:
320,192,130764,1,0,0:0:0:0:
192,192,130858,1,0,0:0:0:0:
64,192,130858,1,0,0:0:0:0:
448,192,130858,1,0,0:0:0:0:
320,192,130951,1,0,0:0:0:0:
64,192,131045,1,0,0:0:0:0:
192,192,131139,1,0,0:0:0:0:
320,192,131233,1,0,0:0:0:0:
448,192,131233,1,0,0:0:0:0:
64,192,131326,1,0,0:0:0:0:
192,192,131420,1,0,0:0:0:0:
320,192,131514,1,0,0:0:0:0:
448,192,131608,1,0,0:0:0:0:
192,192,131608,1,0,0:0:0:0:
64,192,131608,1,0,0:0:0:0:
192,192,131889,1,0,0:0:0:0:
64,192,131889,1,0,0:0:0:0:
448,192,131889,1,0,0:0:0:0:
320,192,132170,1,0,0:0:0:0:
448,192,132170,1,0,0:0:0:0:
64,192,132170,1,0,0:0:0:0:
192,192,132358,1,0,0:0:0:0:
64,192,132358,1,0,0:0:0:0:
320,192,132358,1,0,0:0:0:0:
448,192,132358,1,0,0:0:0:0:
448,192,132733,1,0,0:0:0:0:
320,192,132779,1,0,0:0:0:0:
192,192,132826,1,0,0:0:0:0:
64,192,132873,1,0,0:0:0:0:
448,192,132920,1,0,0:0:0:0:
320,192,132967,1,0,0:0:0:0:
192,192,133014,1,0,0:0:0:0:
64,192,133061,1,0,0:0:0:0:
448,192,133108,1,0,0:0:0:0:
320,192,133108,1,0,0:0:0:0:
192,192,133108,1,0,0:0:0:0:
64,192,133201,1,0,0:0:0:0:
320,192,133295,1,0,0:0:0:0:
192,192,133389,1,0,0:0:0:0:
64,192,133483,1,0,0:0:0:0:
448,192,133483,1,0,0:0:0:0:
320,192,133576,1,0,0:0:0:0:
64,192,133670,1,0,0:0:0:0:
192,192,133764,1,0,0:0:0:0:
320,192,133858,1,0,0:0:0:0:
448,192,133858,1,0,0:0:0:0:
64,192,133858,1,0,0:0:0:0:
192,192,133951,1,0,0:0:0:0:
448,192,134045,1,0,0:0:0:0:
320,192,134139,1,0,0:0:0:0:
192,192,134233,1,0,0:0:0:0:
64,192,134233,1,0,0:0:0:0:
448,192,134326,1,0,0:0:0:0:
192,192,134420,1,0,0:0:0:0:
320,192,134514,1,0,0:0:0:0:
448,192,134608,1,0,0:0:0:0:
64,192,134608,128,0,134983:0:0:0:0:
192,192,134608,1,0,0:0:0:0:
320,192,134701,1,0,0:0:0:0:
448,192,134795,1,0,0:0:0:0:
320,192,134889,1,0,0:0:0:0:
192,192,134983,128,0,135358:0:0:0:0:
448,192,134983,1,0,0:0:0:0:
64,192,135076,1,0,0:0:0:0:
320,192,135170,1,0,0:0:0:0:
448,192,135264,1,0,0:0:0:0:
320,192,135358,128,0,135733:0:0:0:0:
64,192,135358,1,0,0:0:0:0:
448,192,135451,1,0,0:0:0:0:
192,192,135545,1,0,0:0:0:0:
64,192,135639,1,0,0:0:0:0:
448,192,135733,128,0,136108:0:0:0:0:
192,192,135733,1,0,0:0:0:0:
64,192,135826,1,0,0:0:0:0:
320,192,135920,1,0,0:0:0:0:
192,192,136014,1,0,0:0:0:0:
64,192,136108,128,0,136483:0:0:0:0:
320,192,136108,1,0,0:0:0:0:
448,192,136201,1,0,0:0:0:0:
192,192,136295,1,0,0:0:0:0:
320,192,136389,1,0,0:0:0:0:
448,192,136483,1,0,0:0:0:0:
192,192,136483,1,0,0:0:0:0:
320,192,136576,1,0,0:0:0:0:
192,192,136670,1,0,0:0:0:0:
64,192,136764,1,0,0:0:0:0:
320,192,136858,1,0,0:0:0:0:
448,192,136858,1,0,0:0:0:0:
192,192,136951,1,0,0:0:0:0:
320,192,137045,1,0,0:0:0:0:
448,192,137139,1,0,0:0:0:0:
64,192,137233,1,0,0:0:0:0:
192,192,137233,1,0,0:0:0:0:
320,192,137233,1,0,0:0:0:0:
448,192,137326,1,0,0:0:0:0:
192,192,137420,1,0,0:0:0:0:
320,192,137514,1,0,0:0:0:0:
64,192,137608,128,0,138358:0:0:0:0:
448,192,137608,1,0,0:0:0:0:
192,192,137608,1,0,0:0:0:0:
320,192,137701,1,0,0:0:0:0:
448,192,137795,1,0,0:0:0:0:
192,192,137889,1,0,0:0:0:0:
448,192,137983,1,0,0:0:0:0:
320,192,137983,1,0,0:0:0:0:
192,192,138076,1,0,0:0:0:0:
448,192,138170,1,0,0:0:0:0:
320,192,138264,1,0,0:0:0:0:
448,192,138358,128,0,139108:0:0:0:0:
192,192,138358,1,0,0:0:0:0:
320,192,138451,1,0,0:0:0:0:
64,192,138545,1,0,0:0:0:0:
192,192,138639,1,0,0:0:0:0:
320,192,138733,1,0,0:0:0:0:
64,192,138733,1,0,0:0:0:0:
192,192,138826,1,0,0:0:0:0:
320,192,138920,1,0,0:0:0:0:
64,192,139014,1,0,0:0:0:0:
192,192,139108,1,0,0:0:0:0:
320,192,139108,1,0,0:0:0:0:
64,192,139201,1,0,0:0:0:0:
448,192,139295,1,0,0:0:0:0:
320,192,139389,1,0,0:0:0:0:
192,192,139483,1,0,0:0:0:0:
64,192,139483,1,0,0:0:0:0:
448,192,139483,1,0,0:0:0:0:
320,192,139576,1,0,0:0:0:0:
64,192,139670,1,0,0:0:0:0:
192,192,139764,1,0,0:0:0:0:
320,192,139858,1,0,0:0:0:0:
448,192,139858,1,0,0:0:0:0:
192,192,139951,1,0,0:0:0:0:
320,192,140045,1,0,0:0:0:0:
64,192,140139,1,0,0:0:0:0:
192,192,140233,1,0,0:0:0:0:
448,192,140233,1,0,0:0:0:0:
320,192,140233,1,0,0:0:0:0:
64,192,140326,1,0,0:0:0:0:
320,192,140420,1,0,0:0:0:0:
192,192,140514,1,0,0:0:0:0:
64,192,140608,1,0,0:0:0:0:
448,192,140608,1,0,0:0:0:0:
320,192,140701,1,0,0:0:0:0:
192,192,140795,1,0,0:0:0:0:
448,192,140889,1,0,0:0:0:0:
64,192,140983,1,0,0:0:0:0:
192,192,140983,1,0,0:0:0:0:
320,192,140983,1,0,0:0:0:0:
448,192,141076,1,0,0:0:0:0:
192,192,141170,1,0,0:0:0:0:
320,192,141264,1,0,0:0:0:0:
192,192,141358,1,0,0:0:0:0:
64,192,141358,1,0,0:0:0:0:
448,192,141451,1,0,0:0:0:0:
320,192,141545,1,0,0:0:0:0:
192,192,141639,1,0,0:0:0:0:
64,192,141733,1,0,0:0:0:0:
448,192,141733,1,0,0:0:0:0:
320,192,141733,1,0,0:0:0:0:
192,192,141920,1,0,0:0:0:0:
320,192,142014,1,0,0:0:0:0:
448,192,142014,1,0,0:0:0:0:
64,192,142108,1,0,0:0:0:0:
192,192,142108,1,0,0:0:0:0:
448,192,142108,1,0,0:0:0:0:
320,192,142389,1,0,0:0:0:0:
64,192,142389,1,0,0:0:0:0:
448,192,142389,1,0,0:0:0:0:
192,192,142670,1,0,0:0:0:0:
64,192,142670,1,0,0:0:0:0:
448,192,142670,1,0,0:0:0:0:
320,192,142858,1,0,0:0:0:0:
448,192,142858,1,0,0:0:0:0:
192,192,142858,1,0,0:0:0:0:
64,192,143139,1,0,0:0:0:0:
192,192,143139,1,0,0:0:0:0:
320,192,143139,1,0,0:0:0:0:
192,192,143420,1,0,0:0:0:0:
320,192,143420,1,0,0:0:0:0:
448,192,143420,1,0,0:0:0:0:
320,192,143608,1,0,0:0:0:0:
192,192,143608,1,0,0:0:0:0:
64,192,143608,1,0,0:0:0:0:
448,192,143608,1,0,0:0:0:0:
64,192,145108,1,0,0:0:0:0:
192,192,145108,1,0,0:0:0:0:
448,192,145108,1,0,0:0:0:0:
320,192,145170,1,0,0:0:0:0:
192,192,145233,1,0,0:0:0:0:
64,192,145295,1,0,0:0:0:0:
448,192,145358,1,0,0:0:0:0:
320,192,145420,1,0,0:0:0:0:
192,192,145483,1,0,0:0:0:0:
64,192,145483,128,0,145670:0:0:0:0:
192,192,145670,1,0,0:0:0:0:
320,192,145733,1,0,0:0:0:0:
448,192,145795,1,0,0:0:0:0:
64,192,145858,1,0,0:0:0:0:
192,192,145920,1,0,0:0:0:0:
320,192,145983,1,0,0:0:0:0:
448,192,146045,128,0,146233:0:0:0:0:
64,192,146233,1,0,0:0:0:0:
192,192,146233,1,0,0:0:0:0:
320,192,146295,1,0,0:0:0:0:
192,192,146358,1,0,0:0:0:0:
64,192,146420,1,0,0:0:0:0:
448,192,146483,1,0,0:0:0:0:
320,192,146545,1,0,0:0:0:0:
192,192,146608,1,0,0:0:0:0:
64,192,146608,1,0,0:0:0:0:
448,192,146608,128,0,146795:0:0:0:0:
320,192,146701,1,0,0:0:0:0:
192,192,146795,128,0,146983:0:0:0:0:
64,192,146889,1,0,0:0:0:0:
320,192,146983,128,0,147170:0:0:0:0:
448,192,146983,1,0,0:0:0:0:
192,192,147076,1,0,0:0:0:0:
64,192,147170,128,0,147358:0:0:0:0:
320,192,147264,1,0,0:0:0:0:
448,192,147358,128,0,147545:0:0:0:0:
192,192,147358,1,0,0:0:0:0:
64,192,147451,1,0,0:0:0:0:
320,192,147545,128,0,147733:0:0:0:0:
448,192,147639,1,0,0:0:0:0:
192,192,147733,128,0,147920:0:0:0:0:
64,192,147733,1,0,0:0:0:0:
320,192,147826,1,0,0:0:0:0:
64,192,147920,128,0,148108:0:0:0:0:
320,192,148014,1,0,0:0:0:0:
448,192,148108,128,0,148483:0:0:0:0:
192,192,148108,1,0,0:0:0:0:
320,192,148201,1,0,0:0:0:0:
64,192,148295,1,0,0:0:0:0:
192,192,148389,1,0,0:0:0:0:
320,192,148483,1,0,0:0:0:0:
64,192,148483,1,0,0:0:0:0:
448,192,148576,1,0,0:0:0:0:
192,192,148670,128,0,148858:0:0:0:0:
64,192,148764,1,0,0:0:0:0:
320,192,148858,128,0,149139:0:0:0:0:
448,192,148858,1,0,0:0:0:0:
64,192,148951,1,0,0:0:0:0:
192,192,149045,1,0,0:0:0:0:
64,192,149139,128,0,149420:0:0:0:0:
448,192,149233,1,0,0:0:0:0:
192,192,149233,1,0,0:0:0:0:
320,192,149326,1,0,0:0:0:0:
192,192,149420,128,0,149608:0:0:0:0:
64,192,149514,1,0,0:0:0:0:
448,192,149608,128,0,150733:0:0:0:0:
320,192,149608,1,0,0:0:0:0:
64,192,149701,1,0,0:0:0:0:
192,192,149795,1,0,0:0:0:0:
320,192,149889,1,0,0:0:0:0:
192,192,149983,1,0,0:0:0:0:
64,192,149983,1,0,0:0:0:0:
320,192,150076,1,0,0:0:0:0:
192,192,150170,1,0,0:0:0:0:
320,192,150264,1,0,0:0:0:0:
64,192,150358,128,0,150451:0:0:0:0:
192,192,150451,128,0,150545:0:0:0:0:
320,192,150545,128,0,150639:0:0:0:0:
64,192,150639,128,0,150733:0:0:0:0:
192,192,150733,1,0,0:0:0:0:
320,192,150733,1,0,0:0:0:0:
448,192,150826,1,0,0:0:0:0:
320,192,150920,1,0,0:0:0:0:
192,192,151014,1,0,0:0:0:0:
64,192,151108,128,0,151295:0:0:0:0:
448,192,151108,1,0,0:0:0:0:
192,192,151201,1,0,0:0:0:0:
320,192,151295,128,0,151483:0:0:0:0:
448,192,151389,1,0,0:0:0:0:
192,192,151483,128,0,151670:0:0:0:0:
64,192,151483,1,0,0:0:0:0:
320,192,151576,1,0,0:0:0:0:
64,192,151670,128,0,151858:0:0:0:0:
320,192,151764,1,0,0:0:0:0:
448,192,151858,128,0,152045:0:0:0:0:
192,192,151858,1,0,0:0:0:0:
64,192,151951,1,0,0:0:0:0:
192,192,152045,128,0,152233:0:0:0:0:
320,192,152045,1,0,0:0:0:0:
448,192,152139,1,0,0:0:0:0:
320,192,152233,128,0,152420:0:0:0:0:
64,192,152233,1,0,0:0:0:0:
192,192,152326,1,0,0:0:0:0:
448,192,152420,128,0,152608:0:0:0:0:
64,192,152514,1,0,0:0:0:0:
192,192,152608,1,0,0:0:0:0:
320,192,152608,1,0,0:0:0:0:
64,192,152701,1,0,0:0:0:0:
448,192,152795,1,0,0:0:0:0:
64,192,152889,128,0,153170:0:0:0:0:
320,192,152983,1,0,0:0:0:0:
192,192,152983,1,0,0:0:0:0:
448,192,153076,1,0,0:0:0:0:
320,192,153170,128,0,153358:0:0:0:0:
64,192,153264,1,0,0:0:0:0:
192,192,153358,128,0,153920:0:0:0:0:
448,192,153358,1,0,0:0:0:0:
64,192,153451,1,0,0:0:0:0:
320,192,153545,1,0,0:0:0:0:
448,192,153639,1,0,0:0:0:0:
320,192,153733,1,0,0:0:0:0:
64,192,153733,1,0,0:0:0:0:
448,192,153826,1,0,0:0:0:0:
320,192,153920,1,0,0:0:0:0:
192,192,154014,1,0,0:0:0:0:
64,192,154108,128,0,154295:0:0:0:0:
320,192,154108,128,0,154201:0:0:0:0:
448,192,154108,128,0,154201:0:0:0:0:
192,192,154295,128,0,154483:0:0:0:0:
448,192,154389,1,0,0:0:0:0:
64,192,154389,128,0,154483:0:0:0:0:
320,192,154389,128,0,154483:0:0:0:0:
448,192,154483,128,0,154670:0:0:0:0:
320,192,154670,128,0,154858:0:0:0:0:
192,192,154670,128,0,154764:0:0:0:0:
64,192,154670,128,0,154764:0:0:0:0:
64,192,154858,128,0,155045:0:0:0:0:
192,192,154858,128,0,154951:0:0:0:0:
448,192,154858,128,0,154951:0:0:0:0:
192,192,155045,128,0,155233:0:0:0:0:
448,192,155139,1,0,0:0:0:0:
320,192,155139,128,0,155233:0:0:0:0:
64,192,155139,128,0,155233:0:0:0:0:
448,192,155233,128,0,155420:0:0:0:0:
320,192,155420,128,0,155608:0:0:0:0:
192,192,155420,128,0,155514:0:0:0:0:
64,192,155420,128,0,155514:0:0:0:0:
64,192,155608,128,0,155795:0:0:0:0:
192,192,155608,128,0,155701:0:0:0:0:
448,192,155608,1,0,0:0:0:0:
320,192,157108,1,0,0:0:0:0:
448,192,157108,1,0,0:0:0:0:
64,192,157108,1,0,0:0:0:0:
192,192,157201,1,0,0:0:0:0:
320,192,157295,1,0,0:0:0:0:
448,192,157389,1,0,0:0:0:0:
192,192,157483,1,0,0:0:0:0:
64,192,157576,1,0,0:0:0:0:
320,192,157670,1,0,0:0:0:0:
192,192,157764,1,0,0:0:0:0:
320,192,157858,1,0,0:0:0:0:
448,192,157951,1,0,0:0:0:0:
64,192,158045,1,0,0:0:0:0:
192,192,158139,1,0,0:0:0:0:
320,192,158233,1,0,0:0:0:0:
448,192,158326,1,0,0:0:0:0:
192,192,158420,1,0,0:0:0:0:
64,192,158514,1,0,0:0:0:0:
320,192,158608,1,0,0:0:0:0:
192,192,158701,1,0,0:0:0:0:
448,192,158795,1,0,0:0:0:0:
320,192,158889,1,0,0:0:0:0:
192,192,158983,1,0,0:0:0:0:
320,192,159076,1,0,0:0:0:0:
448,192,159170,1,0,0:0:0:0:
64,192,159264,1,0,0:0:0:0:
320,192,159358,1,0,0:0:0:0:
192,192,159451,1,0,0:0:0:0:
64,192,159545,1,0,0:0:0:0:
320,192,159639,1,0,0:0:0:0:
448,192,159733,1,0,0:0:0:0:
64,192,159826,1,0,0:0:0:0:
192,192,159920,1,0,0:0:0:0:
320,192,160014,1,0,0:0:0:0:
448,192,160108,1,0,0:0:0:0:
192,192,160201,1,0,0:0:0:0:
64,192,160295,1,0,0:0:0:0:
320,192,160389,1,0,0:0:0:0:
448,192,160483,1,0,0:0:0:0:
64,192,160576,1,0,0:0:0:0:
320,192,160670,1,0,0:0:0:0:
192,192,160764,1,0,0:0:0:0:
320,192,160858,1,0,0:0:0:0:
448,192,160951,1,0,0:0:0:0:
192,192,161045,1,0,0:0:0:0:
64,192,161139,1,0,0:0:0:0:
320,192,161233,1,0,0:0:0:0:
192,192,161326,1,0,0:0:0:0:
64,192,161420,1,0,0:0:0:0:
320,192,161514,1,0,0:0:0:0:
448,192,161608,128,0,162358:0:0:0:0:
192,192,161608,1,0,0:0:0:0:
64,192,161701,1,0,0:0:0:0:
192,192,161795,1,0,0:0:0:0:
320,192,161889,1,0,0:0:0:0:
64,192,161983,1,0,0:0:0:0:
320,192,162076,1,0,0:0:0:0:
192,192,162170,1,0,0:0:0:0:
320,192,162264,1,0,0:0:0:0:
64,192,162358,128,0,163108:0:0:0:0:
192,192,162358,1,0,0:0:0:0:
320,192,162451,1,0,0:0:0:0:
448,192,162545,1,0,0:0:0:0:
192,192,162639,1,0,0:0:0:0:
320,192,162733,1,0,0:0:0:0:
448,192,162826,1,0,0:0:0:0:
320,192,162920,1,0,0:0:0:0:
192,192,163014,1,0,0:0:0:0:
448,192,163108,1,0,0:0:0:0:
320,192,163108,1,0,0:0:0:0:
192,192,163201,1,0,0:0:0:0:
64,192,163295,1,0,0:0:0:0:
320,192,163389,1,0,0:0:0:0:
448,192,163483,1,0,0:0:0:0:
192,192,163483,1,0,0:0:0:0:
64,192,163483,1,0,0:0:0:0:
320,192,163576,1,0,0:0:0:0:
64,192,163670,1,0,0:0:0:0:
192,192,163764,1,0,0:0:0:0:
64,192,163858,1,0,0:0:0:0:
192,192,163858,1,0,0:0:0:0:
320,192,163858,1,0,0:0:0:0:
448,192,163858,1,0,0:0:0:0:
448,192,163951,1,0,0:0:0:0:
320,192,164045,1,0,0:0:0:0:
192,192,164139,1,0,0:0:0:0:
64,192,164233,1,0,0:0:0:0:
320,192,164233,1,0,0:0:0:0:
448,192,164233,1,0,0:0:0:0:
192,192,164326,1,0,0:0:0:0:
448,192,164420,1,0,0:0:0:0:
64,192,164514,1,0,0:0:0:0:
192,192,164608,1,0,0:0:0:0:
320,192,164608,1,0,0:0:0:0:
448,192,164608,1,0,0:0:0:0:
64,192,164608,1,0,0:0:0:0:
320,192,164701,1,0,0:0:0:0:
192,192,164795,1,0,0:0:0:0:
64,192,164889,1,0,0:0:0:0:
448,192,164983,1,0,0:0:0:0:
320,192,164983,1,0,0:0:0:0:
192,192,164983,1,0,0:0:0:0:
64,192,165076,1,0,0:0:0:0:
320,192,165170,1,0,0:0:0:0:
448,192,165264,1,0,0:0:0:0:
448,192,165358,1,0,0:0:0:0:
320,192,165358,1,0,0:0:0:0:
192,192,165358,1,0,0:0:0:0:
64,192,165358,1,0,0:0:0:0:
192,192,165451,1,0,0:0:0:0:
64,192,165545,1,0,0:0:0:0:
320,192,165639,1,0,0:0:0:0:
448,192,165733,1,0,0:0:0:0:
192,192,165733,1,0,0:0:0:0:
64,192,165733,1,0,0:0:0:0:
320,192,165826,1,0,0:0:0:0:
448,192,165920,1,0,0:0:0:0:
192,192,166014,1,0,0:0:0:0:
64,192,166014,1,0,0:0:0:0:
320,192,166108,1,0,0:0:0:0:
448,192,166108,1,0,0:0:0:0:
192,192,166108,1,0,0:0:0:0:
64,192,166108,1,0,0:0:0:0:
320,192,166201,1,0,0:0:0:0:
192,192,166295,1,0,0:0:0:0:
64,192,166389,1,0,0:0:0:0:
448,192,166483,1,0,0:0:0:0:
320,192,166483,1,0,0:0:0:0:
192,192,166483,1,0,0:0:0:0:
64,192,166576,1,0,0:0:0:0:
320,192,166670,1,0,0:0:0:0:
448,192,166764,1,0,0:0:0:0:
448,192,166858,1,0,0:0:0:0:
320,192,166858,1,0,0:0:0:0:
192,192,166858,1,0,0:0:0:0:
64,192,166858,1,0,0:0:0:0:
192,192,166951,1,0,0:0:0:0:
64,192,167045,1,0,0:0:0:0:
320,192,167139,1,0,0:0:0:0:
448,192,167233,1,0,0:0:0:0:
192,192,167233,1,0,0:0:0:0:
64,192,167233,1,0,0:0:0:0:
320,192,167326,1,0,0:0:0:0:
192,192,167420,1,0,0:0:0:0:
64,192,167514,1,0,0:0:0:0:
448,192,167608,1,0,0:0:0:0:
320,192,167608,1,0,0:0:0:0:
64,192,167608,1,0,0:0:0:0:
192,192,167608,1,0,0:0:0:0:
448,192,167889,1,0,0:0:0:0:
320,192,167889,1,0,0:0:0:0:
192,192,167889,1,0,0:0:0:0:
64,192,167889,1,0,0:0:0:0:
64,192,168170,1,0,0:0:0:0:
192,192,168170,1,0,0:0:0:0:
320,192,168170,1,0,0:0:0:0:
448,192,168170,1,0,0:0:0:0:
448,192,168358,1,0,0:0:0:0:
320,192,168358,1,0,0:0:0:0:
64,192,168358,1,0,0:0:0:0:
192,192,168358,1,0,0:0:0:0:
64,192,168733,1,0,0:0:0:0:
192,192,168779,1,0,0:0:0:0:
448,192,168826,1,0,0:0:0:0:
320,192,168873,1,0,0:0:0:0:
64,192,168920,1,0,0:0:0:0:
192,192,168967,1,0,0:0:0:0:
448,192,169014,1,0,0:0:0:0:
320,192,169061,1,0,0:0:0:0:
64,192,169108,1,0,0:0:0:0:
192,192,169108,1,0,0:0:0:0:
448,192,169108,1,0,0:0:0:0:
320,192,169201,1,0,0:0:0:0:
192,192,169295,1,0,0:0:0:0:
64,192,169295,1,0,0:0:0:0:
320,192,169389,1,0,0:0:0:0:
448,192,169483,1,0,0:0:0:0:
64,192,169483,1,0,0:0:0:0:
192,192,169576,1,0,0:0:0:0:
448,192,169670,1,0,0:0:0:0:
64,192,169670,1,0,0:0:0:0:
320,192,169764,1,0,0:0:0:0:
192,192,169858,1,0,0:0:0:0:
448,192,169858,1,0,0:0:0:0:
320,192,169951,1,0,0:0:0:0:
64,192,170045,1,0,0:0:0:0:
448,192,170045,1,0,0:0:0:0:
192,192,170139,1,0,0:0:0:0:
320,192,170233,1,0,0:0:0:0:
448,192,170233,1,0,0:0:0:0:
64,192,170326,1,0,0:0:0:0:
320,192,170420,1,0,0:0:0:0:
448,192,170420,1,0,0:0:0:0:
192,192,170514,1,0,0:0:0:0:
64,192,170608,1,0,0:0:0:0:
448,192,170608,128,0,170983:0:0:0:0:
320,192,170701,1,0,0:0:0:0:
64,192,170795,1,0,0:0:0:0:
192,192,170889,1,0,0:0:0:0:
320,192,170983,128,0,171358:0:0:0:0:
64,192,170983,1,0,0:0:0:0:
448,192,171076,1,0,0:0:0:0:
192,192,171170,1,0,0:0:0:0:
64,192,171264,1,0,0:0:0:0:
192,192,171358,128,0,171733:0:0:0:0:
448,192,171358,1,0,0:0:0:0:
64,192,171451,1,0,0:0:0:0:
320,192,171545,1,0,0:0:0:0:
448,192,171639,1,0,0:0:0:0:
64,192,171733,128,0,172108:0:0:0:0:
320,192,171733,1,0,0:0:0:0:
448,192,171826,1,0,0:0:0:0:
192,192,171920,1,0,0:0:0:0:
320,192,172014,1,0,0:0:0:0:
448,192,172108,128,0,172483:0:0:0:0:
192,192,172108,1,0,0:0:0:0:
64,192,172201,1,0,0:0:0:0:
320,192,172295,1,0,0:0:0:0:
192,192,172389,1,0,0:0:0:0:
64,192,172483,1,0,0:0:0:0:
320,192,172483,1,0,0:0:0:0:
192,192,172576,1,0,0:0:0:0:
320,192,172670,1,0,0:0:0:0:
64,192,172670,1,0,0:0:0:0:
448,192,172764,1,0,0:0:0:0:
192,192,172858,1,0,0:0:0:0:
64,192,172858,1,0,0:0:0:0:
320,192,172951,1,0,0:0:0:0:
192,192,173045,1,0,0:0:0:0:
448,192,173045,1,0,0:0:0:0:
64,192,173139,1,0,0:0:0:0:
448,192,173233,1,0,0:0:0:0:
320,192,173233,1,0,0:0:0:0:
64,192,173326,1,0,0:0:0:0:
320,192,173420,1,0,0:0:0:0:
192,192,173420,1,0,0:0:0:0:
64,192,173514,1,0,0:0:0:0:
448,192,173608,128,0,174358:0:0:0:0:
320,192,173608,1,0,0:0:0:0:
192,192,173701,1,0,0:0:0:0:
64,192,173795,1,0,0:0:0:0:
320,192,173889,1,0,0:0:0:0:
64,192,173983,1,0,0:0:0:0:
192,192,173983,1,0,0:0:0:0:
320,192,174076,1,0,0:0:0:0:
64,192,174170,1,0,0:0:0:0:
192,192,174264,1,0,0:0:0:0:
64,192,174358,128,0,175108:0:0:0:0:
320,192,174358,1,0,0:0:0:0:
192,192,174451,1,0,0:0:0:0:
448,192,174545,1,0,0:0:0:0:
320,192,174639,1,0,0:0:0:0:
192,192,174733,1,0,0:0:0:0:
448,192,174733,1,0,0:0:0:0:
320,192,174826,1,0,0:0:0:0:
192,192,174920,1,0,0:0:0:0:
448,192,175014,1,0,0:0:0:0:
320,192,175108,1,0,0:0:0:0:
192,192,175108,1,0,0:0:0:0:
448,192,175201,1,0,0:0:0:0:
64,192,175295,1,0,0:0:0:0:
320,192,175295,1,0,0:0:0:0:
192,192,175389,1,0,0:0:0:0:
320,192,175483,1,0,0:0:0:0:
448,192,175483,1,0,0:0:0:0:
192,192,175576,1,0,0:0:0:0:
448,192,175670,1,0,0:0:0:0:
64,192,175670,1,0,0:0:0:0:
320,192,175764,1,0,0:0:0:0:
192,192,175858,1,0,0:0:0:0:
64,192,175858,1,0,0:0:0:0:
320,192,175951,1,0,0:0:0:0:
192,192,176045,1,0,0:0:0:0:
64,192,176045,1,0,0:0:0:0:
448,192,176139,1,0,0:0:0:0:
320,192,176233,1,0,0:0:0:0:
192,192,176233,1,0,0:0:0:0:
64,192,176326,1,0,0:0:0:0:
192,192,176420,1,0,0:0:0:0:
448,192,176420,1,0,0:0:0:0:
320,192,176514,1,0,0:0:0:0:
448,192,176608,1,0,0:0:0:0:
64,192,176608,1,0,0:0:0:0:
192,192,176701,1,0,0:0:0:0:
320,192,176795,1,0,0:0:0:0:
448,192,176795,1,0,0:0:0:0:
64,192,176889,1,0,0:0:0:0:
448,192,176983,1,0,0:0:0:0:
192,192,176983,1,0,0:0:0:0:
320,192,177076,1,0,0:0:0:0:
192,192,177170,1,0,0:0:0:0:
64,192,177170,1,0,0:0:0:0:
448,192,177264,1,0,0:0:0:0:
320,192,177358,1,0,0:0:0:0:
192,192,177358,1,0,0:0:0:0:
64,192,177451,1,0,0:0:0:0:
192,192,177545,1,0,0:0:0:0:
448,192,177545,1,0,0:0:0:0:
320,192,177639,1,0,0:0:0:0:
448,192,177733,1,0,0:0:0:0:
64,192,177733,1,0,0:0:0:0:
192,192,177733,1,0,0:0:0:0:
320,192,177920,1,0,0:0:0:0:
192,192,178014,1,0,0:0:0:0:
64,192,178014,1,0,0:0:0:0:
448,192,178108,1,0,0:0:0:0:
320,192,178108,1,0,0:0:0:0:
64,192,178108,1,0,0:0:0:0:
192,192,178389,1,0,0:0:0:0:
448,192,178389,1,0,0:0:0:0:
64,192,178389,1,0,0:0:0:0:
320,192,178389,1,0,0:0:0:0:
320,192,178670,1,0,0:0:0:0:
448,192,178670,1,0,0:0:0:0:
64,192,178670,1,0,0:0:0:0:
192,192,178670,1,0,0:0:0:0:
192,192,178858,1,0,0:0:0:0:
64,192,178858,1,0,0:0:0:0:
320,192,178858,1,0,0:0:0:0:
448,192,178858,1,0,0:0:0:0:
448,192,179139,1,0,0:0:0:0:
320,192,179139,1,0,0:0:0:0:
192,192,179139,1,0,0:0:0:0:
64,192,179139,1,0,0:0:0:0:
320,192,179420,1,0,0:0:0:0:
192,192,179420,1,0,0:0:0:0:
64,192,179420,1,0,0:0:0:0:
448,192,179420,1,0,0:0:0:0:
192,192,179608,1,0,0:0:0:0:
320,192,179608,1,0,0:0:0:0:
448,192,179608,1,0,0:0:0:0:
64,192,179608,1,0,0:0:0:0:
64,192,181108,1,0,0:0:0:0:
448,192,181108,1,0,0:0:0:0:
320,192,181108,1,0,0:0:0:0:
192,192,181201,1,0,0:0:0:0:
64,192,181295,1,0,0:0:0:0:
448,192,181295,1,0,0:0:0:0:
320,192,181389,1,0,0:0:0:0:
448,192,181483,1,0,0:0:0:0:
192,192,181483,1,0,0:0:0:0:
64,192,181576,1,0,0:0:0:0:
320,192,181670,1,0,0:0:0:0:
192,192,181670,1,0,0:0:0:0:
448,192,181764,1,0,0:0:0:0:
64,192,181858,1,0,0:0:0:0:
192,192,181858,1,0,0:0:0:0:
320,192,181858,1,0,0:0:0:0:
448,192,181951,1,0,0:0:0:0:
192,192,182045,1,0,0:0:0:0:
320,192,182045,1,0,0:0:0:0:
64,192,182139,1,0,0:0:0:0:
448,192,182233,1,0,0:0:0:0:
320,192,182233,1,0,0:0:0:0:
192,192,182326,1,0,0:0:0:0:
64,192,182420,1,0,0:0:0:0:
448,192,182420,1,0,0:0:0:0:
320,192,182514,1,0,0:0:0:0:
448,192,182608,1,0,0:0:0:0:
64,192,182608,128,0,182983:0:0:0:0:
320,192,182701,1,0,0:0:0:0:
192,192,182795,1,0,0:0:0:0:
448,192,182795,1,0,0:0:0:0:
320,192,182889,1,0,0:0:0:0:
192,192,182983,128,0,183358:0:0:0:0:
448,192,182983,1,0,0:0:0:0:
64,192,183076,1,0,0:0:0:0:
320,192,183170,1,0,0:0:0:0:
448,192,183170,1,0,0:0:0:0:
64,192,183264,1,0,0:0:0:0:
320,192,183358,128,0,183733:0:0:0:0:
448,192,183358,1,0,0:0:0:0:
64,192,183451,1,0,0:0:0:0:
448,192,183545,1,0,0:0:0:0:
192,192,183545,1,0,0:0:0:0:
64,192,183639,1,0,0:0:0:0:
448,192,183733,128,0,184108:0:0:0:0:
192,192,183733,1,0,0:0:0:0:
320,192,183826,1,0,0:0:0:0:
192,192,183920,1,0,0:0:0:0:
64,192,183920,1,0,0:0:0:0:
320,192,184014,1,0,0:0:0:0:
64,192,184108,128,0,184483:0:0:0:0:
192,192,184108,1,0,0:0:0:0:
320,192,184201,1,0,0:0:0:0:
448,192,184295,1,0,0:0:0:0:
192,192,184295,1,0,0:0:0:0:
320,192,184389,1,0,0:0:0:0:
192,192,184483,1,0,0:0:0:0:
448,192,184483,1,0,0:0:0:0:
320,192,184576,1,0,0:0:0:0:
64,192,184670,1,0,0:0:0:0:
448,192,184670,1,0,0:0:0:0:
192,192,184764,1,0,0:0:0:0:
320,192,184858,1,0,0:0:0:0:
448,192,184858,1,0,0:0:0:0:
64,192,184951,1,0,0:0:0:0:
192,192,185045,1,0,0:0:0:0:
320,192,185045,1,0,0:0:0:0:
448,192,185139,1,0,0:0:0:0:
320,192,185233,1,0,0:0:0:0:
192,192,185233,1,0,0:0:0:0:
64,192,185233,1,0,0:0:0:0:
448,192,185326,1,0,0:0:0:0:
192,192,185420,1,0,0:0:0:0:
64,192,185420,1,0,0:0:0:0:
320,192,185514,1,0,0:0:0:0:
448,192,185608,1,0,0:0:0:0:
192,192,185608,1,0,0:0:0:0:
64,192,185608,128,0,186358:0:0:0:0:
320,192,185701,1,0,0:0:0:0:
448,192,185795,1,0,0:0:0:0:
192,192,185795,1,0,0:0:0:0:
320,192,185889,1,0,0:0:0:0:
448,192,185983,1,0,0:0:0:0:
192,192,185983,1,0,0:0:0:0:
320,192,186076,1,0,0:0:0:0:
448,192,186170,1,0,0:0:0:0:
192,192,186170,1,0,0:0:0:0:
320,192,186264,1,0,0:0:0:0:
448,192,186358,128,0,187108:0:0:0:0:
192,192,186358,1,0,0:0:0:0:
320,192,186451,1,0,0:0:0:0:
64,192,186545,1,0,0:0:0:0:
192,192,186545,1,0,0:0:0:0:
320,192,186639,1,0,0:0:0:0:
192,192,186733,1,0,0:0:0:0:
64,192,186733,1,0,0:0:0:0:
320,192,186826,1,0,0:0:0:0:
64,192,186920,1,0,0:0:0:0:
192,192,186920,1,0,0:0:0:0:
320,192,187014,1,0,0:0:0:0:
64,192,187108,1,0,0:0:0:0:
192,192,187108,1,0,0:0:0:0:
320,192,187201,1,0,0:0:0:0:
448,192,187295,1,0,0:0:0:0:
64,192,187295,1,0,0:0:0:0:
320,192,187389,1,0,0:0:0:0:
192,192,187483,1,0,0:0:0:0:
64,192,187483,1,0,0:0:0:0:
448,192,187483,1,0,0:0:0:0:
320,192,187576,1,0,0:0:0:0:
64,192,187670,1,0,0:0:0:0:
448,192,187670,1,0,0:0:0:0:
192,192,187764,1,0,0:0:0:0:
320,192,187858,1,0,0:0:0:0:
448,192,187858,1,0,0:0:0:0:
64,192,187951,1,0,0:0:0:0:
320,192,188045,1,0,0:0:0:0:
448,192,188045,1,0,0:0:0:0:
192,192,188139,1,0,0:0:0:0:
64,192,188233,1,0,0:0:0:0:
448,192,188233,1,0,0:0:0:0:
320,192,188233,1,0,0:0:0:0:
192,192,188326,1,0,0:0:0:0:
448,192,188420,1,0,0:0:0:0:
64,192,188420,1,0,0:0:0:0:
320,192,188514,1,0,0:0:0:0:
192,192,188608,1,0,0:0:0:0:
64,192,188608,1,0,0:0:0:0:
448,192,188701,1,0,0:0:0:0:
192,192,188795,1,0,0:0:0:0:
64,192,188795,1,0,0:0:0:0:
320,192,188889,1,0,0:0:0:0:
448,192,188983,1,0,0:0:0:0:
64,192,188983,1,0,0:0:0:0:
192,192,188983,1,0,0:0:0:0:
320,192,189076,1,0,0:0:0:0:
64,192,189170,1,0,0:0:0:0:
448,192,189170,1,0,0:0:0:0:
192,192,189264,1,0,0:0:0:0:
320,192,189358,1,0,0:0:0:0:
448,192,189358,1,0,0:0:0:0:
64,192,189451,1,0,0:0:0:0:
320,192,189545,1,0,0:0:0:0:
448,192,189545,1,0,0:0:0:0:
192,192,189639,1,0,0:0:0:0:
64,192,189733,1,0,0:0:0:0:
448,192,189733,1,0,0:0:0:0:
320,192,189733,1,0,0:0:0:0:
192,192,189826,1,0,0:0:0:0:
64,192,189920,1,0,0:0:0:0:
448,192,189920,1,0,0:0:0:0:
320,192,190014,1,0,0:0:0:0:
192,192,190014,1,0,0:0:0:0:
64,192,190108,1,0,0:0:0:0:
448,192,190108,1,0,0:0:0:0:
320,192,190201,1,0,0:0:0:0:
448,192,190295,1,0,0:0:0:0:
192,192,190295,1,0,0:0:0:0:
64,192,190389,1,0,0:0:0:0:
192,192,190483,1,0,0:0:0:0:
320,192,190483,1,0,0:0:0:0:
448,192,190576,1,0,0:0:0:0:
64,192,190670,1,0,0:0:0:0:
320,192,190670,1,0,0:0:0:0:
192,192,190764,1,0,0:0:0:0:
320,192,190858,1,0,0:0:0:0:
448,192,190858,1,0,0:0:0:0:
64,192,190858,1,0,0:0:0:0:
192,192,190951,1,0,0:0:0:0:
448,192,191045,1,0,0:0:0:0:
64,192,191045,1,0,0:0:0:0:
320,192,191139,1,0,0:0:0:0:
192,192,191233,1,0,0:0:0:0:
64,192,191233,1,0,0:0:0:0:
448,192,191326,1,0,0:0:0:0:
320,192,191420,1,0,0:0:0:0:
64,192,191420,1,0,0:0:0:0:
192,192,191514,1,0,0:0:0:0:
64,192,191608,1,0,0:0:0:0:
320,192,191608,1,0,0:0:0:0:
448,192,191608,1,0,0:0:0:0:
192,192,191608,1,0,0:0:0:0:
320,192,191889,1,0,0:0:0:0:
448,192,191889,1,0,0:0:0:0:
64,192,191889,1,0,0:0:0:0:
192,192,191889,1,0,0:0:0:0:
192,192,192170,1,0,0:0:0:0:
64,192,192170,1,0,0:0:0:0:
448,192,192170,1,0,0:0:0:0:
320,192,192170,1,0,0:0:0:0:
320,192,192358,1,0,0:0:0:0:
448,192,192358,1,0,0:0:0:0:
192,192,192358,1,0,0:0:0:0:
64,192,192358,1,0,0:0:0:0:
448,192,192733,1,0,0:0:0:0:
320,192,192779,1,0,0:0:0:0:
64,192,192826,1,0,0:0:0:0:
192,192,192873,1,0,0:0:0:0:
448,192,192920,1,0,0:0:0:0:
320,192,192967,1,0,0:0:0:0:
64,192,193014,1,0,0:0:0:0:
192,192,193061,1,0,0:0:0:0:
64,192,193108,1,0,0:0:0:0:
448,192,193108,1,0,0:0:0:0:
320,192,193108,1,0,0:0:0:0:
192,192,193201,1,0,0:0:0:0:
448,192,193295,1,0,0:0:0:0:
64,192,193295,1,0,0:0:0:0:
320,192,193389,1,0,0:0:0:0:
448,192,193483,1,0,0:0:0:0:
64,192,193483,1,0,0:0:0:0:
192,192,193576,1,0,0:0:0:0:
448,192,193670,1,0,0:0:0:0:
64,192,193670,1,0,0:0:0:0:
320,192,193764,1,0,0:0:0:0:
192,192,193858,1,0,0:0:0:0:
64,192,193858,1,0,0:0:0:0:
448,192,193858,1,0,0:0:0:0:
320,192,193951,1,0,0:0:0:0:
64,192,194045,1,0,0:0:0:0:
448,192,194045,1,0,0:0:0:0:
192,192,194139,1,0,0:0:0:0:
320,192,194233,1,0,0:0:0:0:
448,192,194233,1,0,0:0:0:0:
64,192,194326,1,0,0:0:0:0:
320,192,194420,1,0,0:0:0:0:
448,192,194420,1,0,0:0:0:0:
192,192,194514,1,0,0:0:0:0:
64,192,194608,1,0,0:0:0:0:
448,192,194608,128,0,194983:0:0:0:0:
320,192,194608,1,0,0:0:0:0:
192,192,194701,1,0,0:0:0:0:
64,192,194795,1,0,0:0:0:0:
320,192,194795,1,0,0:0:0:0:
192,192,194889,1,0,0:0:0:0:
320,192,194983,128,0,195358:0:0:0:0:
64,192,194983,1,0,0:0:0:0:
448,192,195076,1,0,0:0:0:0:
192,192,195170,1,0,0:0:0:0:
64,192,195170,1,0,0:0:0:0:
448,192,195264,1,0,0:0:0:0:
192,192,195358,128,0,195733:0:0:0:0:
64,192,195358,1,0,0:0:0:0:
448,192,195451,1,0,0:0:0:0:
320,192,195545,1,0,0:0:0:0:
64,192,195545,1,0,0:0:0:0:
448,192,195639,1,0,0:0:0:0:
64,192,195733,128,0,196108:0:0:0:0:
320,192,195733,1,0,0:0:0:0:
192,192,195826,1,0,0:0:0:0:
448,192,195920,1,0,0:0:0:0:
320,192,195920,1,0,0:0:0:0:
192,192,196014,1,0,0:0:0:0:
448,192,196108,128,0,196483:0:0:0:0:
320,192,196108,1,0,0:0:0:0:
192,192,196201,1,0,0:0:0:0:
320,192,196295,1,0,0:0:0:0:
64,192,196295,1,0,0:0:0:0:
192,192,196389,1,0,0:0:0:0:
64,192,196483,1,0,0:0:0:0:
320,192,196483,1,0,0:0:0:0:
192,192,196576,1,0,0:0:0:0:
320,192,196670,1,0,0:0:0:0:
64,192,196670,1,0,0:0:0:0:
448,192,196764,1,0,0:0:0:0:
192,192,196858,1,0,0:0:0:0:
64,192,196858,1,0,0:0:0:0:
320,192,196951,1,0,0:0:0:0:
192,192,197045,1,0,0:0:0:0:
448,192,197045,1,0,0:0:0:0:
64,192,197139,1,0,0:0:0:0:
448,192,197233,1,0,0:0:0:0:
320,192,197233,1,0,0:0:0:0:
192,192,197233,1,0,0:0:0:0:
64,192,197326,1,0,0:0:0:0:
320,192,197420,1,0,0:0:0:0:
448,192,197420,1,0,0:0:0:0:
192,192,197514,1,0,0:0:0:0:
448,192,197608,128,0,198358:0:0:0:0:
64,192,197608,1,0,0:0:0:0:
320,192,197608,1,0,0:0:0:0:
192,192,197701,1,0,0:0:0:0:
64,192,197795,1,0,0:0:0:0:
320,192,197795,1,0,0:0:0:0:
192,192,197889,1,0,0:0:0:0:
64,192,197983,1,0,0:0:0:0:
320,192,197983,1,0,0:0:0:0:
192,192,198076,1,0,0:0:0:0:
64,192,198170,1,0,0:0:0:0:
320,192,198170,1,0,0:0:0:0:
192,192,198264,1,0,0:0:0:0:
64,192,198358,128,0,199108:0:0:0:0:
320,192,198358,1,0,0:0:0:0:
192,192,198451,1,0,0:0:0:0:
448,192,198545,1,0,0:0:0:0:
320,192,198545,1,0,0:0:0:0:
192,192,198639,1,0,0:0:0:0:
448,192,198733,1,0,0:0:0:0:
320,192,198733,1,0,0:0:0:0:
192,192,198826,1,0,0:0:0:0:
320,192,198920,1,0,0:0:0:0:
448,192,198920,1,0,0:0:0:0:
192,192,199014,1,0,0:0:0:0:
448,192,199108,1,0,0:0:0:0:
320,192,199108,1,0,0:0:0:0:
192,192,199201,1,0,0:0:0:0:
64,192,199295,1,0,0:0:0:0:
448,192,199295,1,0,0:0:0:0:
192,192,199389,1,0,0:0:0:0:
320,192,199483,1,0,0:0:0:0:
448,192,199483,1,0,0:0:0:0:
64,192,199483,1,0,0:0:0:0:
192,192,199576,1,0,0:0:0:0:
448,192,199670,1,0,0:0:0:0:
64,192,199670,1,0,0:0:0:0:
320,192,199764,1,0,0:0:0:0:
192,192,199858,1,0,0:0:0:0:
64,192,199858,1,0,0:0:0:0:
320,192,199951,1,0,0:0:0:0:
192,192,200045,1,0,0:0:0:0:
64,192,200045,1,0,0:0:0:0:
448,192,200139,1,0,0:0:0:0:
320,192,200233,1,0,0:0:0:0:
64,192,200233,1,0,0:0:0:0:
192,192,200233,1,0,0:0:0:0:
448,192,200326,1,0,0:0:0:0:
192,192,200420,1,0,0:0:0:0:
64,192,200420,1,0,0:0:0:0:
320,192,200514,1,0,0:0:0:0:
448,192,200608,1,0,0:0:0:0:
64,192,200608,1,0,0:0:0:0:
192,192,200701,1,0,0:0:0:0:
320,192,200795,1,0,0:0:0:0:
448,192,200795,1,0,0:0:0:0:
64,192,200889,1,0,0:0:0:0:
448,192,200983,1,0,0:0:0:0:
320,192,200983,1,0,0:0:0:0:
192,192,200983,1,0,0:0:0:0:
64,192,201076,1,0,0:0:0:0:
320,192,201170,1,0,0:0:0:0:
448,192,201170,1,0,0:0:0:0:
192,192,201264,1,0,0:0:0:0:
320,192,201358,1,0,0:0:0:0:
448,192,201358,1,0,0:0:0:0:
64,192,201451,1,0,0:0:0:0:
192,192,201545,1,0,0:0:0:0:
448,192,201545,1,0,0:0:0:0:
320,192,201639,1,0,0:0:0:0:
448,192,201733,1,0,0:0:0:0:
64,192,201733,1,0,0:0:0:0:
192,192,201733,1,0,0:0:0:0:
320,192,201920,1,0,0:0:0:0:
448,192,201920,1,0,0:0:0:0:
192,192,202014,1,0,0:0:0:0:
64,192,202014,1,0,0:0:0:0:
448,192,202108,1,0,0:0:0:0:
320,192,202108,1,0,0:0:0:0:
64,192,202108,1,0,0:0:0:0:
192,192,202108,1,0,0:0:0:0:
192,192,202389,1,0,0:0:0:0:
448,192,202389,1,0,0:0:0:0:
64,192,202389,1,0,0:0:0:0:
320,192,202389,1,0,0:0:0:0:
320,192,202670,1,0,0:0:0:0:
448,192,202670,1,0,0:0:0:0:
64,192,202670,1,0,0:0:0:0:
192,192,202670,1,0,0:0:0:0:
192,192,202858,1,0,0:0:0:0:
64,192,202858,1,0,0:0:0:0:
320,192,202858,1,0,0:0:0:0:
448,192,202858,1,0,0:0:0:0:
448,192,203139,1,0,0:0:0:0:
320,192,203139,1,0,0:0:0:0:
192,192,203139,1,0,0:0:0:0:
64,192,203139,1,0,0:0:0:0:
320,192,203420,1,0,0:0:0:0:
192,192,203420,1,0,0:0:0:0:
64,192,203420,1,0,0:0:0:0:
448,192,203420,1,0,0:0:0:0:
192,192,203608,1,0,0:0:0:0:
320,192,203608,1,0,0:0:0:0:
448,192,203608,1,0,0:0:0:0:
64,192,203608,1,0,0:0:0:0:
448,192,205108,128,0,205483:0:0:0:0:
64,192,205108,128,0,205670:0:0:0:0:
320,192,205108,128,0,205295:0:0:0:0:
192,192,205295,128,0,205858:0:0:0:0:
320,192,205483,128,0,206045:0:0:0:0:
448,192,205670,128,0,206233:0:0:0:0:
64,192,205858,128,0,206514:0:0:0:0:
192,192,206045,128,0,206608:0:0:0:0:
320,192,206233,128,0,206608:0:0:0:0:
448,192,206420,128,0,206608:0:0:0:0:
64,192,206608,1,0,0:0:0:0:
