osu file format v14

[General]
AudioFilename: audio.mp3
AudioLeadIn: 0
PreviewTime: 81728
Countdown: 0
SampleSet: Soft
StackLeniency: 0.7
Mode: 3
LetterboxInBreaks: 0
SpecialStyle: 0
WidescreenStoryboard: 1

[Editor]
DistanceSpacing: 0.8
BeatDivisor: 4
GridSize: 32
TimelineZoom: 1.6

[Metadata]
Title:Kegarenaki Euphoria (Cut Ver.)
TitleUnicode:穢れなきユーフォリア (Cut Ver.)
Artist:senya
ArtistUnicode:senya
Creator:Draftnell
Version:Normal
Source:東方鬼形獣 ~ Wily Beast and Weakest Creature.
Tags:ZUN Team Shanghai Alice 2hu touhou project 東方Project第17弾 Volume Vol. 17 Yuuhei Satellite 幽閉サテライト se-kon × Iceon Xceon 偶像に世界を委ねて ~Idoratrize World Entrust the World to Idols stage 6 boss theme 例大祭 Reitaisai 6 26thシングル「穢れなきユーフォリア」26th single "Unholy Euphoria neiro Keiki Haniyasushin 埴安神 袿姫 cut short version electronic japanese FAMoss YHST-0121 j-pop jpop pop j-rock jrock rock
BeatmapID:2323359
BeatmapSetID:1112025

[Difficulty]
HPDrainRate:7
CircleSize:4
OverallDifficulty:7
ApproachRate:5
SliderMultiplier:1.4
SliderTickRate:1

[Events]
//Background and Video events
0,0,"BG.jpg",0,0
//Break Periods
//Storyboard Layer 0 (Background)
//Storyboard Layer 1 (Fail)
//Storyboard Layer 2 (Pass)
//Storyboard Layer 3 (Foreground)
//Storyboard Layer 4 (Overlay)
//Storyboard Sound Samples

[TimingPoints]
1478,375,4,2,2,40,1,0
6915,-100,4,2,1,60,0,0
81353,-100,4,2,1,40,0,0
82478,-100,4,2,1,60,0,1
106478,-100,4,2,1,60,0,0
108353,-100,4,2,1,60,0,1
131978,-100,4,2,1,60,0,0
134603,-100,4,2,2,40,0,0
136478,449.438202247191,4,2,2,40,1,0
136478,-83.3333333333333,4,2,2,40,0,0
137376,530.973451327434,4,2,2,40,1,0
137376,-70.4225352112676,4,2,2,40,0,0
138570,465.116279069767,4,2,2,40,1,0
138570,-80.6451612903226,4,2,2,40,0,0
139965,483.870967741935,4,2,2,40,1,0
139965,-77.5193798449612,4,2,2,40,0,0
140327,434.782608695652,4,2,2,40,1,0
140327,-86.2068965517241,4,2,2,40,0,0
140544,342.857142857143,4,2,2,40,1,0
140544,-109.89010989011,4,2,2,40,0,0
140715,487.80487804878,4,2,2,40,1,0
140715,-76.9230769230769,4,2,2,40,0,0
140836,594.059405940594,4,2,2,40,1,0
140836,-63.2911392405063,4,2,2,40,0,0
140984,560.747663551402,4,2,2,40,1,0
140984,-66.6666666666667,4,2,2,40,0,0
141124,571.428571428571,4,2,2,40,1,0
141124,-65.7894736842105,4,2,2,40,0,0
141266,428.571428571429,4,2,2,40,1,0
141266,-87.719298245614,4,2,2,40,0,0
141373,410.958904109589,4,2,2,40,1,0
141373,-90.9090909090909,4,2,2,40,0,0
141681,571.428571428571,4,2,2,40,1,0
141681,-65.7894736842105,4,2,2,40,0,0
142109,600,4,2,2,40,1,0
142109,-62.5,4,2,2,40,0,0
143609,571.428571428571,4,2,2,40,1,0
143609,-65.7894736842105,4,2,2,40,0,0

[HitObjects]
192,192,1478,5,0,0:0:0:0:
448,192,2040,1,0,0:0:0:0:
64,192,2415,1,0,0:0:0:0:
192,192,2603,1,0,0:0:0:0:
320,192,2790,1,0,0:0:0:0:
64,192,2978,1,0,0:0:0:0:
448,192,2978,1,0,0:0:0:0:
64,192,3728,1,0,0:0:0:0:
192,192,3728,1,0,0:0:0:0:
64,192,4478,1,0,0:0:0:0:
448,192,4478,1,0,0:0:0:0:
320,192,5040,1,0,0:0:0:0:
192,192,5603,1,0,0:0:0:0:
448,192,5978,1,0,0:0:0:0:
64,192,6728,128,0,7478:0:0:0:0:
192,192,7103,128,8,7478:0:0:0:0:
448,192,7478,1,6,0:0:0:0:
320,192,7665,1,0,0:0:0:0:
320,192,8040,1,0,0:0:0:0:
320,192,8415,1,0,0:0:0:0:
320,192,8790,1,0,0:0:0:0:
64,192,8978,1,4,0:0:0:0:
448,192,8978,1,2,0:0:0:0:
192,192,9165,1,0,0:0:0:0:
192,192,9540,1,0,0:0:0:0:
192,192,9915,1,0,0:0:0:0:
192,192,10290,1,0,0:0:0:0:
320,192,10478,1,4,0:0:0:0:
448,192,10478,1,2,0:0:0:0:
64,192,10665,1,6,0:0:0:0:
192,192,10946,1,6,0:0:0:0:
448,192,11228,1,6,0:0:0:0:
64,192,11415,1,8,0:0:0:0:
320,192,11696,1,8,0:0:0:0:
192,192,11978,128,6,12353:0:0:0:0:
64,192,12353,128,6,12728:0:0:0:0:
192,192,12728,128,6,13103:0:0:0:0:
320,192,13103,128,6,13478:0:0:0:0:
64,192,13478,1,2,0:0:0:0:
448,192,13478,128,4,15915:0:0:0:0:
192,192,13853,1,8,0:0:0:0:
320,192,14228,1,2,0:0:0:0:
64,192,14603,1,8,0:0:0:0:
320,192,14978,1,2,0:0:0:0:
192,192,15353,1,8,0:0:0:0:
320,192,15728,1,2,0:0:0:0:
64,192,15915,1,0,0:0:0:0:
320,192,16103,1,8,0:0:0:0:
192,192,16290,1,0,0:0:0:0:
320,192,16478,128,2,19103:0:0:0:0:
448,192,16478,1,0,0:0:0:0:
192,192,16853,1,8,0:0:0:0:
64,192,17228,1,2,0:0:0:0:
192,192,17603,1,8,0:0:0:0:
448,192,17978,1,2,0:0:0:0:
192,192,18353,1,8,0:0:0:0:
448,192,18728,1,2,0:0:0:0:
64,192,19103,1,8,0:0:0:0:
448,192,19290,1,2,0:0:0:0:
64,192,19478,1,4,0:0:0:0:
192,192,19478,128,2,22103:0:0:0:0:
320,192,19853,1,8,0:0:0:0:
64,192,20228,1,2,0:0:0:0:
448,192,20603,1,8,0:0:0:0:
64,192,20978,1,2,0:0:0:0:
320,192,21353,1,8,0:0:0:0:
64,192,21728,1,2,0:0:0:0:
448,192,22103,1,8,0:0:0:0:
320,192,22290,1,0,0:0:0:0:
64,192,22478,128,2,23603:0:0:0:0:
192,192,22478,1,0,0:0:0:0:
448,192,22853,1,8,0:0:0:0:
192,192,23228,1,2,0:0:0:0:
320,192,23603,128,8,23978:0:0:0:0:
448,192,23603,1,0,0:0:0:0:
64,192,23978,1,2,0:0:0:0:
192,192,23978,128,0,25103:0:0:0:0:
448,192,24353,1,8,0:0:0:0:
64,192,24728,1,2,0:0:0:0:
320,192,25103,1,2,0:0:0:0:
448,192,25103,128,0,25478:0:0:0:0:
64,192,25478,128,2,26978:0:0:0:0:
192,192,25478,1,4,0:0:0:0:
448,192,25853,1,8,0:0:0:0:
192,192,26228,1,2,0:0:0:0:
320,192,26603,1,8,0:0:0:0:
192,192,26978,1,2,0:0:0:0:
448,192,26978,128,0,27728:0:0:0:0:
320,192,27353,1,8,0:0:0:0:
64,192,27728,1,2,0:0:0:0:
320,192,27728,128,0,28478:0:0:0:0:
192,192,28103,1,8,0:0:0:0:
192,192,28478,128,2,30728:0:0:0:0:
448,192,28478,1,0,0:0:0:0:
64,192,28853,1,8,0:0:0:0:
448,192,29228,1,2,0:0:0:0:
320,192,29603,1,8,0:0:0:0:
448,192,29978,1,2,0:0:0:0:
64,192,30353,1,8,0:0:0:0:
320,192,30728,1,2,0:0:0:0:
448,192,30915,1,0,0:0:0:0:
64,192,31103,1,8,0:0:0:0:
192,192,31290,1,2,0:0:0:0:
320,192,31478,1,4,0:0:0:0:
448,192,31478,128,2,32978:0:0:0:0:
64,192,31853,1,8,0:0:0:0:
320,192,32228,1,2,0:0:0:0:
192,192,32603,1,8,0:0:0:0:
64,192,32978,128,2,33728:0:0:0:0:
320,192,32978,1,0,0:0:0:0:
192,192,33353,1,8,0:0:0:0:
320,192,33728,128,2,34478:0:0:0:0:
448,192,33728,1,0,0:0:0:0:
64,192,34103,1,8,0:0:0:0:
192,192,34478,128,2,35228:0:0:0:0:
448,192,34478,1,0,0:0:0:0:
64,192,34853,1,8,0:0:0:0:
320,192,35228,1,2,0:0:0:0:
448,192,35228,128,0,35978:0:0:0:0:
64,192,35603,1,8,0:0:0:0:
64,192,35978,128,2,36728:0:0:0:0:
192,192,35978,1,0,0:0:0:0:
320,192,36353,1,2,0:0:0:0:
192,192,36728,128,2,37478:0:0:0:0:
448,192,36728,1,0,0:0:0:0:
64,192,37103,1,2,0:0:0:0:
320,192,37478,1,2,0:0:0:0:
448,192,37478,1,4,0:0:0:0:
64,192,37853,1,8,0:0:0:0:
192,192,37853,1,4,0:0:0:0:
320,192,38228,1,2,0:0:0:0:
448,192,38228,1,4,0:0:0:0:
192,192,38509,1,2,0:0:0:0:
320,192,38509,1,4,0:0:0:0:
64,192,38790,1,8,0:0:0:0:
448,192,38790,1,4,0:0:0:0:
192,192,39071,1,2,0:0:0:0:
320,192,39071,1,4,0:0:0:0:
64,192,39353,1,8,0:0:0:0:
448,192,39353,1,4,0:0:0:0:
320,192,39728,128,2,40478:0:0:0:0:
64,192,40478,1,2,0:0:0:0:
192,192,40478,1,4,0:0:0:0:
320,192,40853,1,8,0:0:0:0:
448,192,40853,1,4,0:0:0:0:
192,192,41228,1,2,0:0:0:0:
320,192,41228,1,4,0:0:0:0:
64,192,41509,1,2,0:0:0:0:
192,192,41509,1,4,0:0:0:0:
320,192,41790,1,2,0:0:0:0:
448,192,41790,1,4,0:0:0:0:
64,192,42071,1,4,0:0:0:0:
448,192,42071,1,2,0:0:0:0:
192,192,42353,1,2,0:0:0:0:
320,192,42353,1,4,0:0:0:0:
448,192,42728,128,2,43478:0:0:0:0:
64,192,43478,1,2,0:0:0:0:
192,192,43478,1,4,0:0:0:0:
192,192,43853,1,8,0:0:0:0:
320,192,43853,1,0,0:0:0:0:
448,192,44228,1,2,0:0:0:0:
64,192,44603,1,8,0:0:0:0:
192,192,44603,1,0,0:0:0:0:
320,192,44978,1,2,0:0:0:0:
64,192,45353,1,8,0:0:0:0:
448,192,45353,1,0,0:0:0:0:
192,192,45728,1,2,0:0:0:0:
320,192,46103,1,8,0:0:0:0:
448,192,46103,1,0,0:0:0:0:
64,192,46478,1,2,0:0:0:0:
192,192,46853,1,8,0:0:0:0:
320,192,46853,1,0,0:0:0:0:
448,192,47228,1,2,0:0:0:0:
64,192,47603,1,8,0:0:0:0:
192,192,47603,1,0,0:0:0:0:
320,192,47978,1,2,0:0:0:0:
192,192,48353,1,8,0:0:0:0:
448,192,48353,1,0,0:0:0:0:
64,192,48728,1,2,0:0:0:0:
320,192,49103,1,8,0:0:0:0:
448,192,49103,1,0,0:0:0:0:
192,192,49478,1,2,0:0:0:0:
320,192,49478,1,4,0:0:0:0:
64,192,49853,1,8,0:0:0:0:
448,192,49853,1,0,0:0:0:0:
320,192,50228,1,2,0:0:0:0:
64,192,50603,128,8,50978:0:0:0:0:
192,192,50603,1,0,0:0:0:0:
320,192,50978,1,2,0:0:0:0:
448,192,50978,128,0,51728:0:0:0:0:
192,192,51353,1,8,0:0:0:0:
64,192,51728,1,2,0:0:0:0:
320,192,51728,128,0,52103:0:0:0:0:
192,192,52103,128,8,52478:0:0:0:0:
448,192,52103,1,0,0:0:0:0:
64,192,52478,128,2,53228:0:0:0:0:
320,192,52478,1,0,0:0:0:0:
448,192,52853,1,8,0:0:0:0:
192,192,53228,1,2,0:0:0:0:
448,192,53415,1,0,0:0:0:0:
320,192,53603,1,8,0:0:0:0:
192,192,53790,1,2,0:0:0:0:
64,192,53978,1,2,0:0:0:0:
448,192,53978,1,4,0:0:0:0:
192,192,54353,1,8,0:0:0:0:
320,192,54540,1,6,0:0:0:0:
448,192,54915,1,2,0:0:0:0:
64,192,55103,128,6,55478:0:0:0:0:
192,192,55478,1,2,0:0:0:0:
320,192,55478,1,4,0:0:0:0:
64,192,55853,1,8,0:0:0:0:
448,192,55853,1,0,0:0:0:0:
320,192,56228,1,2,0:0:0:0:
192,192,56603,1,8,0:0:0:0:
448,192,56603,1,0,0:0:0:0:
64,192,56978,1,2,0:0:0:0:
320,192,57353,1,8,0:0:0:0:
448,192,57353,1,0,0:0:0:0:
192,192,57728,1,2,0:0:0:0:
64,192,58103,1,8,0:0:0:0:
448,192,58103,1,0,0:0:0:0:
320,192,58478,1,2,0:0:0:0:
64,192,58853,1,8,0:0:0:0:
192,192,58853,1,0,0:0:0:0:
448,192,59228,1,2,0:0:0:0:
192,192,59603,1,8,0:0:0:0:
320,192,59603,1,0,0:0:0:0:
64,192,59978,1,2,0:0:0:0:
192,192,60353,1,8,0:0:0:0:
448,192,60353,1,0,0:0:0:0:
320,192,60728,1,2,0:0:0:0:
448,192,61103,128,8,61478:0:0:0:0:
64,192,61478,1,6,0:0:0:0:
192,192,61853,1,8,0:0:0:0:
320,192,61853,1,0,0:0:0:0:
64,192,62228,128,2,62978:0:0:0:0:
448,192,62228,1,0,0:0:0:0:
192,192,62603,1,8,0:0:0:0:
320,192,62978,1,2,0:0:0:0:
448,192,62978,128,0,63728:0:0:0:0:
64,192,63353,1,8,0:0:0:0:
192,192,63728,128,2,64478:0:0:0:0:
320,192,63728,1,0,0:0:0:0:
64,192,64103,1,8,0:0:0:0:
448,192,64478,1,6,0:0:0:0:
64,192,64665,1,2,0:0:0:0:
320,192,64946,1,2,0:0:0:0:
192,192,65228,1,6,0:0:0:0:
448,192,65509,1,2,0:0:0:0:
64,192,65790,1,2,0:0:0:0:
320,192,65978,128,6,66353:0:0:0:0:
64,192,66353,128,2,66728:0:0:0:0:
192,192,66353,1,0,0:0:0:0:
448,192,66728,128,6,67103:0:0:0:0:
192,192,67103,128,4,67478:0:0:0:0:
320,192,67103,1,2,0:0:0:0:
64,192,67478,1,2,0:0:0:0:
448,192,67478,1,4,0:0:0:0:
192,192,67853,1,8,0:0:0:0:
320,192,67853,1,0,0:0:0:0:
64,192,68228,1,2,0:0:0:0:
192,192,68509,1,0,0:0:0:0:
320,192,68790,1,0,0:0:0:0:
64,192,68978,128,2,69353:0:0:0:0:
448,192,68978,1,4,0:0:0:0:
192,192,69353,1,8,0:0:0:0:
320,192,69353,128,4,69728:0:0:0:0:
64,192,69728,1,2,0:0:0:0:
192,192,69728,128,4,70103:0:0:0:0:
320,192,70103,1,4,0:0:0:0:
448,192,70103,1,2,0:0:0:0:
64,192,70478,1,2,0:0:0:0:
448,192,70478,1,4,0:0:0:0:
192,192,70853,1,8,0:0:0:0:
320,192,70853,1,0,0:0:0:0:
448,192,71228,1,2,0:0:0:0:
320,192,71509,1,0,0:0:0:0:
192,192,71790,1,0,0:0:0:0:
64,192,71978,1,2,0:0:0:0:
448,192,71978,128,4,72353:0:0:0:0:
192,192,72353,128,8,72728:0:0:0:0:
320,192,72353,1,4,0:0:0:0:
320,192,72728,128,2,73103:0:0:0:0:
448,192,72728,1,4,0:0:0:0:
64,192,73103,1,4,0:0:0:0:
192,192,73103,1,2,0:0:0:0:
64,192,73478,1,2,0:0:0:0:
448,192,73478,1,4,0:0:0:0:
192,192,73853,1,8,0:0:0:0:
320,192,73853,1,0,0:0:0:0:
64,192,74228,1,2,0:0:0:0:
320,192,74509,1,0,0:0:0:0:
192,192,74790,1,0,0:0:0:0:
320,192,74978,1,2,0:0:0:0:
448,192,74978,128,4,75353:0:0:0:0:
64,192,75353,128,8,75728:0:0:0:0:
192,192,75353,1,4,0:0:0:0:
320,192,75728,128,2,76103:0:0:0:0:
448,192,75728,1,4,0:0:0:0:
64,192,76103,1,4,0:0:0:0:
192,192,76103,1,2,0:0:0:0:
320,192,76478,1,2,0:0:0:0:
448,192,76478,1,4,0:0:0:0:
64,192,76853,1,8,0:0:0:0:
448,192,76853,1,0,0:0:0:0:
192,192,77228,1,2,0:0:0:0:
320,192,77509,1,0,0:0:0:0:
64,192,77790,1,2,0:0:0:0:
448,192,78165,1,2,0:0:0:0:
320,192,78353,1,0,0:0:0:0:
192,192,78540,1,8,0:0:0:0:
64,192,78728,128,6,79103:0:0:0:0:
192,192,79103,128,6,79478:0:0:0:0:
320,192,79478,1,2,0:0:0:0:
448,192,79478,128,4,80978:0:0:0:0:
64,192,79665,1,2,0:0:0:0:
320,192,80040,1,2,0:0:0:0:
64,192,80415,1,2,0:0:0:0:
192,192,80790,1,2,0:0:0:0:
64,192,80978,128,2,81728:0:0:0:0:
320,192,80978,1,4,0:0:0:0:
320,192,81353,1,8,0:0:0:0:
192,192,81728,128,8,82103:0:0:0:0:
448,192,81728,1,0,0:0:0:0:
64,192,82103,1,8,0:0:0:0:
320,192,82103,128,0,82478:0:0:0:0:
192,192,82478,1,2,0:0:0:0:
448,192,82478,128,4,83978:0:0:0:0:
64,192,82853,1,8,0:0:0:0:
64,192,83040,1,0,0:0:0:0:
320,192,83415,1,0,0:0:0:0:
64,192,83603,1,8,0:0:0:0:
192,192,83790,1,0,0:0:0:0:
64,192,83978,128,2,85478:0:0:0:0:
320,192,83978,1,0,0:0:0:0:
448,192,84353,1,8,0:0:0:0:
448,192,84540,1,0,0:0:0:0:
192,192,84915,1,0,0:0:0:0:
320,192,85103,1,8,0:0:0:0:
448,192,85290,1,0,0:0:0:0:
192,192,85478,1,2,0:0:0:0:
320,192,85478,128,0,86978:0:0:0:0:
64,192,85853,1,8,0:0:0:0:
64,192,86040,1,0,0:0:0:0:
448,192,86415,1,0,0:0:0:0:
64,192,86603,1,8,0:0:0:0:
192,192,86790,1,0,0:0:0:0:
448,192,86978,128,2,87353:0:0:0:0:
64,192,87353,1,8,0:0:0:0:
192,192,87353,1,0,0:0:0:0:
448,192,87728,1,2,0:0:0:0:
320,192,88103,1,8,0:0:0:0:
192,192,88290,1,8,0:0:0:0:
64,192,88478,128,2,89978:0:0:0:0:
448,192,88478,1,4,0:0:0:0:
320,192,88853,1,8,0:0:0:0:
320,192,89040,1,0,0:0:0:0:
192,192,89415,1,0,0:0:0:0:
448,192,89603,1,8,0:0:0:0:
320,192,89790,1,0,0:0:0:0:
192,192,89978,1,2,0:0:0:0:
448,192,89978,128,0,91478:0:0:0:0:
320,192,90353,1,8,0:0:0:0:
64,192,90540,1,0,0:0:0:0:
192,192,90915,1,0,0:0:0:0:
64,192,91103,1,8,0:0:0:0:
320,192,91290,1,0,0:0:0:0:
64,192,91478,1,2,0:0:0:0:
192,192,91478,128,0,92978:0:0:0:0:
320,192,91759,1,0,0:0:0:0:
448,192,92040,1,0,0:0:0:0:
64,192,92415,1,0,0:0:0:0:
448,192,92603,1,8,0:0:0:0:
320,192,92790,1,2,0:0:0:0:
64,192,92978,128,2,93728:0:0:0:0:
448,192,92978,1,4,0:0:0:0:
320,192,93353,1,2,0:0:0:0:
192,192,93728,1,2,0:0:0:0:
448,192,93728,128,0,94478:0:0:0:0:
64,192,94103,1,2,0:0:0:0:
192,192,94290,1,2,0:0:0:0:
64,192,94478,128,2,95978:0:0:0:0:
320,192,94478,1,4,0:0:0:0:
192,192,94853,1,8,0:0:0:0:
192,192,95040,1,0,0:0:0:0:
320,192,95415,1,0,0:0:0:0:
448,192,95603,1,8,0:0:0:0:
192,192,95790,1,0,0:0:0:0:
320,192,95978,128,2,97103:0:0:0:0:
448,192,95978,1,0,0:0:0:0:
64,192,96353,1,8,0:0:0:0:
64,192,96540,1,0,0:0:0:0:
448,192,96915,1,0,0:0:0:0:
64,192,97103,1,8,0:0:0:0:
192,192,97103,1,0,0:0:0:0:
320,192,97290,1,0,0:0:0:0:
192,192,97478,128,2,98978:0:0:0:0:
448,192,97478,1,0,0:0:0:0:
320,192,97853,1,8,0:0:0:0:
320,192,98040,1,0,0:0:0:0:
64,192,98415,1,0,0:0:0:0:
448,192,98603,1,8,0:0:0:0:
320,192,98790,1,0,0:0:0:0:
64,192,98978,128,2,99353:0:0:0:0:
320,192,99353,1,8,0:0:0:0:
448,192,99353,1,0,0:0:0:0:
64,192,99728,1,2,0:0:0:0:
448,192,99915,1,0,0:0:0:0:
192,192,100103,1,8,0:0:0:0:
320,192,100290,1,8,0:0:0:0:
64,192,100478,1,2,0:0:0:0:
448,192,100478,128,4,101978:0:0:0:0:
192,192,100853,1,8,0:0:0:0:
192,192,101040,1,0,0:0:0:0:
320,192,101415,1,0,0:0:0:0:
64,192,101603,1,8,0:0:0:0:
192,192,101790,1,0,0:0:0:0:
64,192,101978,128,2,102728:0:0:0:0:
320,192,101978,1,0,0:0:0:0:
192,192,102353,1,8,0:0:0:0:
320,192,102540,1,0,0:0:0:0:
448,192,102728,1,2,0:0:0:0:
192,192,103009,1,0,0:0:0:0:
448,192,103290,1,8,0:0:0:0:
64,192,103478,1,6,0:0:0:0:
320,192,103665,1,6,0:0:0:0:
192,192,103946,1,6,0:0:0:0:
448,192,104228,1,6,0:0:0:0:
64,192,104415,1,8,0:0:0:0:
192,192,104696,1,8,0:0:0:0:
448,192,104978,128,6,105353:0:0:0:0:
320,192,105353,128,6,105728:0:0:0:0:
192,192,105728,128,6,106103:0:0:0:0:
64,192,106103,128,6,106478:0:0:0:0:
320,192,106478,1,2,0:0:0:0:
448,192,106478,1,4,0:0:0:0:
64,192,106853,1,8,0:0:0:0:
448,192,106853,1,0,0:0:0:0:
320,192,107228,128,8,107603:0:0:0:0:
192,192,107603,128,8,107978:0:0:0:0:
448,192,107978,1,2,0:0:0:0:
64,192,108353,128,8,109478:0:0:0:0:
320,192,108353,1,4,0:0:0:0:
320,192,108540,1,0,0:0:0:0:
192,192,108915,1,0,0:0:0:0:
448,192,109103,1,8,0:0:0:0:
320,192,109290,1,0,0:0:0:0:
192,192,109478,1,2,0:0:0:0:
448,192,109478,128,0,110978:0:0:0:0:
64,192,109853,1,8,0:0:0:0:
64,192,110040,1,0,0:0:0:0:
320,192,110415,1,0,0:0:0:0:
192,192,110603,1,8,0:0:0:0:
64,192,110790,1,0,0:0:0:0:
192,192,110978,128,2,112478:0:0:0:0:
320,192,110978,1,0,0:0:0:0:
448,192,111353,1,8,0:0:0:0:
448,192,111540,1,0,0:0:0:0:
64,192,111915,1,0,0:0:0:0:
448,192,112103,1,8,0:0:0:0:
320,192,112290,1,0,0:0:0:0:
64,192,112478,128,2,112853:0:0:0:0:
448,192,112478,1,0,0:0:0:0:
192,192,112853,1,8,0:0:0:0:
320,192,112853,1,0,0:0:0:0:
448,192,113228,1,2,0:0:0:0:
192,192,113603,1,8,0:0:0:0:
320,192,113790,1,8,0:0:0:0:
64,192,113978,1,2,0:0:0:0:
448,192,113978,128,4,115478:0:0:0:0:
192,192,114353,1,8,0:0:0:0:
192,192,114540,1,0,0:0:0:0:
64,192,114915,1,0,0:0:0:0:
320,192,115103,1,8,0:0:0:0:
192,192,115290,1,0,0:0:0:0:
64,192,115478,128,2,116978:0:0:0:0:
320,192,115478,1,0,0:0:0:0:
448,192,115759,1,0,0:0:0:0:
320,192,116040,1,0,0:0:0:0:
192,192,116415,1,0,0:0:0:0:
320,192,116603,1,8,0:0:0:0:
448,192,116790,1,0,0:0:0:0:
192,192,116978,1,2,0:0:0:0:
320,192,116978,128,0,118478:0:0:0:0:
64,192,117353,1,8,0:0:0:0:
192,192,117634,1,0,0:0:0:0:
448,192,117915,1,0,0:0:0:0:
64,192,118103,1,8,0:0:0:0:
448,192,118290,1,8,0:0:0:0:
64,192,118478,1,4,0:0:0:0:
192,192,118478,128,2,119228:0:0:0:0:
448,192,118853,1,2,0:0:0:0:
320,192,119228,1,2,0:0:0:0:
448,192,119228,128,0,119978:0:0:0:0:
64,192,119603,1,2,0:0:0:0:
192,192,119790,1,2,0:0:0:0:
64,192,119978,128,4,121478:0:0:0:0:
320,192,119978,1,2,0:0:0:0:
448,192,120353,1,8,0:0:0:0:
448,192,120540,1,0,0:0:0:0:
320,192,120915,1,0,0:0:0:0:
448,192,121103,1,8,0:0:0:0:
192,192,121290,1,0,0:0:0:0:
320,192,121478,128,2,122228:0:0:0:0:
448,192,121478,1,0,0:0:0:0:
64,192,121853,1,8,0:0:0:0:
64,192,122040,1,0,0:0:0:0:
192,192,122228,1,2,0:0:0:0:
448,192,122228,128,0,122603:0:0:0:0:
64,192,122603,128,8,122978:0:0:0:0:
320,192,122603,1,0,0:0:0:0:
320,192,122978,128,2,124478:0:0:0:0:
448,192,122978,1,0,0:0:0:0:
64,192,123353,1,8,0:0:0:0:
64,192,123540,1,0,0:0:0:0:
448,192,123915,1,0,0:0:0:0:
64,192,124103,1,8,0:0:0:0:
192,192,124290,1,0,0:0:0:0:
64,192,124478,128,2,124853:0:0:0:0:
448,192,124478,1,0,0:0:0:0:
192,192,124853,1,8,0:0:0:0:
448,192,124853,1,0,0:0:0:0:
64,192,125228,1,2,0:0:0:0:
320,192,125415,1,0,0:0:0:0:
192,192,125603,1,8,0:0:0:0:
320,192,125790,1,8,0:0:0:0:
64,192,125978,128,2,127478:0:0:0:0:
448,192,125978,1,4,0:0:0:0:
320,192,126353,1,8,0:0:0:0:
320,192,126540,1,0,0:0:0:0:
192,192,126915,1,0,0:0:0:0:
448,192,127103,1,8,0:0:0:0:
320,192,127290,1,0,0:0:0:0:
192,192,127478,1,2,0:0:0:0:
448,192,127478,128,0,128978:0:0:0:0:
320,192,127853,1,8,0:0:0:0:
192,192,128040,1,0,0:0:0:0:
64,192,128228,1,2,0:0:0:0:
192,192,128603,1,8,0:0:0:0:
320,192,128978,1,6,0:0:0:0:
64,192,129165,1,6,0:0:0:0:
192,192,129446,1,6,0:0:0:0:
448,192,129728,1,6,0:0:0:0:
64,192,129915,1,8,0:0:0:0:
320,192,130196,1,8,0:0:0:0:
64,192,130478,128,6,130853:0:0:0:0:
448,192,130853,128,6,131228:0:0:0:0:
192,192,131228,128,6,131603:0:0:0:0:
320,192,131603,128,6,131978:0:0:0:0:
64,192,131978,128,2,134603:0:0:0:0:
448,192,131978,1,4,0:0:0:0:
192,192,134603,1,0,0:0:0:0:
320,192,134790,1,0,0:0:0:0:
448,192,134978,1,0,0:0:0:0:
64,192,135353,1,0,0:0:0:0:
64,192,135540,1,0,0:0:0:0:
320,192,135915,1,0,0:0:0:0:
448,192,136103,1,0,0:0:0:0:
320,192,136290,1,0,0:0:0:0:
192,192,136478,1,0,0:0:0:0:
64,192,136927,1,0,0:0:0:0:
448,192,137376,1,0,0:0:0:0:
320,192,137906,1,0,0:0:0:0:
192,192,138172,1,0,0:0:0:0:
64,192,138437,128,0,142109:0:0:0:0:
64,192,143609,1,0,0:0:0:0:
448,192,143609,128,0,149894:0:0:0:0:
