osu file format v14

[General]
AudioFilename: lilywhite.mp3
AudioLeadIn: 0
PreviewTime: 193900
Countdown: 0
SampleSet: Soft
StackLeniency: 0.7
Mode: 0
LetterboxInBreaks: 0
WidescreenStoryboard: 0

[Editor]
Bookmarks: 29435,56864,84293,111721,125435,139150,221435,248864
DistanceSpacing: 0.6
BeatDivisor: 4
GridSize: 32
TimelineZoom: 1.6

[Metadata]
Title:Kasou no Kimi no Miyako
TitleUnicode:仮想の君の都
Artist:senya
ArtistUnicode:senya
Creator:Satellite
Version:Imagination
Source:東方Project
Tags:touhou
BeatmapID:2556047
BeatmapSetID:1229359

[Difficulty]
HPDrainRate:8
CircleSize:4
OverallDifficulty:8
ApproachRate:8
SliderMultiplier:1.4
SliderTickRate:1

[Events]
//Background and Video events
0,0,"bgg.jpg",0,0
//Break Periods
2,125621,137957
//Storyboard Layer 0 (Background)
//Storyboard Layer 1 (Fail)
//Storyboard Layer 2 (Pass)
//Storyboard Layer 3 (Foreground)
//Storyboard Layer 4 (Overlay)
//Storyboard Sound Samples

[TimingPoints]
279,428.571428571429,4,2,1,70,1,0

[HitObjects]
257,217,28993,5,2,0:0:0:0:
94,162,29207,1,2,0:0:0:0:
168,248,29421,6,0,L|176:107,1,140,4|8,0:0|0:0,0:0:0:0:
94,162,30064,1,0,0:0:0:0:
257,217,30279,2,0,L|261:144,1,70
168,248,30707,1,8,0:0:0:0:
242,311,30921,1,0,0:0:0:0:
335,280,31136,6,0,P|353:245|322:142,2,140,4|8|0,0:0|0:0|0:0,0:0:0:0:
235,125,32207,1,0,0:0:0:0:
235,125,32314,1,0,0:0:0:0:
235,125,32421,2,0,P|249:87|275:63,1,70,8|0,0:0|0:0,0:0:0:0:
257,217,32850,6,0,B|181:231|193:182|122:196,1,140,4|8,0:0|0:0,0:0:0:0:
47,261,33493,1,0,0:0:0:0:
98,347,33707,2,0,P|124:324|140:293,1,70,4|0,0:0|0:0,0:0:0:0:
66,109,34136,2,0,P|39:132|24:163,1,70,8|0,0:0|0:0,0:0:0:0:
98,347,34564,6,0,L|207:353,1,105,4|0,0:0|0:0,0:0:0:0:
243,324,34993,2,0,L|248:245,1,70,8|0,0:0|0:0,0:0:0:0:
249,229,35314,1,0,0:0:0:0:
250,204,35421,1,0,0:0:0:0:
151,264,35636,1,0,0:0:0:0:
349,353,35850,2,0,P|353:318|348:284,1,70,8|0,0:0|0:0,0:0:0:0:
321,60,36279,6,0,P|301:127|301:197,1,140,4|8,0:0|0:0,0:0:0:0:
347,283,36921,1,0,0:0:0:0:
210,242,37136,2,0,P|204:203|202:168,1,70
224,77,37564,1,8,0:0:0:0:
110,213,37779,1,0,0:0:0:0:
88,86,37993,6,0,B|161:105|153:55|223:76,1,140,4|8,0:0|0:0,0:0:0:0:
368,200,38636,2,0,P|311:202|259:270,1,140
347,283,39279,1,8,0:0:0:0:
257,145,39493,1,0,0:0:0:0:
164,207,39707,6,0,P|151:245|152:281,1,70,4|0,0:0|0:0,0:0:0:0:
200,359,40136,1,8,0:0:0:0:
347,283,40350,1,0,0:0:0:0:
347,283,40457,1,0,0:0:0:0:
347,283,40564,2,0,P|307:271|270:271,1,70
95,219,40993,2,0,P|129:216|163:206,1,70,8|0,0:0|0:0,0:0:0:0:
183,193,41314,1,0,0:0:0:0:
197,173,41421,5,4,0:0:0:0:
223,78,41636,2,0,L|220:43,2,35,0|0|8,0:0|0:0|0:0,0:0:0:0:
293,145,42064,2,0,L|290:179,2,35
130,105,42493,5,2,0:0:0:0:
293,145,42707,1,10,0:0:0:0:
223,78,42921,1,2,0:0:0:0:
270,240,43136,5,4,0:0:0:0:
386,118,43350,1,0,0:0:0:0:
386,118,43457,1,0,0:0:0:0:
386,118,43564,1,8,0:0:0:0:
198,174,43779,1,0,0:0:0:0:
369,218,43993,1,8,0:0:0:0:
223,78,44207,5,0,0:0:0:0:
270,240,44421,1,8,0:0:0:0:
293,145,44636,1,0,0:0:0:0:
178,275,44850,5,4,0:0:0:0:
341,315,45064,1,0,0:0:0:0:
341,315,45171,1,0,0:0:0:0:
341,315,45279,1,8,0:0:0:0:
293,145,45493,1,0,0:0:0:0:
270,240,45707,1,8,0:0:0:0:
369,218,45921,5,0,0:0:0:0:
198,174,46136,1,8,0:0:0:0:
270,240,46350,1,0,0:0:0:0:
223,78,46564,5,4,0:0:0:0:
102,202,46779,1,0,0:0:0:0:
102,202,46886,1,0,0:0:0:0:
102,202,46993,1,8,0:0:0:0:
147,5,47207,1,0,0:0:0:0:
178,275,47421,1,8,0:0:0:0:
293,145,47636,5,0,0:0:0:0:
125,104,47850,1,8,0:0:0:0:
270,240,48064,1,0,0:0:0:0:
223,78,48279,5,4,0:0:0:0:
178,275,48493,1,0,0:0:0:0:
178,275,48600,1,0,0:0:0:0:
178,275,48707,1,8,0:0:0:0:
293,145,48921,1,0,0:0:0:0:
102,202,49136,1,8,0:0:0:0:
255,341,49350,5,0,0:0:0:0:
197,174,49564,1,8,0:0:0:0:
178,275,49779,1,0,0:0:0:0:
355,322,49993,5,4,0:0:0:0:
293,145,50207,1,0,0:0:0:0:
293,145,50314,1,0,0:0:0:0:
293,145,50421,1,8,0:0:0:0:
255,341,50636,1,0,0:0:0:0:
374,221,50850,5,0,3:0:0:0:
178,275,51064,1,0,0:0:0:0:
178,275,51171,1,0,0:0:0:0:
178,275,51279,1,8,0:0:0:0:
255,341,51493,1,0,0:0:0:0:
197,174,51707,5,4,0:0:0:0:
85,306,51921,1,0,0:0:0:0:
178,275,52136,1,8,0:0:0:0:
130,102,52350,1,0,0:0:0:0:
380,102,52564,5,4,0:0:0:0:
332,275,52779,1,0,0:0:0:0:
425,306,52993,1,8,0:0:0:0:
313,174,53207,1,0,0:0:0:0:
255,341,53421,5,4,0:0:0:0:
178,275,53636,2,0,L|139:279,2,35,0|0|8,0:0|0:0|0:0,0:0:0:0:
318,222,54064,2,0,L|357:226,2,35,0|0|8,0:0|0:0|0:0,0:0:0:0:
152,137,54493,2,0,L|113:141,2,35,0|0|8,0:0|0:0|0:0,0:0:0:0:
350,45,54921,2,0,L|389:49,1,35
439,53,55136,5,4,0:0:0:0:
433,76,55243,1,8,0:0:0:0:
422,98,55350,1,8,0:0:0:0:
404,115,55457,1,8,0:0:0:0:
383,127,55564,1,8,0:0:0:0:
360,133,55671,1,8,0:0:0:0:
335,133,55779,1,8,0:0:0:0:
312,125,55886,1,8,0:0:0:0:
291,112,55993,1,8,0:0:0:0:
270,99,56100,1,8,0:0:0:0:
247,91,56207,1,8,0:0:0:0:
222,91,56314,1,8,0:0:0:0:
199,97,56421,1,10,0:0:0:0:
178,109,56529,1,8,0:0:0:0:
160,126,56636,1,10,0:0:0:0:
149,148,56743,1,8,0:0:0:0:
144,172,56850,6,0,P|142:231|156:311,1,140,4|8,0:0|0:0,0:0:0:0:
233,370,57493,1,0,0:0:0:0:
327,350,57707,2,0,P|360:337|395:335,1,70
487,366,58136,1,8,0:0:0:0:
334,255,58350,1,0,0:0:0:0:
487,366,58564,6,0,P|503:322|485:223,2,140,0|8|0,0:0|0:0|0:0,0:0:0:0:
402,201,59636,1,0,0:0:0:0:
402,201,59743,1,0,0:0:0:0:
402,201,59850,2,0,P|421:169|445:147,1,70,8|0,0:0|0:0,0:0:0:0:
423,301,60279,6,0,B|347:315|359:266|288:280,1,140,0|8,0:0|0:0,0:0:0:0:
211,340,60921,1,0,0:0:0:0:
158,182,61136,2,0,P|192:171|227:170,1,70
113,330,61564,2,0,P|102:296|101:261,1,70,8|0,0:0|0:0,0:0:0:0:
164,32,61993,6,0,P|175:77|172:145,1,105
158,182,62421,1,8,0:0:0:0:
77,126,62636,1,0,0:0:0:0:
77,126,62743,1,0,0:0:0:0:
77,126,62850,1,0,0:0:0:0:
169,279,63064,1,0,0:0:0:0:
249,223,63279,2,0,P|257:187|253:152,1,70,8|0,0:0|0:0,0:0:0:0:
78,240,63707,5,4,0:0:0:0:
178,380,63921,1,0,0:0:0:0:
178,380,64029,1,0,0:0:0:0:
178,380,64136,1,8,0:0:0:0:
169,279,64350,1,0,0:0:0:0:
90,337,64564,1,0,0:0:0:0:
258,323,64779,1,0,0:0:0:0:
258,323,64886,1,0,0:0:0:0:
258,323,64993,2,0,P|266:287|264:254,1,70,8|0,0:0|0:0,0:0:0:0:
189,34,65421,6,0,P|177:79|180:147,1,105
194,184,65850,1,8,0:0:0:0:
264,254,66064,2,0,P|300:231|387:244,1,105
397,263,66493,1,0,0:0:0:0:
291,159,66707,1,8,0:0:0:0:
237,349,66921,5,0,0:0:0:0:
237,349,67029,1,0,0:0:0:0:
237,349,67136,1,0,0:0:0:0:
360,230,67350,1,0,0:0:0:0:
264,254,67564,1,8,0:0:0:0:
427,303,67779,5,0,0:0:0:0:
427,303,67886,1,0,0:0:0:0:
427,303,67993,1,0,0:0:0:0:
382,130,68207,1,0,0:0:0:0:
360,230,68421,1,8,0:0:0:0:
461,200,68636,2,0,L|471:143,1,35
480,110,68850,5,4,0:0:0:0:
470,87,68957,1,0,0:0:0:0:
455,68,69064,1,0,0:0:0:0:
436,53,69171,1,0,0:0:0:0:
413,43,69279,1,8,0:0:0:0:
389,38,69386,1,0,0:0:0:0:
365,40,69493,1,0,0:0:0:0:
342,48,69600,1,0,0:0:0:0:
321,61,69707,1,0,0:0:0:0:
300,74,69814,1,0,0:0:0:0:
277,82,69921,1,2,0:0:0:0:
253,84,70029,1,0,0:0:0:0:
229,79,70136,1,10,0:0:0:0:
206,69,70243,1,0,0:0:0:0:
187,54,70350,1,2,0:0:0:0:
172,35,70457,1,0,0:0:0:0:
162,12,70564,5,4,0:0:0:0:
31,72,70779,1,0,0:0:0:0:
31,72,70886,1,0,0:0:0:0:
31,72,70993,1,8,0:0:0:0:
188,141,71207,1,0,0:0:0:0:
188,141,71314,1,0,0:0:0:0:
188,141,71421,1,8,0:0:0:0:
135,49,71636,5,0,0:0:0:0:
118,222,71850,1,8,0:0:0:0:
188,141,72064,1,0,0:0:0:0:
19,177,72279,5,4,0:0:0:0:
140,320,72493,1,0,0:0:0:0:
140,320,72600,1,0,0:0:0:0:
140,320,72707,1,8,0:0:0:0:
99,121,72921,1,0,0:0:0:0:
99,121,73029,1,0,0:0:0:0:
99,121,73136,1,8,0:0:0:0:
48,303,73350,5,0,0:0:0:0:
217,267,73564,1,8,0:0:0:0:
118,222,73779,1,0,0:0:0:0:
225,374,73993,5,4,0:0:0:0:
307,204,74207,1,0,0:0:0:0:
307,204,74314,1,0,0:0:0:0:
307,204,74421,1,8,0:0:0:0:
129,328,74636,1,0,0:0:0:0:
129,328,74743,1,0,0:0:0:0:
129,328,74850,1,8,0:0:0:0:
314,313,75064,5,0,0:0:0:0:
209,160,75279,1,8,0:0:0:0:
217,267,75493,1,0,0:0:0:0:
405,253,75707,5,4,0:0:0:0:
300,95,75921,1,0,0:0:0:0:
300,95,76029,1,0,0:0:0:0:
300,95,76136,1,8,0:0:0:0:
217,267,76350,1,0,0:0:0:0:
217,267,76457,1,0,0:0:0:0:
217,267,76564,1,8,0:0:0:0:
397,146,76779,5,0,0:0:0:0:
209,160,76993,1,8,0:0:0:0:
307,204,77207,1,0,0:0:0:0:
201,53,77421,5,4,0:0:0:0:
118,222,77636,1,0,0:0:0:0:
118,222,77743,1,0,0:0:0:0:
118,222,77850,1,8,0:0:0:0:
209,160,78064,1,0,0:0:0:0:
111,113,78279,5,4,0:0:0:0:
217,267,78493,1,0,0:0:0:0:
217,267,78600,1,0,0:0:0:0:
217,267,78707,1,8,0:0:0:0:
300,95,78921,1,0,0:0:0:0:
118,222,79136,5,4,0:0:0:0:
307,204,79350,1,0,0:0:0:0:
209,160,79564,1,8,0:0:0:0:
314,313,79779,1,0,0:0:0:0:
398,142,79993,5,4,0:0:0:0:
209,160,80207,1,0,0:0:0:0:
307,204,80421,1,8,0:0:0:0:
202,51,80636,1,0,0:0:0:0:
118,222,80850,5,4,0:0:0:0:
300,95,81064,1,0,0:0:0:0:
300,95,81171,1,0,0:0:0:0:
300,95,81279,1,8,0:0:0:0:
217,267,81493,1,0,0:0:0:0:
111,113,81707,5,4,0:0:0:0:
307,204,81921,1,0,0:0:0:0:
307,204,82029,1,0,0:0:0:0:
307,204,82136,1,8,0:0:0:0:
202,51,82350,1,0,0:0:0:0:
118,222,82564,5,4,0:0:0:0:
135,236,82671,1,8,0:0:0:0:
158,243,82779,1,8,0:0:0:0:
182,249,82886,1,8,0:0:0:0:
206,248,82993,1,8,0:0:0:0:
229,240,83100,1,8,0:0:0:0:
251,229,83207,1,8,0:0:0:0:
269,214,83314,1,8,0:0:0:0:
285,198,83421,1,8,0:0:0:0:
307,186,83529,1,8,0:0:0:0:
331,177,83636,1,8,0:0:0:0:
354,177,83743,1,8,0:0:0:0:
379,181,83850,2,0,P|388:183|401:188,6,17.5,8|8|8|8|8|8|8,0:0|0:0|0:0|0:0|0:0|0:0|0:0,0:0:0:0:
411,208,84279,5,4,0:0:0:0:
275,310,84493,1,0,0:0:0:0:
351,130,84707,1,8,0:0:0:0:
373,298,84921,1,0,0:0:0:0:
215,232,85136,5,4,0:0:0:0:
253,142,85350,1,0,0:0:0:0:
275,310,85564,1,8,0:0:0:0:
117,244,85779,1,0,0:0:0:0:
313,220,85993,5,4,0:0:0:0:
177,322,86207,1,0,0:0:0:0:
253,142,86421,1,8,0:0:0:0:
275,310,86636,1,0,0:0:0:0:
155,154,86850,5,4,0:0:0:0:
351,130,87064,1,0,0:0:0:0:
351,130,87171,1,0,0:0:0:0:
351,130,87279,1,8,0:0:0:0:
215,232,87493,1,0,0:0:0:0:
193,64,87707,5,4,0:0:0:0:
313,220,87921,1,0,0:0:0:0:
155,154,88136,1,8,0:0:0:0:
291,52,88350,1,0,0:0:0:0:
411,208,88564,5,4,0:0:0:0:
275,310,88779,1,0,0:0:0:0:
351,130,88993,1,8,0:0:0:0:
373,298,89207,1,0,0:0:0:0:
215,232,89421,5,4,0:0:0:0:
291,52,89636,1,0,0:0:0:0:
313,220,89850,1,8,0:0:0:0:
117,244,90064,1,0,0:0:0:0:
253,142,90279,5,4,0:0:0:0:
275,310,90493,1,0,0:0:0:0:
275,310,90600,1,0,0:0:0:0:
275,310,90707,1,8,0:0:0:0:
155,154,90921,1,0,0:0:0:0:
351,130,91136,5,4,0:0:0:0:
215,232,91350,1,0,0:0:0:0:
291,52,91564,1,8,0:0:0:0:
313,220,91779,1,0,0:0:0:0:
193,64,91993,5,4,0:0:0:0:
351,130,92207,1,0,0:0:0:0:
155,154,92421,1,8,0:0:0:0:
291,52,92636,1,0,0:0:0:0:
215,232,92850,5,4,0:0:0:0:
95,76,93064,1,0,0:0:0:0:
253,142,93279,1,8,0:0:0:0:
57,166,93493,1,0,0:0:0:0:
193,64,93707,5,4,0:0:0:0:
313,220,93921,1,0,0:0:0:0:
313,220,94029,1,0,0:0:0:0:
313,220,94136,1,8,0:0:0:0:
117,244,94350,1,0,0:0:0:0:
253,142,94564,5,4,0:0:0:0:
275,310,94779,1,0,0:0:0:0:
155,154,94993,1,8,0:0:0:0:
313,220,95207,5,0,0:0:0:0:
313,220,95314,1,0,0:0:0:0:
313,220,95421,1,4,0:0:0:0:
117,244,95636,1,8,0:0:0:0:
117,244,95743,1,0,0:0:0:0:
117,244,95850,1,8,0:0:0:0:
291,52,96064,1,0,0:0:0:0:
368,296,96279,5,4,0:0:0:0:
345,308,96386,1,8,0:0:0:0:
319,315,96493,1,8,0:0:0:0:
293,314,96600,1,8,0:0:0:0:
268,307,96707,1,8,0:0:0:0:
246,294,96814,1,8,0:0:0:0:
228,275,96921,1,8,0:0:0:0:
215,251,97029,1,8,0:0:0:0:
209,226,97136,1,8,0:0:0:0:
210,200,97243,1,8,0:0:0:0:
218,175,97350,1,8,0:0:0:0:
232,153,97457,1,8,0:0:0:0:
252,135,97564,1,8,0:0:0:0:
275,123,97671,1,8,0:0:0:0:
301,118,97779,1,8,0:0:0:0:
327,120,97886,1,8,0:0:0:0:
351,130,97993,5,4,0:0:0:0:
373,298,98207,1,0,0:0:0:0:
313,220,98421,1,8,0:0:0:0:
449,118,98636,1,0,0:0:0:0:
471,286,98850,5,4,0:0:0:0:
313,220,99064,1,0,0:0:0:0:
411,208,99279,1,8,0:0:0:0:
275,310,99493,1,0,0:0:0:0:
351,130,99707,5,4,0:0:0:0:
373,298,99921,1,0,0:0:0:0:
215,232,100136,1,8,0:0:0:0:
411,208,100350,1,0,0:0:0:0:
275,310,100564,5,4,0:0:0:0:
253,142,100779,1,0,0:0:0:0:
253,142,100886,1,0,0:0:0:0:
253,142,100993,1,8,0:0:0:0:
313,220,101207,1,0,0:0:0:0:
177,322,101421,5,4,0:0:0:0:
155,154,101636,1,0,0:0:0:0:
215,232,101850,1,8,0:0:0:0:
57,166,102064,1,0,0:0:0:0:
193,64,102279,5,4,0:0:0:0:
215,232,102493,1,0,0:0:0:0:
155,154,102707,1,8,0:0:0:0:
291,52,102921,1,0,0:0:0:0:
313,220,103136,5,4,0:0:0:0:
253,142,103350,1,0,0:0:0:0:
411,208,103564,1,8,0:0:0:0:
275,310,103779,1,0,0:0:0:0:
351,130,103993,5,4,0:0:0:0:
373,298,104207,1,0,0:0:0:0:
373,298,104314,1,0,0:0:0:0:
373,298,104421,1,8,0:0:0:0:
215,232,104636,1,0,0:0:0:0:
449,118,104850,5,4,0:0:0:0:
313,220,105064,1,0,0:0:0:0:
291,52,105279,1,8,0:0:0:0:
351,130,105493,1,0,0:0:0:0:
155,154,105707,5,4,0:0:0:0:
193,64,105921,1,0,0:0:0:0:
215,232,106136,1,8,0:0:0:0:
57,166,106350,1,0,0:0:0:0:
291,52,106564,5,4,0:0:0:0:
313,220,106779,1,0,0:0:0:0:
193,64,106993,1,8,0:0:0:0:
351,130,107207,1,0,0:0:0:0:
215,232,107421,5,4,0:0:0:0:
95,76,107636,1,0,0:0:0:0:
95,76,107743,1,0,0:0:0:0:
95,76,107850,1,8,0:0:0:0:
253,142,108064,1,0,0:0:0:0:
57,166,108279,5,4,0:0:0:0:
193,64,108493,1,0,0:0:0:0:
117,244,108707,1,8,0:0:0:0:
95,76,108921,1,0,0:0:0:0:
253,142,109136,5,4,0:0:0:0:
155,154,109350,1,0,0:0:0:0:
291,52,109564,1,8,0:0:0:0:
313,220,109779,1,0,0:0:0:0:
193,64,109993,5,4,0:0:0:0:
351,130,110207,1,0,0:0:0:0:
214,232,110421,1,8,0:0:0:0:
253,142,110636,1,0,0:0:0:0:
411,208,110850,5,4,0:0:0:0:
275,310,111064,1,0,0:0:0:0:
275,310,111171,1,0,0:0:0:0:
275,310,111279,1,8,0:0:0:0:
253,142,111493,1,0,0:0:0:0:
313,220,111707,5,4,0:0:0:0:
177,322,111921,1,0,0:0:0:0:
177,322,112029,1,0,0:0:0:0:
177,322,112136,1,8,0:0:0:0:
214,232,112350,1,0,0:0:0:0:
275,310,112564,5,4,0:0:0:0:
117,244,112779,1,0,0:0:0:0:
117,244,112886,1,0,0:0:0:0:
117,244,112993,1,8,0:0:0:0:
214,232,113207,1,0,0:0:0:0:
177,322,113421,5,4,0:0:0:0:
155,154,113636,1,0,0:0:0:0:
155,154,113743,1,0,0:0:0:0:
155,154,113850,1,8,0:0:0:0:
214,232,114064,1,0,0:0:0:0:
57,157,114279,5,4,0:0:0:0:
59,132,114386,1,0,0:0:0:0:
67,109,114493,1,0,0:0:0:0:
81,89,114600,1,0,0:0:0:0:
99,73,114707,1,8,0:0:0:0:
121,61,114814,1,0,0:0:0:0:
145,56,114921,1,0,0:0:0:0:
169,57,115029,1,0,0:0:0:0:
192,63,115136,5,4,0:0:0:0:
214,232,115350,1,0,0:0:0:0:
214,232,115457,1,0,0:0:0:0:
214,232,115564,1,8,0:0:0:0:
155,154,115779,1,0,0:0:0:0:
291,52,115993,5,4,0:0:0:0:
313,220,116207,1,0,0:0:0:0:
313,220,116314,1,0,0:0:0:0:
313,220,116421,1,8,0:0:0:0:
253,142,116636,1,0,0:0:0:0:
389,40,116850,5,4,0:0:0:0:
411,208,117064,1,0,0:0:0:0:
411,208,117171,1,0,0:0:0:0:
411,208,117279,1,8,0:0:0:0:
351,130,117493,1,0,0:0:0:0:
509,207,117707,5,4,0:0:0:0:
507,232,117814,1,0,0:0:0:0:
498,255,117921,1,0,0:0:0:0:
485,275,118029,1,0,0:0:0:0:
466,291,118136,1,8,0:0:0:0:
444,301,118243,1,0,0:0:0:0:
420,306,118350,1,0,0:0:0:0:
396,305,118457,1,0,0:0:0:0:
373,298,118564,5,4,0:0:0:0:
351,130,118779,1,0,0:0:0:0:
351,130,118886,1,0,0:0:0:0:
351,130,118993,1,8,0:0:0:0:
411,208,119207,1,0,0:0:0:0:
275,310,119421,5,4,0:0:0:0:
253,142,119636,1,0,0:0:0:0:
253,142,119743,1,0,0:0:0:0:
253,142,119850,1,8,0:0:0:0:
313,220,120064,1,0,0:0:0:0:
177,322,120279,5,4,0:0:0:0:
155,154,120493,1,0,0:0:0:0:
155,154,120600,1,0,0:0:0:0:
155,154,120707,1,8,0:0:0:0:
215,232,120921,1,0,0:0:0:0:
57,166,121136,5,4,0:0:0:0:
57,141,121243,1,0,0:0:0:0:
63,117,121350,1,2,0:0:0:0:
75,96,121457,1,2,0:0:0:0:
92,79,121564,1,4,0:0:0:0:
113,66,121671,1,0,0:0:0:0:
136,59,121779,1,2,0:0:0:0:
161,59,121886,1,2,0:0:0:0:
184,64,121993,5,4,0:0:0:0:
206,76,122100,1,0,0:0:0:0:
224,92,122207,1,2,0:0:0:0:
237,113,122314,1,2,0:0:0:0:
245,136,122421,1,4,0:0:0:0:
246,160,122529,1,0,0:0:0:0:
241,183,122636,1,2,0:0:0:0:
230,206,122743,1,2,0:0:0:0:
219,227,122850,5,4,0:0:0:0:
214,251,122957,1,0,0:0:0:0:
215,276,123064,1,2,0:0:0:0:
223,299,123171,1,2,0:0:0:0:
236,320,123279,1,4,0:0:0:0:
254,336,123386,1,0,0:0:0:0:
275,348,123493,1,2,0:0:0:0:
299,353,123600,1,2,0:0:0:0:
324,352,123707,5,6,0:0:0:0:
347,346,123814,1,0,0:0:0:0:
368,333,123921,1,2,0:0:0:0:
385,315,124029,1,2,0:0:0:0:
397,294,124136,1,0,0:0:0:0:
403,271,124243,1,0,0:0:0:0:
403,246,124350,1,2,0:0:0:0:
396,222,124457,1,2,0:0:0:0:
384,200,124564,5,0,3:0:0:0:
363,198,124671,1,0,0:0:0:0:
342,197,124779,1,0,0:0:0:0:
321,196,124886,1,0,0:0:0:0:
303,208,124993,1,0,3:0:0:0:
282,206,125100,1,0,0:0:0:0:
261,205,125207,1,0,3:0:0:0:
240,204,125314,1,0,0:0:0:0:
211,190,125421,5,6,0:0:0:0:
280,237,138707,5,2,0:0:0:0:
335,74,138921,1,2,0:0:0:0:
249,148,139136,6,0,L|390:156,1,140,4|8,0:0|0:0,0:0:0:0:
335,74,139779,1,0,0:0:0:0:
280,237,139993,2,0,L|353:241,1,70
249,148,140421,1,8,0:0:0:0:
186,222,140636,1,0,0:0:0:0:
217,315,140850,6,0,P|252:333|355:302,2,140,4|8|0,0:0|0:0|0:0,0:0:0:0:
285,167,141921,1,0,0:0:0:0:
285,167,142029,1,0,0:0:0:0:
285,167,142136,2,0,L|279:236,1,70,8|0,0:0|0:0,0:0:0:0:
119,330,142564,6,0,L|110:193,1,105,4|0,0:0|0:0,0:0:0:0:
78,189,142993,2,0,L|83:119,1,70,8|0,0:0|0:0,0:0:0:0:
186,222,143421,1,4,0:0:0:0:
233,52,143636,1,0,0:0:0:0:
233,52,143743,1,0,0:0:0:0:
233,52,143850,2,0,L|161:56,1,70,8|0,0:0|0:0,0:0:0:0:
281,233,144279,6,0,P|315:173|303:105,2,140,4|8|0,0:0|0:0|0:0,0:0:0:0:
150,160,145350,1,0,0:0:0:0:
150,160,145457,1,0,0:0:0:0:
150,160,145564,2,0,L|220:157,1,70,8|0,0:0|0:0,0:0:0:0:
411,147,145993,5,4,0:0:0:0:
286,222,146207,2,0,L|281:270,2,35,0|0|8,0:0|0:0|0:0,0:0:0:0:
335,88,146636,2,0,L|330:40,2,35
397,244,147064,1,0,0:0:0:0:
487,206,147279,2,0,P|501:177|505:136,1,70,8|0,0:0|0:0,0:0:0:0:
321,184,147707,5,4,0:0:0:0:
397,244,147921,1,0,0:0:0:0:
397,244,148029,1,0,0:0:0:0:
397,244,148136,1,8,0:0:0:0:
335,88,148350,2,0,P|294:89|225:159,1,140
300,279,148993,1,8,0:0:0:0:
321,184,149207,1,0,0:0:0:0:
137,127,149421,6,0,L|142:200,1,70,4|0,0:0|0:0,0:0:0:0:
208,58,149850,1,8,0:0:0:0:
46,36,150064,1,0,0:0:0:0:
46,36,150171,1,0,0:0:0:0:
46,36,150279,2,0,L|41:105,1,70
158,275,150707,1,8,0:0:0:0:
237,213,150921,1,0,0:0:0:0:
141,179,151136,5,4,0:0:0:0:
117,186,151243,1,0,0:0:0:0:
96,199,151350,1,0,0:0:0:0:
78,215,151457,1,0,0:0:0:0:
66,236,151564,1,8,0:0:0:0:
59,259,151671,1,0,0:0:0:0:
57,285,151779,1,0,0:0:0:0:
62,308,151886,1,0,0:0:0:0:
73,330,151993,1,0,0:0:0:0:
89,348,152100,1,0,0:0:0:0:
109,362,152207,1,2,0:0:0:0:
132,372,152314,1,0,0:0:0:0:
156,375,152421,1,2,0:0:0:0:
180,371,152529,1,0,0:0:0:0:
203,362,152636,1,2,0:0:0:0:
222,348,152743,1,0,0:0:0:0:
238,329,152850,5,4,0:0:0:0:
141,179,153064,1,0,0:0:0:0:
141,179,153171,1,0,0:0:0:0:
141,179,153279,1,8,0:0:0:0:
158,275,153493,1,0,0:0:0:0:
217,113,153707,1,8,0:0:0:0:
65,242,153921,5,0,0:0:0:0:
234,211,154136,1,8,0:0:0:0:
141,179,154350,1,0,0:0:0:0:
248,308,154564,5,4,0:0:0:0:
310,146,154779,1,0,0:0:0:0:
310,146,154886,1,0,0:0:0:0:
310,146,154993,1,8,0:0:0:0:
158,275,155207,1,0,0:0:0:0:
326,246,155421,1,8,0:0:0:0:
234,211,155636,5,0,0:0:0:0:
338,341,155850,1,8,0:0:0:0:
401,180,156064,1,0,0:0:0:0:
248,308,156279,5,4,0:0:0:0:
419,282,156493,1,0,0:0:0:0:
419,282,156600,1,0,0:0:0:0:
419,282,156707,1,8,0:0:0:0:
234,211,156921,1,0,0:0:0:0:
338,341,157136,1,8,0:0:0:0:
401,180,157350,5,0,0:0:0:0:
326,246,157564,1,8,0:0:0:0:
494,217,157779,1,0,0:0:0:0:
383,78,157993,5,4,0:0:0:0:
326,246,158207,1,0,0:0:0:0:
326,246,158314,1,0,0:0:0:0:
326,246,158421,1,8,0:0:0:0:
401,180,158636,1,0,0:0:0:0:
234,211,158850,1,8,0:0:0:0:
419,282,159064,5,0,0:0:0:0:
310,146,159279,1,8,0:0:0:0:
326,246,159493,1,0,0:0:0:0:
383,78,159707,5,4,0:0:0:0:
217,113,159921,1,0,0:0:0:0:
217,113,160029,1,0,0:0:0:0:
217,113,160136,1,8,0:0:0:0:
310,146,160350,1,0,0:0:0:0:
204,13,160564,5,4,0:0:0:0:
141,179,160779,1,0,0:0:0:0:
141,179,160886,1,0,0:0:0:0:
141,179,160993,1,8,0:0:0:0:
297,48,161207,1,0,0:0:0:0:
126,80,161421,5,4,0:0:0:0:
234,211,161636,1,0,0:0:0:0:
217,113,161850,1,8,0:0:0:0:
158,275,162064,1,0,0:0:0:0:
326,246,162279,5,4,0:0:0:0:
234,211,162493,1,0,0:0:0:0:
338,341,162707,1,8,0:0:0:0:
401,180,162921,1,0,0:0:0:0:
248,308,163136,5,4,0:0:0:0:
419,282,163350,1,0,0:0:0:0:
419,282,163457,1,0,0:0:0:0:
419,282,163564,1,8,0:0:0:0:
310,146,163779,1,0,0:0:0:0:
338,341,163993,5,4,0:0:0:0:
401,180,164207,1,0,0:0:0:0:
401,180,164314,1,0,0:0:0:0:
401,180,164421,1,8,0:0:0:0:
234,211,164636,1,0,0:0:0:0:
419,282,164850,5,4,0:0:0:0:
442,274,164957,1,8,0:0:0:0:
463,262,165064,1,8,0:0:0:0:
480,245,165171,1,8,0:0:0:0:
493,224,165279,1,8,0:0:0:0:
501,201,165386,1,8,0:0:0:0:
503,177,165493,1,8,0:0:0:0:
500,152,165600,1,8,0:0:0:0:
491,130,165707,1,8,0:0:0:0:
476,110,165814,1,8,0:0:0:0:
458,94,165921,1,8,0:0:0:0:
436,83,166029,1,8,0:0:0:0:
413,77,166136,1,10,0:0:0:0:
388,77,166243,1,8,0:0:0:0:
364,83,166350,1,10,0:0:0:0:
343,94,166457,1,8,0:0:0:0:
324,109,166564,6,0,L|319:250,1,140,4|8,0:0|0:0,0:0:0:0:
401,180,167207,1,0,0:0:0:0:
231,149,167421,2,0,L|229:232,1,70
324,109,167850,1,8,0:0:0:0:
243,52,168064,1,0,0:0:0:0:
152,90,168279,6,0,P|134:143|169:227,2,140,4|8|0,0:0|0:0|0:0,0:0:0:0:
324,109,169350,1,0,0:0:0:0:
324,109,169457,1,0,0:0:0:0:
324,109,169564,1,8,0:0:0:0:
231,149,169779,1,0,0:0:0:0:
331,10,169993,6,0,P|393:38|424:99,1,140,4|8,0:0|0:0,0:0:0:0:
312,206,170636,1,0,0:0:0:0:
231,149,170850,2,0,L|226:77,1,70,4|0,0:0|0:0,0:0:0:0:
403,170,171279,2,0,L|398:239,1,70,8|0,0:0|0:0,0:0:0:0:
222,246,171707,5,4,0:0:0:0:
324,109,171921,1,0,0:0:0:0:
324,109,172029,1,0,0:0:0:0:
324,109,172136,1,8,0:0:0:0:
312,206,172350,1,0,0:0:0:0:
142,188,172564,5,0,0:0:0:0:
324,109,172779,1,0,0:0:0:0:
303,303,172993,1,8,0:0:0:0:
231,149,173207,1,0,0:0:0:0:
403,170,173421,5,4,0:0:0:0:
312,206,173636,1,0,0:0:0:0:
312,206,173743,1,0,0:0:0:0:
312,206,173850,2,0,P|305:169|308:135,1,70,8|0,0:0|0:0,0:0:0:0:
394,267,174279,1,0,3:0:0:0:
303,303,174493,1,0,0:0:0:0:
303,303,174600,1,0,0:0:0:0:
303,303,174707,1,8,0:0:0:0:
222,246,174921,1,0,0:0:0:0:
394,267,175136,6,0,P|412:227|386:134,1,140,0|8,3:0|0:0,0:0:0:0:
231,149,175779,1,0,0:0:0:0:
231,149,175886,1,0,0:0:0:0:
231,149,175993,1,0,3:0:0:0:
312,206,176207,1,0,0:0:0:0:
292,64,176421,1,8,0:0:0:0:
150,92,176636,5,0,0:0:0:0:
150,92,176743,1,0,0:0:0:0:
150,92,176850,2,0,P|136:128|134:168,1,70,0|0,3:0|0:0,0:0:0:0:
295,273,177279,2,0,P|309:237|311:197,1,70,8|0,0:0|0:0,0:0:0:0:
305,182,177600,1,0,0:0:0:0:
296,158,177707,1,0,3:0:0:0:
215,214,177921,1,0,0:0:0:0:
375,332,178136,1,8,0:0:0:0:
204,311,178350,1,0,0:0:0:0:
386,235,178564,5,4,0:0:0:0:
397,213,178671,1,0,0:0:0:0:
402,189,178779,1,0,0:0:0:0:
401,164,178886,1,0,0:0:0:0:
394,141,178993,1,8,0:0:0:0:
382,120,179100,1,0,0:0:0:0:
365,103,179207,1,0,0:0:0:0:
344,90,179314,1,0,0:0:0:0:
320,83,179421,1,0,0:0:0:0:
296,82,179529,1,0,0:0:0:0:
272,87,179636,1,2,0:0:0:0:
250,98,179743,1,0,0:0:0:0:
232,114,179850,1,2,0:0:0:0:
218,134,179957,1,0,0:0:0:0:
209,157,180064,1,2,0:0:0:0:
207,181,180171,1,0,0:0:0:0:
211,205,180279,5,4,0:0:0:0:
305,182,180493,1,0,0:0:0:0:
305,182,180600,1,0,0:0:0:0:
305,182,180707,1,8,0:0:0:0:
143,134,180921,1,0,0:0:0:0:
143,134,181029,1,0,0:0:0:0:
143,134,181136,1,8,0:0:0:0:
211,205,181350,5,0,0:0:0:0:
169,40,181564,1,8,0:0:0:0:
49,157,181779,1,0,0:0:0:0:
143,134,181993,5,4,0:0:0:0:
75,63,182207,1,0,0:0:0:0:
75,63,182314,1,0,0:0:0:0:
75,63,182421,1,8,0:0:0:0:
117,228,182636,1,0,0:0:0:0:
117,228,182743,1,0,0:0:0:0:
117,228,182850,1,8,0:0:0:0:
237,111,183064,5,0,0:0:0:0:
49,157,183279,1,8,0:0:0:0:
185,299,183493,1,0,0:0:0:0:
143,134,183707,5,4,0:0:0:0:
91,322,183921,1,0,0:0:0:0:
91,322,184029,1,0,0:0:0:0:
91,322,184136,1,8,0:0:0:0:
211,205,184350,1,0,0:0:0:0:
211,205,184457,1,0,0:0:0:0:
211,205,184564,1,8,0:0:0:0:
117,228,184779,5,0,0:0:0:0:
279,276,184993,1,8,0:0:0:0:
211,205,185207,1,0,0:0:0:0:
253,370,185421,5,4,0:0:0:0:
373,253,185636,1,0,0:0:0:0:
373,253,185743,1,0,0:0:0:0:
373,253,185850,1,8,0:0:0:0:
185,299,186064,1,0,0:0:0:0:
185,299,186171,1,0,0:0:0:0:
185,299,186279,1,8,0:0:0:0:
347,347,186493,5,0,0:0:0:0:
305,182,186707,1,8,0:0:0:0:
279,276,186921,1,0,0:0:0:0:
399,159,187136,5,4,0:0:0:0:
237,111,187350,1,0,0:0:0:0:
237,111,187457,1,0,0:0:0:0:
237,111,187564,1,8,0:0:0:0:
373,253,187779,1,0,0:0:0:0:
331,88,187993,5,4,0:0:0:0:
211,205,188207,1,0,0:0:0:0:
211,205,188314,1,0,0:0:0:0:
211,205,188421,1,8,0:0:0:0:
305,182,188636,1,0,0:0:0:0:
143,134,188850,5,4,0:0:0:0:
279,276,189064,1,0,0:0:0:0:
237,111,189279,1,8,0:0:0:0:
185,299,189493,1,0,0:0:0:0:
373,253,189707,5,4,0:0:0:0:
237,111,189921,1,0,0:0:0:0:
279,276,190136,1,8,0:0:0:0:
331,88,190350,1,0,0:0:0:0:
143,134,190564,5,4,0:0:0:0:
305,182,190779,1,0,0:0:0:0:
305,182,190886,1,0,0:0:0:0:
305,182,190993,1,8,0:0:0:0:
185,299,191207,1,0,0:0:0:0:
237,111,191421,5,4,0:0:0:0:
373,253,191636,1,0,0:0:0:0:
373,253,191743,1,0,0:0:0:0:
373,253,191850,1,8,0:0:0:0:
211,205,192064,1,0,0:0:0:0:
331,88,192279,5,4,0:0:0:0:
353,97,192386,1,8,0:0:0:0:
373,111,192493,1,8,0:0:0:0:
388,130,192600,1,8,0:0:0:0:
398,153,192707,1,8,0:0:0:0:
403,177,192814,1,8,0:0:0:0:
401,201,192921,1,8,0:0:0:0:
394,224,193029,1,8,0:0:0:0:
381,245,193136,1,8,0:0:0:0:
363,262,193243,1,8,0:0:0:0:
342,274,193350,1,8,0:0:0:0:
318,280,193457,1,8,0:0:0:0:
294,280,193564,2,0,P|282:279|267:277,6,17.5
247,265,193993,5,4,0:0:0:0:
285,175,194207,1,0,0:0:0:0:
307,343,194421,1,8,0:0:0:0:
187,187,194636,1,0,0:0:0:0:
345,253,194850,5,4,0:0:0:0:
149,277,195064,1,0,0:0:0:0:
285,175,195279,1,8,0:0:0:0:
209,355,195493,1,0,0:0:0:0:
89,199,195707,5,4,0:0:0:0:
247,265,195921,1,0,0:0:0:0:
149,277,196136,1,8,0:0:0:0:
285,175,196350,1,0,0:0:0:0:
307,343,196564,5,4,0:0:0:0:
51,289,196779,1,0,0:0:0:0:
51,289,196886,1,0,0:0:0:0:
51,289,196993,1,8,0:0:0:0:
225,97,197207,1,0,0:0:0:0:
247,265,197421,5,4,0:0:0:0:
127,109,197636,1,0,0:0:0:0:
323,85,197850,1,8,0:0:0:0:
187,187,198064,1,0,0:0:0:0:
263,7,198279,5,4,0:0:0:0:
383,163,198493,1,0,0:0:0:0:
225,97,198707,1,8,0:0:0:0:
421,73,198921,1,0,0:0:0:0:
345,253,199136,5,4,0:0:0:0:
225,97,199350,1,0,0:0:0:0:
383,163,199564,1,8,0:0:0:0:
187,187,199779,1,0,0:0:0:0:
323,85,199993,5,4,0:0:0:0:
405,331,200207,1,0,0:0:0:0:
405,331,200314,1,0,0:0:0:0:
405,331,200421,1,8,0:0:0:0:
149,277,200636,1,0,0:0:0:0:
285,175,200850,5,4,0:0:0:0:
307,343,201064,1,0,0:0:0:0:
187,187,201279,1,8,0:0:0:0:
345,253,201493,1,0,0:0:0:0:
149,277,201707,5,4,0:0:0:0:
225,97,201921,1,0,0:0:0:0:
247,265,202136,1,8,0:0:0:0:
89,199,202350,1,0,0:0:0:0:
285,175,202564,5,4,0:0:0:0:
149,277,202779,1,0,0:0:0:0:
127,109,202993,1,8,0:0:0:0:
247,265,203207,1,0,0:0:0:0:
89,199,203421,5,4,0:0:0:0:
323,85,203636,1,0,0:0:0:0:
323,85,203743,1,0,0:0:0:0:
323,85,203850,1,8,0:0:0:0:
307,343,204064,1,0,0:0:0:0:
187,187,204279,5,4,0:0:0:0:
345,253,204493,1,0,0:0:0:0:
149,277,204707,1,8,0:0:0:0:
285,175,204921,5,8,0:0:0:0:
285,175,205029,1,8,0:0:0:0:
285,175,205136,1,4,0:0:0:0:
209,355,205350,1,0,0:0:0:0:
209,355,205457,1,0,0:0:0:0:
209,355,205564,1,12,0:0:0:0:
225,97,205779,1,0,0:0:0:0:
441,236,205993,5,4,0:0:0:0:
442,262,206100,1,0,0:0:0:0:
437,287,206207,1,2,0:0:0:0:
424,310,206314,1,2,0:0:0:0:
407,330,206421,1,8,0:0:0:0:
385,343,206529,1,0,0:0:0:0:
359,351,206636,1,2,0:0:0:0:
333,352,206743,1,2,0:0:0:0:
308,346,206850,1,8,0:0:0:0:
285,333,206957,1,0,0:0:0:0:
266,314,207064,1,2,0:0:0:0:
253,292,207171,1,2,0:0:0:0:
246,267,207279,1,8,0:0:0:0:
246,241,207386,1,0,0:0:0:0:
253,215,207493,1,2,0:0:0:0:
266,193,207600,1,2,0:0:0:0:
285,175,207707,5,4,0:0:0:0:
345,253,207921,1,0,0:0:0:0:
187,187,208136,1,8,0:0:0:0:
383,163,208350,1,0,0:0:0:0:
247,265,208564,5,4,0:0:0:0:
225,97,208779,1,0,0:0:0:0:
383,163,208993,1,8,0:0:0:0:
285,175,209207,1,0,0:0:0:0:
421,73,209421,5,4,0:0:0:0:
443,241,209636,1,0,0:0:0:0:
285,175,209850,1,8,0:0:0:0:
383,163,210064,1,0,0:0:0:0:
405,331,210279,5,4,0:0:0:0:
149,277,210493,1,0,0:0:0:0:
149,277,210600,1,0,0:0:0:0:
149,277,210707,1,8,0:0:0:0:
323,85,210921,1,0,0:0:0:0:
345,253,211136,5,4,0:0:0:0:
187,187,211350,1,0,0:0:0:0:
383,163,211564,1,8,0:0:0:0:
247,265,211779,1,0,0:0:0:0:
225,97,211993,5,4,0:0:0:0:
285,175,212207,1,0,0:0:0:0:
187,187,212421,1,8,0:0:0:0:
323,85,212636,1,0,0:0:0:0:
345,253,212850,5,4,0:0:0:0:
89,199,213064,1,0,0:0:0:0:
225,97,213279,1,8,0:0:0:0:
247,265,213493,1,0,0:0:0:0:
127,109,213707,5,4,0:0:0:0:
383,163,213921,1,0,0:0:0:0:
383,163,214029,1,0,0:0:0:0:
383,163,214136,1,8,0:0:0:0:
209,355,214350,1,0,0:0:0:0:
225,97,214564,5,4,0:0:0:0:
345,253,214779,1,0,0:0:0:0:
187,187,214993,1,8,0:0:0:0:
323,85,215207,1,0,0:0:0:0:
307,343,215421,5,4,0:0:0:0:
149,277,215636,1,0,0:0:0:0:
345,253,215850,1,8,0:0:0:0:
209,355,216064,1,0,0:0:0:0:
285,175,216279,5,4,0:0:0:0:
405,331,216493,1,0,0:0:0:0:
247,265,216707,1,8,0:0:0:0:
383,163,216921,1,0,0:0:0:0:
307,343,217136,5,4,0:0:0:0:
89,199,217350,1,0,0:0:0:0:
89,199,217457,1,0,0:0:0:0:
89,199,217564,1,8,0:0:0:0:
323,85,217779,1,0,0:0:0:0:
247,265,217993,5,4,0:0:0:0:
225,97,218207,1,0,0:0:0:0:
383,163,218421,1,8,0:0:0:0:
187,187,218636,1,0,0:0:0:0:
323,85,218850,5,4,0:0:0:0:
345,253,219064,1,0,0:0:0:0:
285,175,219279,1,8,0:0:0:0:
421,73,219493,1,0,0:0:0:0:
443,241,219707,5,4,0:0:0:0:
442,265,219814,1,0,0:0:0:0:
436,289,219921,1,2,0:0:0:0:
424,310,220029,1,2,0:0:0:0:
408,328,220136,1,8,0:0:0:0:
387,341,220243,1,0,0:0:0:0:
364,349,220350,1,2,0:0:0:0:
339,351,220457,1,2,0:0:0:0:
315,346,220564,1,8,0:0:0:0:
293,336,220671,1,2,0:0:0:0:
274,321,220779,1,2,0:0:0:0:
252,308,220886,1,2,0:0:0:0:
230,298,220993,1,12,0:0:0:0:
206,294,221100,1,8,0:0:0:0:
182,296,221207,1,8,0:0:0:0:
158,304,221314,1,8,0:0:0:0:
138,317,221421,6,0,L|123:158,1,140,6|8,0:0|0:0,0:0:0:0:
374,67,222064,2,0,L|389:226,1,140,2|2,0:0|0:0,0:0:0:0:
267,384,222707,5,8,0:0:0:0:
249,354,222814,1,2,0:0:0:0:
243,319,222921,1,2,0:0:0:0:
247,283,223029,1,2,0:0:0:0:
264,252,223136,2,0,P|288:226|392:206,1,140,6|8,0:0|0:0,0:0:0:0:
357,316,223779,1,2,0:0:0:0:
171,188,223993,2,0,L|163:109,1,70,6|0,0:0|0:0,0:0:0:0:
364,246,224421,2,0,L|356:315,1,70,8|2,0:0|0:0,0:0:0:0:
302,101,224850,6,0,L|456:94,1,140,6|8,0:0|0:0,0:0:0:0:
210,283,225493,2,0,L|56:290,1,140,2|2,0:0|0:0,0:0:0:0:
132,87,226136,5,8,0:0:0:0:
166,89,226243,1,2,0:0:0:0:
198,102,226350,1,2,0:0:0:0:
224,124,226457,1,2,0:0:0:0:
241,154,226564,2,0,P|245:223|209:283,1,140,6|8,0:0|0:0,0:0:0:0:
137,197,227207,1,2,0:0:0:0:
345,111,227421,1,6,0:0:0:0:
313,334,227636,1,2,0:0:0:0:
313,334,227743,1,2,0:0:0:0:
313,334,227850,1,8,0:0:0:0:
265,214,228064,5,2,0:0:0:0:
265,214,228171,1,2,0:0:0:0:
265,214,228279,2,0,P|336:207|419:253,1,140,6|8,0:0|0:0,0:0:0:0:
218,88,228921,1,2,0:0:0:0:
218,88,229029,1,2,0:0:0:0:
218,88,229136,2,0,P|211:51|213:14,1,70,0|2,0:0|0:0,0:0:0:0:
345,111,229564,1,6,0:0:0:0:
137,197,229779,5,2,0:0:0:0:
137,197,229886,1,2,0:0:0:0:
137,197,229993,2,0,P|145:266|189:324,1,140,6|8,0:0|0:0,0:0:0:0:
334,222,230636,1,2,0:0:0:0:
334,222,230743,1,2,0:0:0:0:
334,222,230850,2,0,L|244:211,1,70,4|2,0:0|0:0,0:0:0:0:
365,317,231279,2,0,P|398:299|419:274,1,70,8|2,0:0|0:0,0:0:0:0:
326,82,231707,6,0,L|334:222,1,140,6|8,0:0|0:0,0:0:0:0:
181,347,232350,1,2,0:0:0:0:
181,347,232457,1,2,0:0:0:0:
181,347,232564,2,0,L|184:277,1,70,0|2,0:0|0:0,0:0:0:0:
106,77,232993,5,6,0:0:0:0:
83,103,233100,1,2,0:0:0:0:
70,136,233207,1,2,0:0:0:0:
68,171,233314,1,2,0:0:0:0:
75,205,233421,2,0,P|118:259|184:277,1,140,6|8,0:0|0:0,0:0:0:0:
434,172,234064,1,2,0:0:0:0:
434,172,234171,1,2,0:0:0:0:
434,172,234279,2,0,P|394:117|332:110,1,105,6|0,0:0|0:0,0:0:0:0:
327,106,234707,2,0,L|317:178,1,70,0|2,0:3|0:0,0:0:0:0:
206,200,235029,1,2,0:0:0:0:
194,208,235136,6,0,L|204:280,1,70,6|2,0:0|0:0,0:0:0:0:
329,302,235564,1,8,0:0:0:0:
240,103,235779,1,2,0:0:0:0:
240,103,235886,1,2,0:0:0:0:
240,103,235993,2,0,P|200:92|105:140,1,140,0|8,3:0|0:0,0:0:0:0:
203,277,236636,5,2,0:0:0:0:
203,277,236743,1,2,0:0:0:0:
203,277,236850,2,0,L|194:208,1,70,6|0,0:0|0:0,0:0:0:0:
109,367,237279,1,8,0:0:0:0:
329,302,237493,1,2,0:0:0:0:
329,302,237600,1,2,0:0:0:0:
329,302,237707,2,0,L|348:161,1,140,6|8,0:0|0:0,0:0:0:0:
171,32,238350,5,2,0:0:0:0:
171,32,238457,1,2,0:0:0:0:
171,32,238564,2,0,P|147:68|163:166,1,140,6|8,0:0|0:0,0:0:0:0:
305,96,239207,1,2,0:0:0:0:
305,96,239314,1,2,0:0:0:0:
305,96,239421,2,0,L|236:103,1,70,0|2,3:0|0:0,0:0:0:0:
48,233,239850,2,0,L|163:243,1,105,6|0,0:0|0:0,0:0:0:0:
222,194,240279,6,0,P|262:183|357:231,1,140,6|8,0:0|0:0,0:0:0:0:
258,368,240921,1,2,0:0:0:0:
258,368,241029,1,2,0:0:0:0:
258,368,241136,2,0,L|267:298,1,70,6|0,0:0|0:0,0:0:0:0:
428,172,241564,2,0,L|437:241,1,70,8|2,0:0|0:0,0:0:0:0:
248,101,241993,6,0,P|277:37|338:6,1,140,6|8,0:0|0:0,0:0:0:0:
349,220,242636,1,2,0:0:0:0:
349,220,242743,1,2,0:0:0:0:
349,220,242850,2,0,L|254:205,1,70,0|2,3:0|0:0,0:0:0:0:
29,251,243279,2,0,L|136:233,1,105,6|0,0:0|0:0,0:0:0:0:
201,194,243707,6,0,P|205:162|130:96,1,140,6|8,0:0|0:0,0:0:0:0:
88,332,244350,1,2,0:0:0:0:
88,332,244457,1,2,0:0:0:0:
88,332,244564,2,0,L|169:339,1,70,2|2,0:0|0:0,0:0:0:0:
349,220,244993,5,8,0:0:0:0:
318,237,245100,1,2,0:0:0:0:
283,239,245207,1,2,0:0:0:0:
250,226,245314,1,2,0:0:0:0:
223,203,245421,2,0,P|200:162|231:61,1,140,6|8,0:0|0:0,0:0:0:0:
432,22,246064,1,2,0:0:0:0:
432,22,246171,1,2,0:0:0:0:
432,22,246279,2,0,L|440:102,1,70,0|2,3:0|0:0,0:0:0:0:
479,309,246707,2,0,L|490:201,1,105,6|0,0:0|0:0,0:0:0:0:
417,169,247136,6,0,P|350:176|296:134,1,140,6|8,0:0|0:0,0:0:0:0:
118,290,247779,1,2,0:0:0:0:
118,290,247886,1,2,0:0:0:0:
118,290,247993,2,0,P|185:297|239:255,1,140,6|8,0:0|0:0,0:0:0:0:
140,96,248636,2,0,L|145:130,1,35,2|2,0:0|0:0,0:0:0:0:
159,206,248850,5,6,0:0:0:0:
