osu file format v14

[General]
AudioFilename: lilywhite.mp3
AudioLeadIn: 0
PreviewTime: 193900
Countdown: 0
SampleSet: Soft
StackLeniency: 0.7
Mode: 0
LetterboxInBreaks: 0
WidescreenStoryboard: 1

[Editor]
Bookmarks: 29421,56850,84279,111707,125421,139136,180279,221421,248850
DistanceSpacing: 1
BeatDivisor: 4
GridSize: 4
TimelineZoom: 1.6

[Metadata]
Title:Kasou no Kimi no Miyako
TitleUnicode:仮想の君の都
Artist:senya
ArtistUnicode:senya
Creator:Satellite
Version:Collab Hard
Source:東方Project
Tags:touhou
BeatmapID:4521984
BeatmapSetID:1229359

[Difficulty]
HPDrainRate:5
CircleSize:4
OverallDifficulty:6
ApproachRate:7
SliderMultiplier:1.2
SliderTickRate:1

[Events]
//Background and Video events
0,0,"bgg.jpg",0,0
//Break Periods
2,125621,138236
//Storyboard Layer 0 (Background)
//Storyboard Layer 1 (Fail)
//Storyboard Layer 2 (Pass)
//Storyboard Layer 3 (Foreground)
//Storyboard Layer 4 (Overlay)
//Storyboard Sound Samples

[TimingPoints]
279,428.571428571429,4,2,1,50,1,0
84279,-100,4,2,1,70,0,1
111707,-100,4,2,1,70,0,0

[HitObjects]
381,144,29421,6,0,P|360:189|386:260,1,120
446,201,30064,1,0,0:0:0:0:
460,117,30279,2,0,P|445:90|422:72,1,60
338,76,30707,2,0,P|316:96|304:123,1,60
250,188,31136,6,0,P|188:199|126:190,1,120
76,255,31779,1,0,0:0:0:0:
133,316,31993,2,0,P|162:310|192:314,1,60
273,336,32421,2,0,P|302:339|332:334,1,60
377,263,32850,6,0,L|381:129,1,120
380,58,33493,1,0,0:0:0:0:
312,107,33707,2,0,P|269:114|237:103,1,60
380,58,34136,2,0,P|423:51|455:62,1,60
472,131,34564,6,0,L|468:250,1,120
434,328,35207,1,0,0:0:0:0:
350,336,35421,2,0,P|309:304|298:273,1,60
249,235,35850,2,0,P|219:228|190:233,1,60
194,318,36279,6,0,P|251:325|307:296,1,120,0|0,0:0|0:0,3:0:0:0:
348,225,36921,1,0,0:0:0:0:
396,155,37136,2,0,P|347:142|316:148,1,60
256,152,37564,2,0,P|269:103|263:72,1,60
200,48,37993,6,0,P|168:104|176:164,1,120
224,224,38636,2,0,L|88:228,1,120
148,300,39279,1,0,0:0:0:0:
148,300,39493,2,0,L|267:296,1,120
336,248,40136,6,0,P|346:276|347:306,1,60
260,212,40564,2,0,P|261:182|271:153,1,60
328,92,40993,2,0,L|408:88,1,60
460,128,41421,1,0,0:0:0:0:
408,196,41636,6,0,P|444:216|456:216,2,30
384,276,42064,2,0,P|364:312|364:324,2,30
312,236,42493,2,0,P|276:216|264:216,2,30
340,156,42921,2,0,P|360:120|360:108,1,30
340,92,43136,6,0,B|292:84|292:84|272:96|272:96|204:84,1,120
156,40,43779,1,0,0:0:0:0:
100,104,43993,2,0,P|104:160|116:176,1,60
180,200,44421,2,0,P|176:256|164:272,1,60
112,312,44850,6,0,B|172:336|172:288|240:320,1,120
308,344,45493,1,0,0:0:0:0:
376,296,45707,2,0,P|384:267|377:238,1,60
312,184,46136,2,0,P|304:152|312:124,1,60
380,76,46564,6,0,B|440:108|440:108|440:172,1,120
444,244,47207,1,0,0:0:0:0:
376,296,47421,2,0,L|288:304,1,60
200,234,47850,2,0,L|260:240,1,60
316,301,48279,6,0,L|180:313,1,120
112,320,48921,1,0,0:0:0:0:
44,268,49136,2,0,P|28:216|32:200,1,60
72,140,49564,2,0,L|76:60,1,60
160,80,49993,6,0,P|161:139|134:192,1,120
56,220,50636,1,0,0:0:0:0:
56,220,50850,2,0,P|148:216|188:216,1,120
216,288,51493,1,0,0:0:0:0:
152,344,51707,5,0,0:0:0:0:
152,344,51921,2,0,P|132:296|136:268,2,60
232,372,52564,2,0,L|316:360,1,60
379,292,52993,2,0,L|320:284,1,60
256,232,53421,6,0,B|240:160|272:160|256:88,1,120
197,56,54064,1,0,0:0:0:0:
315,56,54279,2,0,P|333:88|334:135,1,60
357,248,54707,2,0,P|342:223|336:194,1,60
408,150,55136,6,0,P|424:142|447:137,3,30
475,183,55564,2,0,P|491:190|510:204,3,30
498,257,55993,2,0,P|503:274|504:297,3,30
453,317,56421,2,0,P|443:331|425:347,3,30
378,318,56850,6,0,P|351:321|316:316,1,60
260,256,57279,2,0,P|230:251|200:254,1,60
148,320,57707,2,0,P|118:323|88:318,1,60
37,251,58136,2,0,L|63:166,1,60
139,201,58564,6,0,L|148:320,1,120
216,369,59207,1,0,0:0:0:0:
290,290,59421,2,0,L|231:286,1,60
310,208,59850,2,0,L|369:212,1,60
432,156,60279,6,0,P|452:199|414:283,1,120
373,324,60921,1,0,0:0:0:0:
290,290,61136,2,0,P|312:256|340:240,1,60
292,168,61564,2,0,L|233:164,1,60
176,100,61993,5,0,0:0:0:0:
92,103,62207,2,0,P|97:73|112:51,2,30
59,180,62636,2,0,P|39:156|32:131,2,30
98,254,63064,1,0,0:0:0:0:
182,256,63279,2,0,L|258:245,1,60
244,331,63707,6,0,L|125:347,1,120
45,319,64350,1,0,0:0:0:0:
45,319,64564,2,0,P|38:289|48:255,1,60
108,205,64993,2,0,P|114:175|107:146,1,60
54,82,65421,6,0,P|101:62|172:90,1,120
229,135,66064,2,0,P|256:145|284:135,1,60
255,55,66493,1,0,0:0:0:0:
229,135,66707,2,0,L|226:200,1,60
151,233,67136,6,0,L|198:269,1,60
206,352,67564,2,0,L|264:338,1,60
339,377,67993,2,0,L|366:323,1,60
447,303,68421,2,0,L|423:247,1,60
480,185,68850,6,0,L|357:146,1,120
348,66,69493,1,0,0:0:0:0:
348,66,69707,2,0,L|405:83,1,60
287,124,70136,2,0,L|208:99,1,60
164,56,70564,6,0,P|148:100|188:176,1,120
244,216,71207,1,0,0:0:0:0:
244,216,71421,2,0,L|303:212,1,60
168,252,71850,2,0,L|96:256,1,60
148,328,72279,6,0,B|204:324|204:324|228:332|228:332|266:329,1,120
352,324,72921,1,0,0:0:0:0:
352,324,73136,2,0,P|364:276|364:244,1,60
408,192,73564,2,0,P|378:188|349:179,1,60
276,140,73993,6,0,P|275:199|250:253,1,120
172,280,74636,1,0,0:0:0:0:
172,280,74850,2,0,L|112:270,1,60
250,253,75279,2,0,L|280:304,1,60
188,200,75707,6,0,L|249:90,1,120
176,48,76350,2,0,L|112:48,1,60
247,95,76779,2,0,L|311:95,2,60
185,157,77421,6,0,P|160:104|176:48,1,120
336,48,78064,1,0,0:0:0:0:
335,47,78279,2,0,P|352:103|327:157,1,120
256,204,78921,2,0,L|256:284,1,60
316,324,79350,6,0,P|348:340|384:344,2,60
196,324,79993,2,0,P|164:340|128:344,1,60
64,308,80421,2,0,P|48:276|44:240,1,60
256,192,80850,12,0,82350,0:0:0:0:
448,76,82564,6,0,P|452:108|448:132,3,30
448,148,82993,2,0,P|444:180|448:204,3,30
448,220,83421,2,0,P|452:252|448:276,3,30
452,292,83850,2,0,P|454:308|452:320,7,15
464,332,84279,6,0,B|412:316|400:360|336:340,1,120
268,312,84921,1,0,0:0:0:0:
220,244,85136,2,0,P|214:214|216:184,1,60
316,184,85564,2,0,P|317:213|312:243,1,60
196,348,85993,6,0,L|120:340,1,60
56,253,86421,2,0,L|116:260,1,60
140,180,86850,2,0,P|153:114|148:48,1,120
76,24,87493,1,0,0:0:0:0:
4,64,87707,6,0,P|2:123|15:182,1,120
80,240,88350,1,0,0:0:0:0:
140,180,88564,2,0,L|224:172,1,60
299,242,88993,2,0,L|240:248,1,60
352,300,89421,6,0,P|376:258|370:221,1,60
369,120,89850,2,0,P|350:142|344:172,1,60
428,176,90279,2,0,P|448:144|424:60,1,120
352,40,90921,1,0,0:0:0:0:
268,36,91136,6,0,L|144:64,1,120
68,80,91779,1,0,0:0:0:0:
44,160,91993,2,0,P|104:156|124:144,1,60
242,128,92421,2,0,P|213:125|184:132,1,60
308,168,92850,6,0,P|318:140|318:110,1,60
232,204,93279,2,0,P|221:231|221:261,1,60
272,328,93707,2,0,B|336:348|336:308|408:336,1,120
472,356,94350,1,0,0:0:0:0:
464,272,94564,6,0,P|460:204|464:136,1,120
492,72,95207,2,0,P|424:76|356:72,1,120
296,39,95850,2,0,P|298:69|297:99,1,60
247,167,96279,6,0,P|259:177|276:184,3,30
316,188,96707,2,0,P|330:184|346:176,3,30
372,144,97136,2,0,P|378:130|382:113,3,30
384,76,97564,2,0,P|378:62|367:48,3,30
328,36,97993,6,0,B|272:31|272:31|259:38|259:38|199:32,1,120
144,88,98636,1,0,0:0:0:0:
191,160,98850,2,0,P|214:140|226:113,1,60
108,164,99279,2,0,P|80:192|72:224,1,60
144,88,99707,6,0,P|123:66|95:55,1,60
191,160,100136,2,0,P|211:181|239:192,1,60
324,204,100564,2,0,P|336:256|312:340,1,120
256,372,101207,1,0,0:0:0:0:
188,320,101421,6,0,P|175:262|188:204,1,120
256,154,102064,1,0,0:0:0:0:
294,79,102279,2,0,P|265:70|235:72,1,60
341,148,102707,2,0,P|384:157|420:145,1,60
326,30,103136,6,0,P|303:50|293:78,1,60
373,195,103564,2,0,P|363:167|341:148,1,60
302,222,103993,2,0,P|337:262|414:260,1,120
456,203,104636,1,0,0:0:0:0:
466,119,104850,6,0,L|337:129,1,120
262,134,105493,1,0,0:0:0:0:
180,113,105707,2,0,P|191:86|213:65,1,60
197,195,106136,2,0,P|147:189|124:173,1,60
262,134,106564,6,0,P|285:176|286:201,1,60
275,317,106993,2,0,P|258:292|251:264,1,60
331,264,107421,2,0,P|351:314|327:374,1,120
244,380,108064,1,0,0:0:0:0:
166,346,108279,6,0,L|172:218,1,120
98,185,108921,1,0,0:0:0:0:
98,185,109136,2,0,L|92:313,1,120
19,263,109779,1,0,0:0:0:0:
19,263,109993,6,0,L|25:135,1,120
100,104,110636,1,0,0:0:0:0:
180,136,110850,2,0,B|244:156|244:120|304:136,1,120
380,156,111493,1,0,0:0:0:0:
440,216,111707,6,0,P|460:184|445:102,1,120
388,46,112350,1,0,0:0:0:0:
321,96,112564,2,0,P|301:128|316:210,1,120
371,266,113207,1,0,0:0:0:0:
422,332,113421,6,0,P|385:346|345:342,1,60
313,280,113850,2,0,P|350:266|390:270,1,60
265,342,114279,2,0,P|236:296|255:226,1,120
298,167,114921,1,0,0:0:0:0:
350,100,115136,6,0,P|296:83|230:114,1,120
172,157,115779,1,0,0:0:0:0:
110,214,115993,2,0,P|55:235|-1:219,1,120
51,153,116636,1,0,0:0:0:0:
110,214,116850,6,0,P|119:274|114:296,1,60
194,235,117279,2,0,P|222:226|252:225,1,60
143,138,117707,2,0,P|81:135|30:181,1,120
31,252,118350,1,0,0:0:0:0:
36,335,118564,6,0,P|97:366|154:360,1,120
217,316,119207,1,0,0:0:0:0:
257,242,119421,2,0,L|237:103,1,120
180,63,120064,1,0,0:0:0:0:
143,138,120279,6,0,P|129:182|134:208,1,60
197,247,120707,2,0,L|256:241,1,60
310,176,121136,2,0,P|341:236|323:293,1,120
274,348,121779,1,0,0:0:0:0:
357,359,121993,6,0,L|437:359,1,60
388,284,122421,2,0,L|328:284,1,60
357,205,122850,2,0,L|437:205,1,60
388,130,123279,2,0,L|328:130,1,60
373,58,123707,6,0,P|387:53|402:54,3,30
442,68,124136,2,0,P|454:76|463:88,3,30
478,127,124564,2,0,P|479:141|476:156,3,30
460,195,124993,2,0,P|449:205|436:212,3,30
395,222,125421,5,0,0:0:0:0:
92,68,139136,6,0,P|68:124|84:180,1,120
152,228,139779,1,0,0:0:0:0:
152,228,139993,2,0,L|212:220,1,60
292,248,140421,2,0,L|352:240,1,60
476,156,140850,6,0,P|420:132|364:148,1,120
292,104,141493,1,0,0:0:0:0:
292,104,141707,2,0,P|235:119|181:95,1,120
96,96,142350,1,0,0:0:0:0:
130,228,142564,6,0,L|138:168,1,60
216,228,142993,2,0,L|208:288,1,60
51,287,143421,2,0,P|27:231|43:175,1,120
112,128,144064,1,0,0:0:0:0:
192,156,144279,6,0,L|312:156,2,120
112,128,145350,1,0,0:0:0:0:
42,176,145564,2,0,L|50:236,1,60
52,332,145993,6,0,P|108:308|164:324,1,120
220,384,146636,1,0,0:0:0:0:
292,340,146850,2,0,L|300:280,1,60
384,292,147279,2,0,L|376:352,1,60
220,384,147707,6,0,P|196:328|212:272,1,120
291,169,148350,2,0,P|315:225|299:281,1,120
211,273,148993,2,0,L|151:273,1,60
36,164,149421,6,0,P|48:192|44:220,1,60
173,120,149850,2,0,P|150:140|122:144,1,60
257,236,150279,2,0,P|230:220|217:195,1,60
173,353,150707,2,0,P|179:323|199:302,1,60
36,308,151136,6,0,P|66:305|91:317,1,60
256,312,151564,2,0,P|225:314|200:302,1,60
68,212,151993,2,0,P|98:209|123:221,1,60
288,216,152421,2,0,P|257:218|232:206,1,60
224,196,152743,1,0,0:0:0:0:
216,188,152850,6,0,L|216:128,1,60
256,52,153279,1,0,0:0:0:0:
256,52,153493,1,0,0:0:0:0:
136,156,153707,6,0,L|136:96,1,60
216,128,154136,2,0,L|216:188,1,60
296,188,154564,6,0,L|296:128,1,60
256,52,154993,1,0,0:0:0:0:
256,52,155207,1,0,0:0:0:0:
376,156,155421,6,0,L|376:96,1,60
296,128,155850,2,0,L|296:188,1,60
328,292,156279,6,0,B|368:292|368:292|404:276|404:276|444:276,2,120
250,321,157350,1,0,0:0:0:0:
221,242,157564,1,0,0:0:0:0:
300,213,157779,1,0,0:0:0:0:
328,292,157993,6,0,B|368:292|368:292|404:308|404:308|444:308,2,120
250,321,159064,1,0,0:0:0:0:
221,242,159279,2,0,P|189:242|161:250,1,60
300,213,159707,6,0,P|360:213|420:197,1,120
468,264,160350,1,0,0:0:0:0:
468,264,160564,2,0,P|468:204|484:144,1,120
452,68,161207,1,0,0:0:0:0:
372,100,161421,5,0,0:0:0:0:
300,60,161636,2,0,P|272:52|240:52,2,60
302,143,162279,2,0,L|294:203,1,60
212,192,162707,2,0,L|220:132,1,60
240,284,163136,6,0,P|182:268|122:268,2,120
312,328,164207,2,0,P|340:320|372:320,2,60
314,243,164850,2,0,L|322:215,3,30
252,188,165279,2,0,L|244:160,3,30
314,133,165707,2,0,L|322:105,3,30
284,36,166136,2,0,P|312:28|344:28,1,60
420,68,166564,6,0,P|444:124|428:180,1,120
360,228,167207,1,0,0:0:0:0:
360,228,167421,2,0,L|300:220,1,60
220,248,167850,2,0,L|160:240,1,60
36,156,168279,6,0,P|92:132|148:148,1,120
220,104,168921,1,0,0:0:0:0:
220,104,169136,2,0,P|277:119|331:95,1,120
416,96,169779,1,0,0:0:0:0:
382,228,169993,6,0,L|374:168,1,60
296,228,170421,2,0,L|304:288,1,60
461,287,170850,2,0,P|485:231|469:175,1,120
400,128,171493,1,0,0:0:0:0:
320,156,171707,6,0,L|200:156,2,120
400,128,172779,1,0,0:0:0:0:
470,176,172993,2,0,L|462:236,1,60
460,332,173421,6,0,P|404:308|348:324,1,120
292,384,174064,1,0,0:0:0:0:
220,340,174279,2,0,L|212:280,1,60
128,292,174707,2,0,L|136:352,1,60
292,384,175136,6,0,P|316:328|300:272,1,120
221,169,175779,2,0,P|197:225|213:281,1,120
301,273,176421,2,0,L|361:273,1,60
476,164,176850,6,0,P|464:192|468:220,1,60
339,120,177279,2,0,P|362:140|390:144,1,60
255,236,177707,2,0,P|282:220|295:195,1,60
339,353,178136,2,0,P|333:323|313:302,1,60
476,308,178564,6,0,P|446:305|421:317,1,60
256,312,178993,2,0,P|287:314|312:302,1,60
444,212,179421,2,0,P|414:209|389:221,1,60
224,216,179850,2,0,P|255:218|280:206,1,60
288,196,180171,1,0,0:0:0:0:
296,188,180279,6,0,L|296:128,1,60
256,52,180707,1,0,0:0:0:0:
256,52,180921,1,0,0:0:0:0:
376,156,181136,6,0,L|376:96,1,60
296,128,181564,2,0,L|296:188,1,60
216,188,181993,6,0,L|216:128,1,60
256,52,182421,1,0,0:0:0:0:
256,52,182636,1,0,0:0:0:0:
136,156,182850,6,0,L|136:96,1,60
216,128,183279,2,0,L|216:188,1,60
184,292,183707,6,0,B|144:292|144:292|108:276|108:276|68:276,2,120
262,321,184779,1,0,0:0:0:0:
291,242,184993,1,0,0:0:0:0:
212,213,185207,1,0,0:0:0:0:
184,292,185421,6,0,B|144:292|144:292|108:308|108:308|68:308,2,120
262,321,186493,1,0,0:0:0:0:
291,242,186707,2,0,P|323:242|351:250,1,60
212,213,187136,6,0,P|152:213|92:197,1,120
44,264,187779,1,0,0:0:0:0:
44,264,187993,2,0,P|44:204|28:144,1,120
60,68,188636,1,0,0:0:0:0:
140,100,188850,5,0,0:0:0:0:
212,60,189064,2,0,P|240:52|272:52,2,60
210,143,189707,2,0,L|218:203,1,60
300,192,190136,2,0,L|292:132,1,60
406,152,190564,6,0,P|276:323|104:190,1,480
256,192,192386,12,0,193564,0:0:0:0:
256,316,193993,5,0,0:0:0:0:
325,265,194207,1,0,0:0:0:0:
406,294,194421,1,0,0:0:0:0:
325,265,194636,5,0,0:0:0:0:
244,236,194850,1,0,0:0:0:0:
175,286,195064,1,0,0:0:0:0:
244,236,195279,5,0,0:0:0:0:
314,186,195493,1,0,0:0:0:0:
395,215,195707,1,0,0:0:0:0:
314,186,195921,5,0,0:0:0:0:
233,157,196136,1,0,0:0:0:0:
164,207,196350,1,0,0:0:0:0:
244,236,196564,6,0,L|300:256,1,60
164,207,196993,2,0,L|108:187,1,60
244,236,197421,5,0,0:0:0:0:
314,186,197636,1,0,0:0:0:0:
305,100,197850,1,0,0:0:0:0:
314,186,198064,5,0,0:0:0:0:
322,271,198279,1,0,0:0:0:0:
401,306,198493,1,0,0:0:0:0:
322,271,198707,5,0,0:0:0:0:
244,235,198921,1,0,0:0:0:0:
174,286,199136,1,0,0:0:0:0:
244,235,199350,5,0,0:0:0:0:
314,185,199564,1,0,0:0:0:0:
305,99,199779,1,0,0:0:0:0:
234,156,199993,6,0,L|178:136,1,60
314,185,200421,2,0,L|370:205,1,60
460,180,200850,5,0,0:0:0:0:
460,180,201064,2,0,P|464:152|460:120,1,60
370,205,201493,5,0,0:0:0:0:
370,205,201707,2,0,P|374:233|370:265,1,60
280,180,202136,5,0,0:0:0:0:
280,180,202350,2,0,P|284:152|280:120,1,60
190,205,202779,5,0,0:0:0:0:
190,205,202993,2,0,P|194:233|190:265,1,60
280,180,203421,6,0,L|336:200,1,60
190,205,203850,2,0,L|134:185,1,60
280,180,204279,5,0,0:0:0:0:
359,208,204493,1,0,0:0:0:0:
331,287,204707,1,0,0:0:0:0:
252,258,204921,1,0,0:0:0:0:
280,180,205136,2,0,L|300:124,2,60
252,258,205779,1,0,0:0:0:0:
256,192,205993,12,0,207279,0:0:0:0:
88,300,207707,5,0,0:0:0:0:
170,279,207921,1,0,0:0:0:0:
110,219,208136,1,0,0:0:0:0:
170,279,208350,5,0,0:0:0:0:
252,258,208564,1,0,0:0:0:0:
192,198,208779,1,0,0:0:0:0:
252,258,208993,5,0,0:0:0:0:
334,237,209207,1,0,0:0:0:0:
274,177,209421,1,0,0:0:0:0:
334,237,209636,5,0,0:0:0:0:
416,216,209850,1,0,0:0:0:0:
356,156,210064,1,0,0:0:0:0:
334,237,210279,6,0,L|214:237,1,120
29,176,211136,5,0,0:0:0:0:
110,154,211350,1,0,0:0:0:0:
132,236,211564,1,0,0:0:0:0:
110,154,211779,5,0,0:0:0:0:
191,132,211993,1,0,0:0:0:0:
213,214,212207,1,0,0:0:0:0:
191,132,212421,5,0,0:0:0:0:
272,110,212636,1,0,0:0:0:0:
294,192,212850,1,0,0:0:0:0:
272,110,213064,5,0,0:0:0:0:
353,88,213279,1,0,0:0:0:0:
375,170,213493,1,0,0:0:0:0:
353,88,213707,6,0,L|236:120,1,120
52,180,214564,5,0,0:0:0:0:
52,180,214779,2,0,P|48:152|52:120,1,60
142,205,215207,5,0,0:0:0:0:
142,205,215421,2,0,P|138:233|142:265,1,60
232,180,215850,5,0,0:0:0:0:
232,180,216064,2,0,P|228:152|232:120,1,60
322,205,216493,5,0,0:0:0:0:
322,205,216707,2,0,P|318:233|322:265,1,60
376,348,217136,6,0,L|256:348,1,120
76,348,217993,6,0,P|68:320|72:288,2,60
224,284,218636,2,0,P|232:256|228:224,2,60
92,220,219279,2,0,P|84:192|88:160,1,60
216,128,219707,6,0,L|248:132,3,30
292,192,220136,2,0,L|324:188,3,30
328,112,220564,2,0,L|360:116,3,30
404,176,220993,2,0,L|436:172,3,30
256,192,221421,12,0,224421,0:0:0:0:
420,316,224850,6,0,P|444:260|428:204,2,120
344,348,225921,1,0,0:0:0:0:
344,348,226136,2,0,L|284:340,1,60
168,348,226564,6,0,L|184:228,2,120
80,308,227636,2,0,L|88:248,1,60
168,348,228279,6,0,L|184:228,2,120
80,308,229350,1,0,0:0:0:0:
80,308,229564,2,0,L|88:248,1,60
151,153,229993,6,0,P|95:129|39:145,2,120
183,229,231064,2,0,L|175:289,1,60
151,153,231707,6,0,P|95:129|39:145,2,120
183,229,232779,1,0,0:0:0:0:
183,229,232993,2,0,L|175:289,1,60
292,332,233421,6,0,L|412:348,2,120
332,244,234493,2,0,L|392:252,1,60
183,229,235136,6,0,L|167:349,2,120
220,156,236207,1,0,0:0:0:0:
296,192,236421,2,0,P|304:164|300:132,1,60
256,60,236850,6,0,P|196:68|140:52,1,120
124,236,237707,2,0,P|184:228|240:244,1,120
272,164,238350,1,0,0:0:0:0:
329,229,238564,6,0,L|345:349,2,120
292,156,239636,1,0,0:0:0:0:
216,192,239850,2,0,P|208:164|212:132,1,60
256,60,240279,6,0,P|316:68|372:52,1,120
388,236,241136,2,0,P|328:228|272:244,1,120
240,164,241779,1,0,0:0:0:0:
176,220,241993,6,0,L|56:220,2,120
271,244,243064,1,0,0:0:0:0:
271,244,243279,2,0,L|331:244,1,60
436,272,243707,6,0,P|452:214|444:155,1,120
300,28,244564,2,0,P|283:85|291:144,1,120
252,220,245207,1,0,0:0:0:0:
336,220,245421,6,0,L|456:220,2,120
241,244,246493,1,0,0:0:0:0:
241,244,246707,2,0,L|181:244,1,60
76,272,247136,6,0,P|59:214|67:155,1,120
212,28,247993,2,0,P|228:85|220:144,1,120
252,220,248636,1,0,0:0:0:0:
176,220,248850,5,0,0:0:0:0:
