osu file format v14

[General]
AudioFilename: 01. .mp3
AudioLeadIn: 0
PreviewTime: -1
Countdown: 0
SampleSet: Soft
StackLeniency: 0.7
Mode: 0
LetterboxInBreaks: 1
WidescreenStoryboard: 1

[Editor]
Bookmarks: 13541,41904
DistanceSpacing: 0.5
BeatDivisor: 4
GridSize: 4
TimelineZoom: 1

[Metadata]
Title:Kanjou Chemistry
TitleUnicode:感情ケミストリー
Artist:senya
ArtistUnicode:幽閉サテライト
Creator:Haneure
Version:Lunatic
Source:Touhou
Tags:
BeatmapID:1687499
BeatmapSetID:259335

[Difficulty]
HPDrainRate:7
CircleSize:4
OverallDifficulty:7.5
ApproachRate:9
SliderMultiplier:1.6
SliderTickRate:2

[Events]
//Background and Video events
0,0,"hijiri byakuren.jpg",0,0
//Break Periods
2,94741,105577
2,164559,175395
2,187832,198668
//Storyboard Layer 0 (Background)
//Storyboard Layer 1 (Fail)
//Storyboard Layer 2 (Pass)
//Storyboard Layer 3 (Foreground)
//Storyboard Sound Samples

[TimingPoints]
1450,363.636363636364,4,2,1,100,1,0
1491,-166.666666666667,4,2,1,20,0,0
2904,-100,4,2,1,80,0,0
3086,-166.666666666667,4,2,1,20,0,0
4359,-166.666666666667,4,2,1,50,0,0
5086,-166.666666666667,4,2,1,15,0,0
5632,-125,4,2,1,15,0,0
6541,-166.666666666667,4,2,1,40,0,0
24722,-100,4,2,1,60,0,0
30511,-100,4,2,1,60,0,0
30541,-100,4,2,3,60,0,0
31541,-100,4,2,4,60,0,0
31722,-100,4,2,3,60,0,0
35632,-117.647058823529,4,2,1,90,0,0
36359,-90.9090909090909,4,2,1,60,0,0
47268,-90.9090909090909,4,3,0,50,0,0
47632,-90.9090909090909,4,3,0,65,0,0
47813,-90.9090909090909,4,3,0,90,0,0
47935,-90.9090909090909,4,2,1,90,0,0
48086,-90.9090909090909,4,2,3,60,0,0
48995,-90.9090909090909,4,2,4,60,0,0
49177,-90.9090909090909,4,2,3,60,0,0
58904,-90.9090909090909,4,3,0,90,0,0
59261,-90.9090909090909,4,2,1,60,0,0
59359,-90.9090909090909,4,2,3,60,0,0
59632,-90.9090909090909,4,2,3,60,0,0
60995,-90.9090909090909,4,2,1,60,0,0
61177,-90.9090909090909,4,2,3,60,0,0
71268,-80,4,2,2,85,0,1
82177,-80,4,3,1,85,0,1
82904,-80,4,2,2,85,0,1
85086,-80,4,2,2,85,0,1
93995,-71.4285714285714,4,2,2,85,0,1
106177,-133.333333333333,4,2,1,50,0,0
117813,-90.9090909090909,4,2,1,50,0,0
129359,-90.9090909090909,4,2,1,50,0,0
129541,-90.9090909090909,4,2,3,50,0,0
135722,-90.9090909090909,4,2,1,50,0,0
135904,-90.9090909090909,4,2,3,50,0,0
137195,-90.9090909090909,4,2,1,50,0,0
137359,-90.9090909090909,4,2,3,50,0,0
141086,-80,4,2,2,85,0,1
151995,-80,4,3,2,85,0,1
152722,-80,4,2,2,85,0,1
175995,-80,4,2,2,85,0,1
187632,-133.333333333333,4,2,1,40,0,0
193450,-200,4,2,1,40,0,0
194904,-133.333333333333,4,2,1,40,0,0
199268,-133.333333333333,4,2,2,50,0,0
199995,-100,4,2,2,50,0,0
200722,-133.333333333333,4,2,2,55,0,0
205086,-133.333333333333,4,2,2,45,0,0
206177,-100,4,2,2,45,0,0
206541,-133.333333333333,4,2,2,55,0,0
207632,-100,4,2,2,55,0,0
207995,-100,4,2,2,70,0,0
209456,-100,4,2,2,90,0,0
210904,-80,4,2,2,85,0,1
221813,-80,4,3,2,85,0,1
222541,-80,4,2,2,85,0,1
233632,-71.4285714285714,4,2,2,85,0,1
236995,-71.4285714285714,4,2,2,85,0,1

[Colours]
Combo1 : 254,222,1
Combo2 : 165,1,5
Combo3 : 96,2,157

[HitObjects]
117,48,1450,6,0,P|166:32|205:29,1,80,2|0,0:0|0:0,0:0:0:0:
185,126,1813,2,0,P|222:128|251:137,1,47.9999985351563,0|0,0:0|0:0,0:0:0:0:
201,221,2177,2,0,P|226:241|247:266,1,47.9999985351563,0|0,0:0|0:0,0:0:0:0:
232,344,2541,2,0,P|262:346|297:339,1,47.9999985351563,0|0,0:0|0:0,0:0:0:0:
325,226,2904,6,0,P|358:246|387:284,1,80,2|0,0:0|0:0,0:0:0:0:
278,134,3268,2,0,P|309:128|335:127,1,47.9999985351563,0|0,0:0|0:0,0:0:0:0:
201,220,3632,2,0,P|170:226|144:227,1,47.9999985351563,0|0,0:0|0:0,0:0:0:0:
28,160,3995,2,0,P|59:154|85:153,1,47.9999985351563,0|0,0:0|0:0,0:0:0:0:
182,85,4359,6,0,B|221:61|254:86|289:112|325:90,1,143.999995605469,2|0,0:0|0:0,0:0:0:0:
416,44,5086,1,2,0:0:0:0:
428,67,5177,1,2,0:0:0:0:
436,92,5268,1,2,0:0:0:0:
436,118,5359,1,2,0:0:0:0:
429,143,5450,1,2,0:0:0:0:
414,164,5541,1,0,0:0:0:0:
387,187,5632,1,2,0:0:0:0:
366,215,5722,1,2,0:0:0:0:
360,249,5813,5,2,0:0:0:0:
368,283,5904,1,2,0:0:0:0:
388,311,5995,1,2,0:0:0:0:
420,325,6086,1,2,0:0:0:0:
455,326,6177,2,0,L|490:323,2,32,2|2|2,0:0|0:0|0:0,0:0:0:0:
444,246,6541,6,0,P|416:224|339:197,1,95.9999970703126,2|2,0:0|0:0,0:0:0:0:
256,242,7268,2,0,P|256:178|351:90,1,191.999994140625,4|0,0:0|0:0,0:0:0:0:
342,92,8359,1,0,0:0:0:0:
238,120,8722,6,0,P|197:114|181:108,1,47.9999985351563,2|2,0:0|0:0,0:0:0:0:
396,179,9086,2,0,P|431:185|454:195,1,47.9999985351563,2|2,0:0|0:0,0:0:0:0:
240,216,9450,2,0,P|205:210|182:200,1,47.9999985351563,2|2,0:0|0:0,0:0:0:0:
260,299,9995,6,0,P|298:283|287:149,1,191.999994140625,2|0,0:0|0:0,0:0:0:0:
240,216,10904,2,0,L|184:204,1,47.9999985351563,0|0,0:0|0:0,0:0:0:0:
125,142,11268,1,0,0:0:0:0:
103,61,11450,6,0,P|65:77|76:211,1,191.999994140625,0|0,0:0|0:0,0:0:0:0:
213,131,12359,2,0,L|266:107,1,47.9999985351563,2|0,0:0|0:0,0:0:0:0:
315,252,12722,2,0,L|330:196,1,47.9999985351563,2|0,0:0|0:0,0:0:0:0:
362,47,13086,1,4,0:0:0:0:
373,35,14177,5,0,0:0:0:0:
437,134,14541,2,0,B|413:188|369:197|369:197|360:188|353:177|347:168|333:161|320:157|301:156|287:161|276:171,1,191.999994140625,2|0,0:0|0:0,0:0:0:0:
281,267,15450,2,0,P|241:261|227:256,1,47.9999985351563,0|0,0:0|0:0,0:0:0:0:
129,220,15813,1,0,0:0:0:0:
213,40,15995,6,0,P|244:44|267:51,1,47.9999985351563,6|0,0:0|0:0,0:0:0:0:
381,128,16359,1,0,0:0:0:0:
223,169,16541,2,0,P|247:189|266:199,1,47.9999985351563,2|0,0:0|0:0,0:0:0:0:
427,253,16904,1,0,0:0:0:0:
294,329,17086,2,0,P|255:334|229:336,1,47.9999985351563,2|0,0:0|0:0,0:0:0:0:
229,336,17450,5,0,0:0:0:0:
133,275,17813,1,2,0:0:0:0:
300,255,18177,1,2,0:0:0:0:
86,178,18541,1,2,0:0:0:0:
160,59,18904,6,0,B|190:52|219:56|246:87|242:121|233:145|233:145|265:145|285:135|293:118,1,191.999994140625,4|0,0:0|0:0,0:0:0:0:
384,68,19995,6,0,P|408:99|419:123,1,47.9999985351563,0|0,0:0|0:0,0:0:0:0:
456,284,20359,2,0,P|359:307|296:244,1,191.999994140625,4|0,0:0|0:0,0:0:0:0:
256,125,21450,1,0,0:0:0:0:
256,192,21813,12,0,24359,0:0:0:0:
102,49,24722,5,2,0:0:0:0:
81,189,24904,1,2,0:0:0:0:
198,124,25086,2,0,L|299:114,1,80,0|0,0:0|0:0,0:0:0:0:
394,52,25450,2,0,L|426:17,2,40,0|0|0,0:0|0:0|0:0,0:0:0:0:
419,157,25813,1,0,0:0:0:0:
405,185,25904,1,0,0:0:0:0:
396,215,25995,1,0,0:0:0:0:
387,246,26086,1,0,0:0:0:0:
379,277,26177,6,0,P|371:324|367:370,1,80,2|0,0:0|0:0,0:0:0:0:
144,356,26541,2,0,P|139:316|133:277,1,80,0|0,0:0|0:0,0:0:0:0:
87,119,26904,2,0,L|34:106,2,40,0|0|0,0:0|0:0|0:0,0:0:0:0:
81,214,27268,2,0,P|127:204|171:202,1,80,0|0,0:0|0:0,0:0:0:0:
329,124,27632,6,0,P|286:132|243:134,1,80,2|0,0:0|0:0,0:0:0:0:
164,262,27995,1,0,0:0:0:0:
172,73,28177,1,0,0:0:0:0:
248,222,28359,2,0,P|273:273|281:304,1,80,0|0,0:0|0:0,0:0:0:0:
163,167,28722,1,0,0:0:0:0:
82,302,28904,1,0,0:0:0:0:
256,239,29086,6,0,P|310:235|352:228,1,80,2|0,0:0|0:0,0:0:0:0:
481,313,29450,2,0,P|427:317|385:324,1,80,0|0,0:0|0:0,0:0:0:0:
330,131,29813,1,0,0:0:0:0:
264,259,29995,1,0,0:0:0:0:
458,217,30177,1,2,0:0:0:0:
464,189,30268,1,0,0:0:0:0:
466,161,30359,1,0,0:0:0:0:
467,133,30450,1,0,0:0:0:0:
468,104,30541,2,0,P|462:52|454:17,1,80,2|0,0:0|0:0,0:0:0:0:
331,132,30904,6,0,P|248:110|162:102,1,160,8|0,0:0|0:0,0:0:0:0:
22,121,31450,1,2,0:0:0:0:
41,28,31632,1,0,0:0:0:0:
102,172,31813,1,0,0:0:0:0:
27,288,31995,6,0,P|110:310|196:318,1,160,2|8,0:0|0:0,0:0:0:0:
257,191,32541,1,0,0:0:0:0:
174,102,32722,2,0,P|168:148|154:186,1,80,0|0,0:0|0:0,0:0:0:0:
265,292,33086,2,0,P|271:246|285:208,1,80,8|0,0:0|0:0,0:0:0:0:
289,81,33450,2,0,L|456:63,1,160,2|8,0:0|0:0,0:0:0:0:
398,174,33995,2,0,P|370:210|357:246,1,80,0|0,0:0|0:0,0:0:0:0:
359,342,34359,1,0,0:0:0:0:
453,278,34541,1,8,0:0:0:0:
453,278,34632,1,0,0:0:0:0:
453,278,34722,1,0,0:0:0:0:
292,183,34904,5,0,0:0:0:0:
262,170,34995,1,0,0:0:0:0:
230,171,35086,1,0,0:0:0:0:
200,182,35177,1,0,0:0:0:0:
177,204,35268,1,8,0:0:0:0:
162,232,35359,1,0,0:0:0:0:
154,263,35450,1,0,0:0:0:0:
134,249,35541,1,0,0:0:0:0:
117,237,35632,1,0,0:0:0:0:
100,225,35722,1,0,0:0:0:0:
83,213,35813,1,0,0:0:0:0:
65,201,35904,1,0,0:0:0:0:
47,189,35995,1,8,0:0:0:0:
47,189,36359,6,0,P|107:161|159:61,1,176.000005371094,2|0,0:0|0:0,0:0:0:0:
274,82,36904,2,0,L|377:77,1,88.000002685547,0|0,0:0|0:0,0:0:0:0:
462,42,37268,1,0,0:0:0:0:
371,121,37450,2,0,P|366:194|370:226,1,88.000002685547,0|0,0:0|0:0,0:0:0:0:
376,243,37722,1,0,0:0:0:0:
393,279,37813,6,0,P|341:286|287:284,1,88.000002685547,0|0,0:0|0:0,0:0:0:0:
185,233,38177,1,0,0:0:0:0:
301,149,38359,2,0,P|352:144|395:148,1,88.000002685547,0|0,0:0|0:0,0:0:0:0:
462,249,38722,2,0,L|453:342,1,88.000002685547,0|0,0:0|0:0,0:0:0:0:
264,266,39086,2,0,L|272:178,1,88.000002685547,0|0,0:0|0:0,0:0:0:0:
272,160,39632,5,0,0:0:0:0:
172,52,39813,1,0,0:0:0:0:
60,132,39995,2,0,P|53:194|54:227,1,88.000002685547,0|0,0:0|0:0,0:0:0:0:
163,305,40359,2,0,P|170:243|169:210,1,88.000002685547,0|0,0:0|0:0,0:0:0:0:
170,101,40722,5,0,0:0:0:0:
170,101,40813,1,0,0:0:0:0:
170,101,40904,1,0,0:0:0:0:
258,47,41086,2,0,L|351:39,1,88.000002685547,0|0,0:0|0:0,0:0:0:0:
481,184,41450,2,0,L|388:192,1,88.000002685547,0|0,0:0|0:0,0:0:0:0:
303,268,41813,1,0,0:0:0:0:
285,157,41995,1,0,0:0:0:0:
88,32,42177,6,0,L|112:208,1,176.000005371094,0|0,0:0|0:0,0:0:0:0:
145,318,42722,2,0,P|187:308|228:291,1,88.000002685547,0|0,0:0|0:0,0:0:0:0:
363,223,43086,1,0,0:0:0:0:
298,96,43268,2,0,P|271:134|257:178,1,88.000002685547,0|0,0:0|0:0,0:0:0:0:
285,199,43541,1,0,0:0:0:0:
317,214,43632,6,0,B|364:229|401:204|401:204|438:231|448:283,1,176.000005371094,0|0,0:0|0:0,0:0:0:0:
255,302,44177,1,0,0:0:0:0:
192,129,44359,2,0,P|168:170|158:216,1,88.000002685547,0|0,0:0|0:0,0:0:0:0:
255,302,44722,1,0,0:0:0:0:
60,317,44904,1,0,0:0:0:0:
60,317,44995,1,0,0:0:0:0:
60,317,45086,1,0,0:0:0:0:
80,238,45268,6,0,L|107:138,1,88.000002685547,0|0,0:0|0:0,0:0:0:0:
131,54,45632,1,0,0:0:0:0:
38,102,45813,1,0,0:0:0:0:
197,128,45995,2,0,P|254:120|294:105,1,88.000002685547,0|0,0:0|0:0,0:0:0:0:
449,149,46359,2,0,P|416:175|373:192,1,88.000002685547,0|0,0:0|0:0,0:0:0:0:
345,199,46632,1,0,0:0:0:0:
311,202,46722,2,0,P|301:245|302:289,1,88.000002685547,0|0,0:0|0:0,0:0:0:0:
428,336,47086,1,0,0:0:0:0:
467,241,47268,6,0,L|490:246,4,22.0000006713867,0|0|0|0|0,0:0|0:0|0:0|0:0|0:0,0:0:0:0:
356,103,47632,1,0,0:0:0:0:
326,94,47722,1,0,0:0:0:0:
298,79,47813,1,0,0:0:0:0:
276,56,47904,1,0,0:0:0:0:
261,28,47995,6,0,P|213:32|109:62,1,132.00000402832,4|0,0:0|0:0,0:0:0:0:
94,40,48359,1,8,0:0:0:0:
69,166,48541,2,0,P|76:214|72:267,1,88.000002685547,0|0,0:0|0:0,0:0:0:0:
188,231,48904,1,0,0:0:0:0:
60,350,49086,2,0,L|158:343,1,88.000002685547,0|0,0:0|0:0,0:0:0:0:
300,136,49450,6,0,P|307:231|304:275,1,132.00000402832,4|0,0:0|0:0,0:0:0:0:
296,306,49813,1,10,0:0:0:0:
188,231,49995,1,0,0:0:0:0:
355,204,50177,2,0,P|415:207|462:222,1,88.000002685547,2|0,0:0|0:0,0:0:0:0:
296,306,50541,1,10,0:0:0:0:
211,148,50722,1,0,0:0:0:0:
170,321,50904,1,2,0:0:0:0:
170,321,51268,6,0,L|172:227,1,88.000002685547,8|0,0:0|0:0,0:0:0:0:
34,162,51632,2,0,P|48:219|85:257,1,88.000002685547,0|0,0:0|0:0,0:0:0:0:
211,148,51995,1,8,0:0:0:0:
119,82,52177,1,0,0:0:0:0:
106,294,52359,2,0,P|155:301|203:316,1,88.000002685547,0|0,0:0|0:0,0:0:0:0:
222,322,52632,1,0,0:0:0:0:
263,330,52722,2,0,P|265:280|278:229,1,88.000002685547,8|0,0:0|0:0,0:0:0:0:
446,159,53086,2,0,L|347:168,1,88.000002685547,2|0,0:0|0:0,0:0:0:0:
195,69,53450,2,0,L|305:60,1,88.000002685547,10|0,0:0|0:0,0:0:0:0:
219,186,53813,6,0,P|156:158|115:88,1,132.00000402832,0|0,0:0|0:0,0:0:0:0:
113,75,54177,1,8,0:0:0:0:
132,190,54359,2,0,P|109:239|100:278,1,88.000002685547,0|0,0:0|0:0,0:0:0:0:
253,333,54722,1,0,0:0:0:0:
159,352,54904,1,8,0:0:0:0:
286,245,55086,6,0,P|340:266|404:322,1,132.00000402832,0|0,0:0|0:0,0:0:0:0:
416,343,55450,1,0,0:0:0:0:
431,201,55632,2,0,L|453:108,1,88.000002685547,8|0,0:0|0:0,0:0:0:0:
285,58,55995,1,0,0:0:0:0:
390,20,56177,1,0,0:0:0:0:
340,157,56359,2,0,P|286:157|249:149,1,88.000002685547,8|0,0:0|0:0,0:0:0:0:
177,38,56722,5,0,0:0:0:0:
285,58,56904,1,0,0:0:0:0:
161,148,57086,1,8,0:0:0:0:
38,198,57268,1,0,0:0:0:0:
70,103,57450,1,0,0:0:0:0:
127,253,57632,1,0,0:0:0:0:
255,203,57813,1,8,0:0:0:0:
228,304,57995,1,0,0:0:0:0:
461,256,58177,6,0,B|408:260|373:281|373:281|348:325,1,132.00000402832,2|0,0:0|0:0,0:0:0:0:
345,346,58541,1,10,0:0:0:0:
250,177,58722,1,0,0:0:0:0:
166,296,58904,5,0,0:0:0:0:
137,275,58995,1,0,0:0:0:0:
118,244,59086,1,0,0:0:0:0:
106,210,59177,1,0,0:0:0:0:
101,175,59268,1,2,0:0:0:0:
102,139,59359,1,0,0:0:0:0:
115,106,59450,1,0,0:0:0:0:
133,76,59541,1,2,0:0:0:0:
163,57,59632,6,0,L|308:45,1,132.00000402832,0|0,0:0|0:0,0:0:0:0:
330,41,59995,1,8,0:0:0:0:
462,50,60177,1,0,0:0:0:0:
420,190,60359,2,0,P|375:180|330:152,1,88.000002685547,0|0,0:0|0:0,0:0:0:0:
315,136,60632,1,0,0:0:0:0:
293,114,60722,2,0,P|249:134|215:167,1,88.000002685547,8|0,0:0|0:0,0:0:0:0:
295,281,61086,6,0,P|231:289|133:279,1,132.00000402832,6|0,0:0|0:0,0:0:0:0:
126,280,61450,1,8,0:0:0:0:
229,341,61632,1,0,0:0:0:0:
351,184,61813,2,0,P|411:180|449:186,1,88.000002685547,2|0,0:0|0:0,0:0:0:0:
227,127,62177,1,10,0:0:0:0:
323,63,62359,1,0,0:0:0:0:
214,238,62541,6,0,B|174:210|131:206|131:206|94:236|47:236,1,176.000005371094,0|8,0:0|0:0,0:0:0:0:
123,325,63086,1,2,0:0:0:0:
59,132,63268,2,0,P|109:90|123:63,1,88.000002685547,0|0,0:0|0:0,0:0:0:0:
22,41,63632,1,8,0:0:0:0:
172,152,63813,2,0,L|322:144,1,132.00000402832,0|0,0:0|0:0,0:0:0:0:
343,120,64177,1,0,0:0:0:0:
252,223,64359,6,0,P|201:244|146:253,1,88.000002685547,8|0,0:0|0:0,0:0:0:0:
381,252,64722,2,0,P|432:273|487:282,1,88.000002685547,0|0,0:0|0:0,0:0:0:0:
209,329,65086,2,0,P|168:346|126:356,1,88.000002685547,8|0,0:0|0:0,0:0:0:0:
72,252,65450,2,0,P|61:194|68:119,1,132.00000402832,4|0,0:0|0:0,0:0:0:0:
78,84,65813,1,8,0:0:0:0:
170,168,65995,2,0,B|260:142|320:67,1,176.000005371094,2|0,0:0|0:0,0:0:0:0:
397,140,66541,2,0,P|439:154|491:184,1,88.000002685547,8|0,0:0|0:0,0:0:0:0:
483,341,66904,6,0,P|494:283|487:208,1,132.00000402832,0|0,0:0|0:0,0:0:0:0:
477,173,67267,1,8,0:0:0:0:
389,255,67449,2,0,B|299:229|239:154,1,176.000005371094,2|0,0:0|0:0,0:0:0:0:
162,227,67995,2,0,P|120:241|68:271,1,88.000002685547,8|0,0:0|0:0,0:0:0:0:
350,157,68359,6,0,P|392:143|444:113,2,88.000002685547,0|0|8,0:0|0:0|0:0,0:0:0:0:
257,38,68904,1,0,0:0:0:0:
162,157,69086,6,0,P|120:143|68:113,2,88.000002685547,0|0|8,0:0|0:0|0:0,0:0:0:0:
256,67,69632,1,0,0:0:0:0:
256,192,69813,12,4,70904,0:0:0:0:
174,92,71268,6,0,P|260:76|329:41,1,150,0|0,0:0|0:0,0:0:0:0:
351,27,71632,1,8,0:0:0:0:
411,231,71813,2,0,P|410:181|398:134,1,100,0|0,0:0|0:0,0:0:0:0:
351,27,72177,1,0,0:0:0:0:
271,190,72359,2,0,L|169:203,1,100,8|0,0:0|0:0,0:0:0:0:
75,57,72722,6,0,P|50:113|43:203,1,150,0|0,0:0|0:0,0:0:0:0:
47,236,73086,1,8,0:0:0:0:
240,333,73268,2,0,P|265:277|272:187,1,150,0|0,0:0|0:0,0:0:0:0:
268,154,73632,1,0,0:0:0:0:
96,139,73813,2,0,P|140:172|191:189,1,100,8|0,0:0|0:0,0:0:0:0:
284,64,74177,5,0,0:0:0:0:
344,213,74359,1,0,0:0:0:0:
344,213,74450,1,0,0:0:0:0:
344,213,74541,1,8,0:0:0:0:
458,76,74722,2,0,L|475:235,1,150,0|0,0:0|0:0,0:0:0:0:
476,257,75086,1,0,0:0:0:0:
372,323,75268,2,0,P|313:299|261:294,1,100,8|0,0:0|0:0,0:0:0:0:
140,343,75632,6,0,L|123:184,1,150,0|0,0:0|0:0,0:0:0:0:
120,161,75996,1,8,0:0:0:0:
146,59,76177,1,0,0:0:0:0:
299,142,76359,1,8,0:0:0:0:
247,39,76541,1,0,0:0:0:0:
222,216,76722,1,8,0:0:0:0:
222,216,76813,1,0,0:0:0:0:
222,216,76904,1,0,0:0:0:0:
258,326,77086,6,0,P|310:317|378:291,1,100,0|0,0:0|0:0,0:0:0:0:
384,287,77359,1,0,0:0:0:0:
413,272,77450,2,0,P|418:219|438:168,1,100,8|0,0:0|0:0,0:0:0:0:
465,57,77813,2,0,L|362:28,1,100,0|0,0:0|0:0,0:0:0:0:
299,142,78177,1,8,0:0:0:0:
429,177,78359,1,0,0:0:0:0:
323,259,78541,6,0,P|293:303|240:338,1,100,0|0,0:0|0:0,0:0:0:0:
138,148,78904,2,0,P|84:158|30:149,1,100,8|0,0:0|0:0,0:0:0:0:
209,233,79268,2,0,P|157:262|96:267,1,100,0|0,0:0|0:0,0:0:0:0:
323,259,79632,2,0,P|293:303|240:338,1,100,8|0,0:0|0:0,0:0:0:0:
428,316,79995,6,0,L|445:164,1,150,0|0,0:0|0:0,0:0:0:0:
449,133,80359,1,8,0:0:0:0:
374,32,80541,1,0,0:0:0:0:
394,236,80722,2,0,P|336:229|297:210,1,100,0|0,0:0|0:0,0:0:0:0:
221,115,81086,1,8,0:0:0:0:
199,245,81268,1,0,0:0:0:0:
65,180,81450,2,0,B|54:205|43:235|43:235|47:267|72:293,1,100,0|0,0:0|0:0,0:0:0:0:
70,302,81722,1,0,0:0:0:0:
98,328,81813,2,0,P|160:322|209:330,1,100,8|0,0:0|0:0,0:0:0:0:
326,347,82177,5,0,0:0:0:0:
364,334,82268,1,0,0:0:0:0:
398,313,82359,1,0,0:0:0:0:
424,282,82450,1,0,0:0:0:0:
434,243,82541,1,8,0:0:0:0:
429,203,82632,1,0,0:0:0:0:
414,166,82722,1,0,0:0:0:0:
414,125,82813,1,0,0:0:0:0:
434,90,82904,6,0,B|382:80|347:34|347:34|290:39|244:68,1,200,4|8,0:2|0:0,0:0:0:0:
191,170,83450,2,0,L|228:215,2,50,0|0|0,0:0|0:0|0:0,0:0:0:0:
127,37,83813,2,0,P|78:86|56:128,1,100,0|8,0:0|0:0,0:0:0:0:
45,239,84177,1,0,0:0:0:0:
106,325,84359,6,0,P|154:279|188:202,1,150,0|0,0:0|0:0,0:0:0:0:
191,172,84722,1,8,0:0:0:0:
406,59,84904,2,0,P|358:105|324:182,1,150,0|0,0:0|0:0,0:0:0:0:
321,212,85267,1,0,0:0:0:0:
353,327,85450,1,8,0:0:0:0:
470,212,85632,1,0,0:0:0:0:
312,93,85813,6,0,P|262:70|204:56,1,100,0|0,0:0|0:0,0:0:0:0:
64,50,86177,1,8,0:0:0:0:
227,177,86359,2,0,P|277:200|335:214,1,100,0|0,0:0|0:0,0:0:0:0:
475,220,86723,1,0,0:0:0:0:
353,327,86904,2,0,P|291:315|235:314,1,100,8|0,0:0|0:0,0:0:0:0:
88,322,87268,1,0,0:0:0:0:
127,119,87450,1,0,0:0:0:0:
228,178,87632,6,0,P|282:166|327:143,1,100,8|0,0:0|0:0,0:0:0:0:
413,66,87995,2,0,B|417:111|463:143|463:143|451:185|467:214,1,150,0|0,0:0|0:0,0:0:0:0:
464,236,88359,1,8,0:0:0:0:
354,328,88541,1,0,0:0:0:0:
218,320,88722,6,0,P|151:292|67:299,1,150,0|0,0:0|0:0,0:0:0:0:
41,305,89086,1,8,0:0:0:0:
153,244,89268,2,0,P|199:205|229:159,1,100,0|0,0:0|0:0,0:0:0:0:
258,39,89632,1,0,0:0:0:0:
120,101,89813,1,8,0:0:0:0:
231,247,89995,2,0,P|298:270|346:272,1,100,0|0,0:0|0:0,0:0:0:0:
414,212,90359,1,0,0:0:0:0:
406,352,90541,5,8,0:0:0:0:
497,285,90722,2,0,B|488:240|445:201|445:201|464:146|482:141,1,150,0|0,0:0|0:0,0:0:0:0:
489,128,91086,1,0,0:0:0:0:
371,93,91268,2,0,P|319:76|277:41,1,100,8|0,0:0|0:0,0:0:0:0:
112,90,91632,2,0,P|182:109|245:171,1,150,0|0,0:0|0:0,0:0:0:0:
255,192,91995,1,8,0:0:0:0:
256,192,92177,12,0,94177,0:0:0:0:
256,120,94541,5,4,0:0:0:0:
104,128,106177,6,0,B|127:160|153:182|191:181|223:175|249:145|254:118|256:85|248:57|262:40|286:31|312:44|321:55,1,300.000011444092,0|0,0:0|0:0,0:0:0:0:
162,306,107450,6,0,B|221:390|333:375|381:300|381:300|417:322|459:324|490:306|503:280|508:247,1,420.000016021729,0|0,0:0|0:0,0:0:0:0:
421,207,109086,2,0,P|394:147|389:83,1,120.000004577637,0|0,0:0|0:0,0:0:0:0:
272,162,109813,2,0,P|219:149|194:150,1,60.0000022888184,0|2,0:0|0:0,0:0:0:0:
256,192,110177,12,0,111632,0:0:0:0:
470,49,111995,6,0,B|417:48|386:87|385:124|403:158|440:173|440:173|464:205|445:240|413:259|370:259|329:227,1,360.000013732911,0|0,0:0|0:0,0:0:0:0:
123,300,113450,2,0,P|78:201|187:59,1,300.000011444092,0|0,0:0|0:0,0:0:0:0:
293,126,114541,1,0,0:0:0:0:
213,222,114722,2,0,P|168:224|137:217,1,60.0000022888184,0|0,0:0|0:0,0:0:0:0:
401,176,115086,2,0,P|446:174|477:181,1,60.0000022888184,0|0,0:0|0:0,0:0:0:0:
390,292,115450,1,0,0:0:0:0:
270,318,115632,2,0,P|238:321|205:318,1,60.0000022888184,0|0,0:0|0:0,0:0:0:0:
256,192,115995,12,2,117450,0:0:0:0:
86,247,117813,6,0,B|139:249|173:227|173:227|219:232|248:270,1,176.000005371094,6|0,0:0|0:0,0:0:0:0:
319,344,118359,1,0,0:0:0:0:
164,334,118541,1,0,0:0:0:0:
129,192,118722,2,0,P|156:132|175:107,1,88.000002685547,0|0,0:0|0:0,0:0:0:0:
356,36,119086,6,0,L|322:174,1,132.00000402832,2|0,0:0|0:0,0:0:0:0:
313,197,119450,1,0,0:0:0:0:
223,160,119632,1,0,0:0:0:0:
406,165,119813,2,0,L|426:76,2,88.000002685547,0|2|0,0:0|0:0|0:0,0:0:0:0:
242,74,120359,2,0,L|223:160,1,88.000002685547,2|0,0:0|0:0,0:0:0:0:
259,308,120722,6,0,P|211:314|96:242,1,176.000005371094,2|0,0:0|0:0,0:0:0:0:
161,346,121268,1,0,0:0:0:0:
206,214,121450,2,0,P|247:195|297:178,1,88.000002685547,0|0,0:0|0:0,0:0:0:0:
438,135,121813,1,0,0:0:0:0:
346,257,121995,1,0,0:0:0:0:
348,96,122177,6,0,P|298:80|255:56,1,88.000002685547,0|0,0:0|0:0,0:0:0:0:
244,45,122450,1,0,0:0:0:0:
221,20,122541,2,0,P|174:37|134:62,1,88.000002685547,0|0,0:0|0:0,0:0:0:0:
42,175,122904,2,0,P|91:209|169:206,1,132.00000402832,2|0,0:0|0:0,0:0:0:0:
201,195,123268,1,2,0:0:0:0:
159,308,123450,1,0,0:0:0:0:
201,195,123632,6,0,L|338:180,1,132.00000402832,0|0,0:0|0:0,0:0:0:0:
358,145,123995,1,0,0:0:0:0:
448,311,124177,2,0,L|473:349,2,44.0000013427735,0|0|0,0:0|0:0|0:0,0:0:0:0:
320,267,124541,2,0,L|228:279,1,88.000002685547,2|0,0:0|0:0,0:0:0:0:
156,348,124904,2,0,P|135:269|186:186,1,176.000005371094,0|0,0:0|0:0,0:0:0:0:
302,125,125450,1,0,0:0:0:0:
289,247,125632,1,0,0:0:0:0:
173,184,125813,1,0,0:0:0:0:
419,191,125995,2,0,P|427:239|429:284,1,88.000002685547,0|0,0:0|0:0,0:0:0:0:
305,131,126359,5,0,0:0:0:0:
195,54,126541,1,0,0:0:0:0:
316,6,126722,1,0,0:0:0:0:
173,184,126904,1,0,0:0:0:0:
305,131,127086,1,0,0:0:0:0:
195,54,127268,1,0,0:0:0:0:
288,259,127450,1,0,0:0:0:0:
486,211,127632,5,0,0:0:0:0:
480,181,127722,1,0,0:0:0:0:
468,152,127813,1,0,0:0:0:0:
452,125,127904,1,0,0:0:0:0:
430,103,127995,1,0,0:0:0:0:
403,126,128086,1,0,0:0:0:0:
383,155,128177,1,0,0:0:0:0:
358,179,128268,1,0,0:0:0:0:
326,198,128359,1,0,0:0:0:0:
292,205,128450,1,0,0:0:0:0:
256,201,128541,1,0,0:0:0:0:
222,190,128632,1,0,0:0:0:0:
195,167,128722,1,0,0:0:0:0:
174,139,128813,1,0,0:0:0:0:
156,107,128904,1,0,0:0:0:0:
152,71,128995,1,0,0:0:0:0:
161,33,129086,1,8,0:0:0:0:
161,33,129450,6,0,L|94:161,1,132.00000402832,4|0,0:0|0:0,0:0:0:0:
83,181,129813,1,8,0:0:0:0:
47,65,129995,1,0,0:0:0:0:
159,124,130177,2,0,P|206:123|259:113,1,88.000002685547,0|0,0:0|0:0,0:0:0:0:
346,36,130541,1,8,0:0:0:0:
258,137,130722,1,0,0:0:0:0:
354,63,130904,6,0,B|386:121|428:138|428:138|424:171,1,132.00000402832,2|0,0:0|0:0,0:0:0:0:
425,195,131268,1,10,0:0:0:0:
371,304,131450,2,0,P|316:315|275:339,1,88.000002685547,0|2,0:0|0:0,0:0:0:0:
186,230,131813,1,0,0:0:0:0:
288,222,131995,1,8,0:0:0:0:
192,331,132177,1,0,0:0:0:0:
79,279,132359,6,0,P|68:235|76:130,1,132.00000402832,0|0,0:0|0:0,0:0:0:0:
81,111,132722,1,8,0:0:0:0:
173,204,132904,2,0,P|219:180|250:153,1,88.000002685547,0|0,0:0|0:0,0:0:0:0:
304,47,133268,1,0,0:0:0:0:
196,62,133450,1,8,0:0:0:0:
370,139,133632,6,0,P|442:145|469:141,2,88.000002685547,0|0|0,0:0|0:0|0:0,0:0:0:0:
293,229,134177,2,0,P|326:264|371:286,1,88.000002685547,8|0,0:0|0:0,0:0:0:0:
181,174,134541,2,0,P|170:217|172:265,1,88.000002685547,0|0,0:0|0:0,0:0:0:0:
242,355,134904,1,8,0:0:0:0:
275,344,134995,1,0,0:0:0:0:
306,328,135086,1,0,0:0:0:0:
332,304,135177,1,0,0:0:0:0:
348,272,135268,6,0,P|392:259|492:281,1,132.00000402832,10|0,0:0|0:0,0:0:0:0:
505,294,135632,1,10,0:0:0:0:
417,207,135813,2,0,P|406:147|425:68,1,132.00000402832,4|0,0:0|0:0,0:0:0:0:
438,47,136177,1,0,0:0:0:0:
331,137,136359,2,0,P|293:163|240:177,1,88.000002685547,8|0,0:0|0:0,0:0:0:0:
167,240,136722,6,0,P|151:172|171:112,1,132.00000402832,2|0,0:0|0:0,0:0:0:0:
193,86,137086,1,10,0:0:0:0:
268,285,137268,2,0,P|345:282|405:248,1,132.00000402832,4|0,0:0|0:0,0:0:0:0:
428,234,137632,1,0,0:0:0:0:
288,160,137813,2,0,P|244:165|202:175,1,88.000002685547,8|0,0:0|0:0,0:0:0:0:
88,57,138177,2,0,B|92:103|54:148|54:148|34:193|57:237,1,176.000005371094,2|10,0:0|0:0,0:0:0:0:
207,234,138722,1,0,0:0:0:0:
74,321,138904,5,2,0:0:0:0:
136,168,139086,1,0,0:0:0:0:
172,326,139268,1,10,0:0:0:0:
50,221,139450,1,0,0:0:0:0:
256,192,139632,12,0,140722,0:0:0:0:
323,297,141086,6,0,P|377:249|394:174,1,150,6|0,0:2|0:0,0:0:0:0:
391,142,141450,1,8,0:0:0:0:
281,71,141632,1,0,0:0:0:0:
257,189,141813,2,0,P|200:210|156:243,1,100,0|0,0:0|0:0,0:0:0:0:
109,327,142177,1,8,0:0:0:0:
256,289,142359,1,0,0:0:0:0:
47,214,142541,6,0,L|83:65,1,150,2|0,0:0|0:0,0:0:0:0:
92,34,142904,1,8,0:0:0:0:
291,143,143086,2,0,L|255:292,1,150,2|0,0:0|0:0,0:0:0:0:
246,323,143449,1,0,0:0:0:0:
353,238,143632,2,0,P|397:213|447:196,1,100,8|0,0:0|0:0,0:0:0:0:
471,189,143904,1,0,0:0:0:0:
498,184,143995,6,0,P|504:131|492:76,1,100,2|0,0:0|0:0,0:0:0:0:
393,27,144359,1,8,0:0:0:0:
380,134,144541,2,0,B|330:131|296:82|296:82|243:58,1,150,0|0,0:0|0:0,0:0:0:0:
230,35,144904,1,0,0:0:0:0:
284,144,145086,1,8,0:0:0:0:
94,168,145268,2,0,P|95:118|111:70,1,100,0|0,0:0|0:0,0:0:0:0:
230,35,145632,1,0,0:0:0:0:
284,144,145813,1,8,0:0:0:0:
142,254,145995,6,0,P|92:263|35:257,1,100,0|0,0:0|0:0,0:0:0:0:
194,159,146359,1,0,0:0:0:0:
219,342,146541,2,0,B|274:325|298:286|298:286|317:259|342:246,1,150,8|0,0:0|0:0,0:0:0:0:
369,240,146904,1,0,0:0:0:0:
450,328,147086,2,0,L|476:373,2,50,0|0|8,0:0|0:0|0:0,0:0:0:0:
473,213,147450,2,0,P|455:162|419:119,1,100,0|0,0:0|0:0,0:0:0:0:
337,47,147813,1,0,0:0:0:0:
262,137,147995,2,0,P|229:97|216:32,1,100,8|0,0:0|0:0,0:0:0:0:
313,231,148359,5,2,0:0:0:0:
338,72,148541,1,0,0:0:0:0:
262,138,148722,1,10,0:0:0:0:
392,156,148904,1,0,0:0:0:0:
197,221,149086,2,0,P|212:281|284:337,1,150,2|0,0:0|0:0,0:0:0:0:
313,343,149450,1,10,0:0:0:0:
183,307,149632,6,0,P|131:318|86:344,1,100,0|2,0:0|0:0,0:0:0:0:
314,231,149995,2,0,P|366:220|411:194,1,100,0|8,0:0|0:0,0:0:0:0:
426,44,150359,1,0,0:0:0:0:
322,124,150541,1,0,0:0:0:0:
378,254,150722,2,0,P|412:290|458:310,1,100,0|8,0:0|0:0,0:0:0:0:
487,173,151086,5,0,0:0:0:0:
487,173,151177,1,0,0:0:0:0:
487,173,151268,1,2,0:0:0:0:
372,54,151450,2,0,L|271:35,1,100,0|8,0:0|0:0,0:0:0:0:
207,193,151813,1,0,0:0:0:0:
129,78,151995,5,0,0:0:0:0:
121,107,152086,1,0,0:0:0:0:
108,134,152177,1,0,0:0:0:0:
89,157,152268,1,0,0:0:0:0:
63,173,152359,1,4,0:0:0:0:
77,215,152450,1,0,0:0:0:0:
108,246,152541,1,0,0:0:0:0:
148,264,152632,1,0,0:0:0:0:
191,271,152722,6,0,P|250:274|334:237,1,150,6|0,0:0|0:0,0:0:0:0:
364,208,153086,1,10,0:0:0:0:
432,318,153268,2,0,L|464:362,2,50,0|0|0,0:0|0:0|0:0,0:0:0:0:
364,208,153632,2,0,P|372:137|389:89,1,100,0|10,0:0|0:0,0:0:0:0:
416,18,153995,1,0,0:0:0:0:
323,147,154177,6,0,P|274:126|195:52,1,150,2|0,0:0|0:0,0:0:0:0:
182,33,154541,1,8,0:0:0:0:
104,136,154722,2,0,P|82:189|90:286,1,150,0|0,0:0|0:0,0:0:0:0:
100,313,155086,1,0,0:0:0:0:
192,223,155268,2,0,P|250:201|286:176,1,100,8|0,0:0|0:0,0:0:0:0:
362,63,155632,5,2,0:0:0:0:
281,179,155813,1,0,0:0:0:0:
393,282,155995,1,8,0:0:0:0:
325,77,156177,5,0,0:0:0:0:
245,193,156358,1,2,0:0:0:0:
354,294,156540,1,0,0:0:0:0:
288,93,156722,6,0,P|236:115|181:126,1,100,8|0,0:0|0:0,0:0:0:0:
79,135,157086,1,2,0:0:0:0:
131,37,157268,1,0,0:0:0:0:
139,231,157450,6,0,B|199:250|249:249,1,100,10|0,0:0|0:0,0:0:0:0:
354,295,157813,2,0,B|397:289|425:262|425:262|463:271|484:311,1,150,2|0,0:0|0:0,0:0:0:0:
489,336,158177,1,10,0:0:0:0:
454,218,158359,1,0,0:0:0:0:
358,200,158541,6,0,P|337:148|334:100,1,100,2|0,0:0|0:0,0:0:0:0:
336,73,158813,1,0,0:0:0:0:
344,41,158904,2,0,P|286:31|235:33,1,100,8|0,0:0|0:0,0:0:0:0:
120,138,159268,1,2,0:0:0:0:
147,51,159450,1,0,0:0:0:0:
214,121,159632,1,8,0:0:0:0:
55,70,159813,1,0,0:0:0:0:
85,237,159995,6,0,L|235:269,1,150,2|0,0:0|0:0,0:0:0:0:
264,277,160359,1,10,0:0:0:0:
421,75,160541,2,0,L|271:43,1,150,0|0,0:0|0:0,0:0:0:0:
242,35,160905,1,0,0:0:0:0:
322,169,161086,5,10,0:0:0:0:
322,169,161177,1,0,0:0:0:0:
322,169,161268,1,0,0:0:0:0:
322,169,161359,1,0,0:0:0:0:
322,169,161450,2,0,B|299:220|264:237|264:237|248:279|250:321,1,150,2|0,0:0|0:0,0:0:0:0:
255,326,161813,1,8,0:0:0:0:
256,192,161995,12,4,164359,0:0:0:0:
181,106,175995,6,0,B|243:94|292:126|292:126|335:114|342:109,1,150,0|0,0:0|0:0,0:0:0:0:
365,107,176359,1,0,0:0:0:0:
438,249,176541,2,0,L|334:272,1,100,0|0,0:0|0:0,0:0:0:0:
220,294,176904,1,0,0:0:0:0:
259,207,177086,1,2,0:0:0:0:
299,357,177268,1,2,0:0:0:0:
152,217,177450,2,0,P|108:254|81:300,1,100,2|2,0:0|0:0,0:0:0:0:
220,294,177813,5,0,0:0:0:0:
259,207,177995,2,0,P|235:158|196:116,1,100,0|0,0:0|0:0,0:0:0:0:
124,54,178359,1,0,0:0:0:0:
220,294,178541,2,0,B|286:298|321:275|321:275|335:249|356:229,1,150,0|0,0:0|0:0,0:0:0:0:
373,214,178904,5,0,0:0:0:0:
438,302,179086,2,0,L|449:353,2,50,0|0|0,0:0|0:0|0:0,0:0:0:0:
473,201,179450,2,0,L|443:100,1,100,0|0,0:0|0:0,0:0:0:0:
328,34,179813,1,0,0:0:0:0:
373,214,179995,2,0,L|392:275,2,50,0|0|0,0:0|0:0|0:0,0:0:0:0:
268,145,180359,6,0,P|208:144|150:148,1,100,0|0,0:0|0:0,0:0:0:0:
35,280,180722,1,0,0:0:0:0:
51,164,180904,1,0,0:0:0:0:
133,328,181086,2,0,P|184:343|245:340,1,100,0|0,0:0|0:0,0:0:0:0:
414,154,181450,1,0,0:0:0:0:
396,184,181541,1,0,0:0:0:0:
384,217,181632,1,0,0:0:0:0:
377,250,181722,1,0,0:0:0:0:
371,284,181813,6,0,B|316:270|277:240|277:240|244:237|214:246,1,150,0|0,0:0|0:0,0:0:0:0:
200,247,182177,1,0,0:0:0:0:
107,184,182359,2,0,P|154:158|189:113,1,100,0|0,0:0|0:0,0:0:0:0:
242,25,182722,1,0,0:0:0:0:
105,45,182904,1,0,0:0:0:0:
29,181,183086,1,0,0:0:0:0:
12,86,183268,6,0,B|67:100|106:130|106:130|139:133|169:124,1,150,0|0,0:0|0:0,0:0:0:0:
183,123,183632,1,0,0:0:0:0:
276,186,183814,2,0,P|229:212|194:257,1,100,0|0,0:0|0:0,0:0:0:0:
157,339,184177,1,0,0:0:0:0:
96,250,184359,1,0,0:0:0:0:
267,329,184541,1,0,0:0:0:0:
379,350,184722,6,0,B|410:304|408:254|394:213|422:184,1,150,0|0,0:0|0:0,0:0:0:0:
428,172,185086,1,0,0:0:0:0:
356,76,185268,2,0,B|256:108|160:72,1,200,0|0,0:0|0:0,0:0:0:0:
256,192,185813,12,4,187632,0:0:0:0:
84,287,199268,6,0,L|177:305,1,90.0000034332277,0|0,0:0|0:0,0:0:0:0:
206,312,199632,1,0,0:0:0:0:
295,258,199813,1,0,0:0:0:0:
367,328,199995,5,0,0:0:0:0:
367,328,200086,1,0,0:0:0:0:
367,328,200177,1,0,0:0:0:0:
458,281,200359,5,0,0:0:0:0:
458,281,200450,1,0,0:0:0:0:
458,281,200541,1,0,0:0:0:0:
442,78,200722,6,0,P|391:112|367:132,1,90.0000034332277,0|0,0:0|0:0,0:0:0:0:
348,158,201086,1,0,0:0:0:0:
295,258,201268,2,0,P|244:292|208:304,1,90.0000034332277,0|0,0:0|0:0,0:0:0:0:
183,300,201632,1,0,0:0:0:0:
86,207,201813,2,0,P|70:178|54:142,1,60.0000022888184,0|0,0:0|0:0,0:0:0:0:
40,30,202177,5,0,0:0:0:0:
151,124,202359,2,0,P|180:147|211:162,1,60.0000022888184,0|0,0:0|0:0,0:0:0:0:
363,126,202722,2,0,P|368:161|367:193,1,60.0000022888184,0|0,0:0|0:0,0:0:0:0:
352,306,203086,1,0,0:0:0:0:
183,300,203268,2,0,P|188:267|198:231,1,60.0000022888184,0|0,0:0|0:0,0:0:0:0:
241,122,203632,1,0,0:0:0:0:
308,222,203813,1,0,0:0:0:0:
114,151,203995,6,0,P|67:153|42:159,1,60.0000022888184,0|0,0:0|0:0,0:0:0:0:
195,242,204359,2,0,P|242:240|267:234,1,60.0000022888184,0|0,0:0|0:0,0:0:0:0:
377,137,204722,2,0,P|330:139|305:145,1,60.0000022888184,0|0,0:0|0:0,0:0:0:0:
221,38,205086,5,8,0:0:0:0:
199,49,205177,1,0,0:0:0:0:
181,65,205268,1,0,0:0:0:0:
169,86,205359,1,0,0:0:0:0:
165,109,205450,1,0,0:0:0:0:
157,131,205541,1,0,0:0:0:0:
143,150,205632,1,0,0:0:0:0:
123,163,205722,1,0,0:0:0:0:
99,167,205813,1,0,0:0:0:0:
75,161,205904,1,0,0:0:0:0:
55,146,205995,2,0,L|39:119,5,30.0000011444092,0|0|0|0|0|0,0:0|0:0|0:0|0:0|0:0|0:0,0:0:0:0:
12,242,206541,5,8,0:0:0:0:
36,258,206632,1,0,0:0:0:0:
63,268,206722,1,0,0:0:0:0:
92,272,206813,1,0,0:0:0:0:
122,270,206904,1,0,0:0:0:0:
151,265,206995,1,0,0:0:0:0:
179,256,207086,1,0,0:0:0:0:
204,239,207177,1,0,0:0:0:0:
227,219,207268,1,0,0:0:0:0:
248,198,207359,1,0,0:0:0:0:
274,183,207450,1,0,0:0:0:0:
303,178,207541,1,0,0:0:0:0:
343,179,207632,1,0,0:0:0:0:
370,194,207722,2,0,L|402:222,3,40,0|0|0|8,0:0|0:0|0:0|0:0,0:0:0:0:
466,361,208086,5,0,0:0:0:0:
425,362,208177,1,0,0:0:0:0:
383,346,208268,1,0,0:0:0:0:
347,320,208359,1,0,0:0:0:0:
317,287,208450,1,0,0:0:0:0:
304,244,208541,1,0,0:0:0:0:
309,200,208632,1,0,0:0:0:0:
345,175,208723,1,0,0:0:0:0:
388,183,208814,1,0,0:0:0:0:
408,221,208904,1,0,0:0:0:0:
391,261,208995,1,0,0:0:0:0:
355,271,209086,1,0,0:0:0:0:
304,244,209177,1,0,0:0:0:0:
278,219,209268,1,0,0:0:0:0:
256,200,209359,1,0,0:0:0:0:
227,185,209450,5,8,0:0:0:0:
196,174,209541,1,0,0:0:0:0:
164,169,209632,1,0,0:0:0:0:
132,171,209723,1,0,0:0:0:0:
101,181,209814,1,0,0:0:0:0:
75,199,209904,1,0,0:0:0:0:
55,224,209995,1,0,0:0:0:0:
48,200,210086,1,0,0:0:0:0:
41,176,210177,1,0,0:0:0:0:
35,152,210268,1,0,0:0:0:0:
29,132,210359,1,0,0:0:0:0:
23,112,210450,1,0,0:0:0:0:
17,92,210541,1,12,0:0:0:0:
368,70,210904,6,0,L|392:225,1,150,0|0,0:0|0:0,0:0:0:0:
396,254,211268,1,8,0:0:0:0:
284,231,211450,2,0,P|227:246|181:275,1,100,0|0,0:0|0:0,0:0:0:0:
103,329,211813,1,0,0:0:0:0:
396,254,211995,2,0,P|385:202|357:150,1,100,8|0,0:0|0:0,0:0:0:0:
259,73,212359,6,0,P|172:99|112:99,1,150,0|0,0:0|0:0,0:0:0:0:
80,94,212722,1,8,0:0:0:0:
83,220,212904,2,0,P|125:263|221:297,1,150,0|0,0:0|0:0,0:0:0:0:
237,300,213268,1,0,0:0:0:0:
406,140,213450,5,8,0:0:0:0:
406,140,213541,1,0,0:0:0:0:
406,140,213632,1,0,0:0:0:0:
406,140,213722,1,0,0:0:0:0:
406,140,213813,2,0,B|399:197|414:232|414:232|403:251,1,100,0|0,0:0|0:0,0:0:0:0:
392,255,214086,1,0,0:0:0:0:
367,271,214177,2,0,P|314:276|258:264,1,100,8|0,0:0|0:0,0:0:0:0:
201,136,214541,5,0,0:0:0:0:
168,233,214722,1,0,0:0:0:0:
331,144,214904,2,0,L|361:39,1,100,8|0,0:0|0:0,0:0:0:0:
141,173,215268,1,0,0:0:0:0:
108,270,215449,1,0,0:0:0:0:
263,167,215631,2,0,L|293:62,1,100,8|0,0:0|0:0,0:0:0:0:
431,284,215995,6,0,P|380:294|328:291,1,100,0|0,0:0|0:0,0:0:0:0:
264,168,216359,1,8,0:0:0:0:
211,264,216541,1,0,0:0:0:0:
128,167,216722,2,0,P|122:236|93:325,1,150,0|0,0:0|0:0,0:0:0:0:
73,344,217086,1,8,0:0:0:0:
184,345,217268,2,0,P|238:338|286:312,1,100,0|0,0:0|0:0,0:0:0:0:
364,184,217632,1,0,0:0:0:0:
211,265,217813,2,0,P|158:255|106:229,1,100,8|0,0:0|0:0,0:0:0:0:
191,129,218177,6,0,P|142:101|106:67,1,100,0|0,0:0|0:0,0:0:0:0:
211,265,218541,2,0,P|158:255|106:229,2,100,8|0|0,0:0|0:0|0:0,0:0:0:0:
351,268,219086,1,0,0:0:0:0:
280,366,219268,1,8,0:0:0:0:
430,359,219450,1,0,0:0:0:0:
448,187,219632,6,0,B|422:141|425:84|425:84|407:60|390:47,1,150,0|0,0:0|0:0,0:0:0:0:
368,27,219995,1,8,0:0:0:0:
309,162,220177,1,0,0:0:0:0:
309,162,220268,1,0,0:0:0:0:
309,162,220359,1,0,0:0:0:0:
212,79,220541,2,0,L|107:62,1,100,0|8,0:0|0:0,0:0:0:0:
215,186,220904,1,0,0:0:0:0:
112,162,221086,6,0,P|73:200|48:242,1,100,0|0,0:0|0:0,0:0:0:0:
159,262,221450,1,8,0:0:0:0:
24,335,221632,1,0,0:0:0:0:
302,333,221813,5,0,0:0:0:0:
312,299,221904,1,0,0:0:0:0:
330,269,221995,1,0,0:0:0:0:
358,248,222086,1,0,0:0:0:0:
392,240,222177,1,12,0:0:0:0:
426,241,222268,1,0,0:0:0:0:
418,206,222359,1,0,0:0:0:0:
408,172,222450,1,0,0:0:0:0:
400,137,222541,6,0,B|392:89|410:46|410:46|392:26|350:27,1,150,6|0,0:0|0:0,0:0:0:0:
331,28,222904,1,8,0:0:0:0:
292,159,223086,2,0,L|321:210,2,50,0|0|0,0:0|0:0|0:0,0:0:0:0:
218,37,223450,1,0,0:0:0:0:
126,93,223632,2,0,P|77:71|36:42,1,100,8|0,0:0|0:0,0:0:0:0:
190,207,223996,6,0,L|29:189,1,150,0|0,0:0|0:0,0:0:0:0:
16,208,224359,1,8,0:0:0:0:
179,314,224541,2,0,L|340:332,1,150,0|0,0:0|0:0,0:0:0:0:
351,357,224904,1,0,0:0:0:0:
448,267,225086,2,0,L|468:160,1,100,8|0,0:0|0:0,0:0:0:0:
341,50,225450,6,0,P|285:49|222:62,1,100,2|0,0:0|0:0,0:0:0:0:
120,88,225813,1,8,0:0:0:0:
309,160,225995,2,0,P|248:182|205:214,1,100,2|0,0:0|0:0,0:0:0:0:
104,309,226359,1,0,0:0:0:0:
293,336,226541,2,0,P|346:316|386:283,1,100,10|0,0:0|0:0,0:0:0:0:
452,157,226904,5,0,0:0:0:0:
498,273,227086,1,0,0:0:0:0:
308,160,227268,2,0,P|319:107|381:27,1,150,8|0,0:0|0:0,0:0:0:0:
401,17,227632,1,0,0:0:0:0:
452,157,227813,2,0,L|516:190,2,50,0|0|8,0:0|0:0|0:0,0:0:0:0:
381,291,228177,1,0,0:0:0:0:
232,264,228359,6,0,P|194:202|183:121,1,150,0|0,0:0|0:0,0:0:0:0:
184,91,228722,1,8,0:0:0:0:
142,211,228904,1,0,0:0:0:0:
308,162,229086,2,0,P|363:152|421:153,1,100,0|0,0:0|0:0,0:0:0:0:
472,249,229450,1,8,0:0:0:0:
489,69,229632,1,0,0:0:0:0:
371,247,229813,6,0,L|213:258,1,150,0|0,0:0|0:0,0:0:0:0:
188,262,230177,1,8,0:0:0:0:
38,112,230359,2,0,L|196:101,1,150,0|0,0:0|0:0,0:0:0:0:
221,97,230723,1,0,0:0:0:0:
376,31,230904,1,8,0:0:0:0:
376,31,230995,1,0,0:0:0:0:
376,31,231086,1,0,0:0:0:0:
376,31,231177,1,0,0:0:0:0:
376,31,231268,6,0,B|383:91|447:142|447:142|424:158,1,150,0|0,0:0|0:0,0:0:0:0:
406,160,231632,1,8,0:0:0:0:
303,209,231813,2,0,P|358:250|403:264,1,100,0|0,0:0|0:0,0:0:0:0:
480,282,232177,1,0,0:0:0:0:
270,112,232359,2,0,P|227:145|192:192,1,100,8|0,0:0|0:0,0:0:0:0:
158,270,232722,1,0,0:0:0:0:
446,374,232904,2,0,P|471:329|480:275,1,100,0|8,0:0|0:0,0:0:0:0:
473,168,233268,1,0,0:0:0:0:
450,42,233450,5,8,0:0:0:0:
449,46,233541,1,0,0:0:0:0:
447,51,233632,1,0,0:0:0:0:
445,56,233722,1,0,0:0:0:0:
444,61,233813,1,0,0:0:0:0:
443,66,233904,1,0,0:0:0:0:
442,71,233995,1,0,0:0:0:0:
256,192,234177,12,0,237086,0:0:0:0:
