osu file format v14

[General]
AudioFilename: SenyaKachouFuugetsu.mp3
AudioLeadIn: 0
PreviewTime: 150841
Countdown: 0
SampleSet: Soft
StackLeniency: 0.7
Mode: 0
LetterboxInBreaks: 1
EpilepsyWarning: 1
WidescreenStoryboard: 1

[Editor]
Bookmarks: 4989,28403,57671,71330,88891,120110,151330,182549,188402,213769,229378,268403,299623,315232,332792,348647
DistanceSpacing: 1.1
BeatDivisor: 4
GridSize: 4
TimelineZoom: 1.1

[Metadata]
Title:Kachou Fuugetsu
TitleUnicode:華鳥風月
Artist:senya
ArtistUnicode:senya
Creator:Alarido
Version:Hard
Source:東方花映塚 ~ Phantasmagoria of Flower View
Tags:japanese pop touhou kaeidzuka kamasetora iceon yuuhei satellite 幽閉サテライト reitaisai 9 fate of sixty years shikieiki yamaxanadu komachi onozuka Phantasmagoria of Flower View righteousness severity judge heaven and hell sanzu no kawa 三途の川 shinpan no mon 審判の門 stinge styx
BeatmapID:321959
BeatmapSetID:126743

[Difficulty]
HPDrainRate:5
CircleSize:4
OverallDifficulty:5.5
ApproachRate:6.5
SliderMultiplier:1.6
SliderTickRate:2

[Events]
//Background and Video events
0,0,"bg.jpg",0,0
//Break Periods
2,57871,70354
2,260797,267427
2,301774,314256
//Storyboard Layer 0 (Background)
//Storyboard Layer 1 (Fail)
//Storyboard Layer 2 (Pass)
//Storyboard Layer 3 (Foreground)
//Storyboard Layer 4 (Overlay)
//Storyboard Sound Samples

[TimingPoints]
4989,487.80487804878,3,2,1,35,1,0
28403,-100,3,2,1,50,0,0
57671,487.80487804878,4,2,1,60,1,0
73280,-100,4,2,1,75,0,1
88890,-133.333333333333,4,2,1,50,0,0
94744,-100,4,2,1,60,0,0
151329,-100,4,2,1,75,0,1
182549,-100,4,2,1,60,0,0
229378,-100,4,2,1,75,0,1
260597,-100,4,2,1,60,0,0
317183,-100,4,2,1,75,0,1
332792,-133.333333333333,4,2,1,50,0,0
334745,-158.730158730159,4,2,1,40,0,0
339622,-133.333333333333,4,2,1,40,0,0
348525,-100,4,2,1,25,0,0

[Colours]
Combo1 : 136,0,68
Combo2 : 0,73,164
Combo3 : 30,147,100
Combo4 : 227,84,64

[HitObjects]
296,256,4989,6,0,P|367:283|427:235,1,160,0|0,0:0|0:0,0:0:0:0:
476,172,5720,2,0,P|440:156|395:162,1,80,0|2,0:0|0:0,0:0:0:0:
216,256,6452,2,0,P|144:283|84:235,1,160
36,172,7184,2,0,P|72:156|116:162,1,80,0|2,0:0|0:0,0:0:0:0:
256,232,7915,6,0,L|256:320,2,80
256,152,8647,1,0,0:0:0:0:
324,108,8891,2,0,P|256:72|188:108,1,160,2|0,0:0|0:0,0:0:0:0:
256,152,9623,1,0,0:0:0:0:
308,212,9867,2,0,P|314:252|298:288,1,80,2|0,0:0|0:0,0:0:0:0:
212,287,10354,2,0,P|196:250|204:212,1,80
308,212,10842,6,0,P|384:212|424:144,1,160,2|0,0:0|0:0,0:0:0:0:
444,68,11574,2,0,P|404:68|368:88,1,80,0|2,0:0|0:0,0:0:0:0:
204,212,12306,2,0,P|128:212|88:144,1,160
68,68,13038,2,0,P|108:68|144:88,1,80,0|2,0:0|0:0,0:0:0:0:
256,240,13769,6,0,P|290:258|330:258,1,80,2|0,0:0|0:0,0:0:0:0:
396,212,14257,2,0,L|416:132,2,80,0|0|2,0:0|0:0|0:0,0:0:0:0:
256,144,15232,2,0,P|221:125|181:125,1,80
116,172,15720,2,0,L|96:252,2,80,0|0|2,0:0|0:0|0:0,0:0:0:0:
244,268,16696,6,0,P|312:296|380:252,1,160
379,252,17428,1,0,0:0:0:0:
379,252,17671,1,2,0:0:0:0:
268,116,18159,2,0,P|200:88|132:132,1,160
132,131,18891,1,0,0:0:0:0:
132,131,19134,1,2,0:0:0:0:
148,292,19623,5,0,0:0:0:0:
216,336,19867,1,0,0:0:0:0:
296,336,20110,1,0,0:0:0:0:
364,292,20354,1,0,0:0:0:0:
404,224,20598,2,0,P|400:152|324:132,1,160,2|0,0:0|0:0,0:0:0:0:
256,172,21330,1,0,0:0:0:0:
186,131,21574,2,0,P|114:149|108:224,1,160,2|0,0:0|0:0,0:0:0:0:
256,292,22549,6,0,L|256:212,3,80,2|0|0|0,0:0|0:0|0:0|0:0,0:0:0:0:
256,132,23525,1,2,0:0:0:0:
100,104,24013,2,0,B|64:104|44:124|44:124|44:192|72:216,2,160,0|0|2,0:0|0:0|0:0,0:0:0:0:
256,132,25476,5,0,0:0:0:0:
218,204,25720,2,0,P|256:216|294:204,2,80
256,132,26452,1,2,0:0:0:0:
412,104,26940,2,0,B|448:104|468:124|468:124|468:192|440:216,2,160,0|0|2,0:0|0:0|0:0,0:0:0:0:
204,252,28403,6,0,P|132:292|52:280,2,160,0|0|2,0:0|0:0|0:0,0:0:0:0:
308,132,29867,2,0,P|380:92|460:104,2,160,0|0|2,0:0|0:0|0:0,0:0:0:0:
204,252,31330,6,0,P|168:268|128:260,1,80
160,188,31818,2,0,P|160:152|136:116,1,80
180,48,32306,2,0,P|256:70|332:48,1,160,2|0,0:0|0:0,0:0:0:0:
375,116,33037,2,0,P|353:148|352:188,1,80,0|2,0:0|0:0,0:0:0:0:
382,260,33525,2,0,P|344:268|308:252,1,80
256,192,34013,1,0,0:0:0:0:
204,132,34257,6,0,P|121:137|76:200,2,160,0|0|2,0:0|0:0|0:0,0:0:0:0:
308,252,35720,2,0,P|391:247|436:184,2,160,0|0|2,0:0|0:0|0:0,0:0:0:0:
160,128,37184,5,0,0:0:0:0:
104,276,37671,2,0,P|182:286|256:256,1,160,0|2,0:0|0:0,0:0:0:0:
352,128,38647,1,0,0:0:0:0:
408,276,39135,2,0,P|329:286|256:256,1,160,0|2,0:0|0:0,0:0:0:0:
148,100,40110,6,0,P|112:128|88:172,1,80
68,232,40598,2,0,P|124:288|216:300,1,160,0|2,0:0|0:0,0:0:0:0:
364,284,41574,2,0,P|400:256|424:212,1,80
444,152,42062,2,0,P|388:96|296:84,1,160,0|2,0:0|0:0,0:0:0:0:
177,169,43037,6,0,P|192:212|220:235,1,80
297,235,43525,2,0,P|329:194|334:157,1,80
256,166,44013,2,0,B|256:332,2,160,2|0|2,0:0|0:0|0:0,0:0:0:0:
256,16,45476,1,0,0:0:0:0:
104,68,45964,6,0,P|48:124|24:200,2,160,0|0|2,0:0|0:0|0:0,0:0:0:0:
188,204,47428,2,0,P|256:240|324:204,1,160
256,80,48159,2,0,L|256:160,1,80,0|2,0:0|0:0,0:0:0:0:
408,68,48891,6,0,P|464:124|488:200,2,160,0|0|2,0:0|0:0|0:0,0:0:0:0:
332,208,50355,2,0,P|256:230|180:208,1,160
256,68,51330,1,2,0:0:0:0:
388,160,51818,6,0,B|440:224|444:272|396:288|388:280|380:264|392:260,2,160,0|0|2,0:0|0:0|0:0,0:0:0:0:
256,68,53281,1,0,0:0:0:0:
256,228,53769,1,0,0:0:0:0:
256,68,54257,1,2,0:0:0:0:
124,160,54745,2,0,B|72:224|68:272|116:288|124:280|132:264|121:260,2,160,0|0|2,0:0|0:0|0:0,0:0:0:0:
256,240,56208,2,0,B|310:228|356:157|368:77|319:1|237:-1|164:38|148:99|182:165|234:179|280:160|283:118|256:96,1,480,0|2,0:0|0:0,0:0:0:0:
116,232,71329,5,4,0:0:0:0:
256,312,71817,1,0,0:0:0:0:
396,232,72305,2,0,L|388:280,2,40
468,168,72792,2,0,L|476:120,1,40,0|0,0:0|0:0,0:0:0:0:
354,48,73280,6,0,P|284:40|236:108,1,160,4|8,0:0|0:0,0:0:0:0:
256,192,74012,1,0,0:0:0:0:
275,277,74256,2,0,P|228:340|148:340,1,160,0|8,0:0|0:0,0:0:0:0:
188,260,74988,1,0,0:0:0:0:
164,176,75231,2,0,P|135:147|95:139,1,80
144,64,75719,2,0,P|180:60|212:32,1,80,8|0,0:0|0:0,0:0:0:0:
299,31,76207,2,0,P|327:57|367:63,1,80,0|0,0:0|0:0,0:0:0:0:
414,139,76695,2,0,P|379:157|359:191,1,80,8|0,0:0|0:0,0:0:0:0:
304,260,77183,6,0,P|376:280|440:232,1,160,0|8,0:0|0:0,0:0:0:0:
207,260,78158,2,0,P|133:279|72:232,1,160,0|8,0:0|0:0,0:0:0:0:
72,232,78890,1,0,0:0:0:0:
256,88,79378,1,0,0:0:0:0:
180,148,79622,2,0,P|160:184|160:232,1,80,8|0,0:0|0:0,0:0:0:0:
354,222,80110,2,0,P|351:182|332:148,1,80,8|0,0:0|0:0,0:0:0:0:
256,212,80597,1,0,0:0:0:0:
256,212,80841,1,0,0:0:0:0:
332,308,81085,6,0,P|407:293|443:224,1,160,4|8,0:0|0:0,0:0:0:0:
180,308,82061,2,0,P|104:293|69:224,1,160,0|8,0:0|0:0,0:0:0:0:
76,136,82792,1,0,0:0:0:0:
160,104,83036,2,0,P|176:140|212:156,1,80
294,40,83524,2,0,P|256:30|218:40,1,80,8|0,0:0|0:0,0:0:0:0:
300,155,84012,2,0,P|336:139|352:104,1,80,0|0,0:0|0:0,0:0:0:0:
436,136,84500,1,8,0:0:0:0:
404,217,84744,1,0,0:0:0:0:
336,272,84988,6,0,P|364:296|411:304,2,80,4|0|8,0:0|0:0|0:0,0:0:0:0:
300,192,85719,1,0,0:0:0:0:
300,192,85841,2,0,P|280:136|228:108,1,120
146,138,86451,1,8,0:0:0:0:
108,217,86695,1,0,0:0:0:0:
176,272,86939,6,0,P|148:296|100:304,2,80,4|0|8,0:0|0:0|0:0,0:0:0:0:
212,192,87670,1,0,0:0:0:0:
212,192,87792,2,0,P|232:136|284:108,1,120
144,24,88524,1,0,0:0:0:0:
60,160,88891,6,0,B|96:168|120:160|120:160|112:236|168:312|292:296|300:192,1,360.000013732911,4|0,0:0|0:0,0:0:0:0:
212,192,90842,2,0,B|220:296|344:312|400:236|392:160|392:160|416:168|452:160,1,360.000013732911,2|0,0:0|0:0,0:0:0:0:
420,68,92792,2,0,B|340:4|256:84|168:168|92:68,1,360.000013732911
92,68,94745,1,0,0:0:0:0:
92,68,95720,6,0,L|72:104,3,40
52,144,96208,2,0,L|48:192,3,40
56,232,96696,6,0,P|92:292|180:304,1,160,4|8,0:0|0:0,0:0:0:0:
256,268,97428,1,0,0:0:0:0:
344,276,97670,2,0,L|324:353,1,80
422,316,98158,2,0,L|442:236,1,80
456,152,98646,2,0,P|420:92|332:80,1,160,0|8,0:0|0:0,0:0:0:0:
256,116,99378,1,0,0:0:0:0:
168,108,99622,2,0,L|187:30,1,80
90,68,100110,2,0,L|69:147,1,80
44,232,100598,6,0,P|48:264|84:308,2,80,0|0|8,0:0|0:0|0:0,0:0:0:0:
132,232,101330,2,0,P|168:172|252:152,1,160,0|8,0:0|0:0,0:0:0:0:
344,174,102061,2,0,P|348:216|336:252,1,80,8|0,0:0|0:0,0:0:0:0:
296,332,102549,2,0,P|256:336|216:332,1,80
175,251,103036,2,0,P|163:213|168:174,1,80,8|0,0:0|0:0,0:0:0:0:
204,96,103525,2,0,P|220:76|260:64,3,40
279,68,104013,2,0,P|296:79|308:96,3,40,8|0|0|0,0:0|0:0|0:0|0:0,0:0:0:0:
316,136,104501,6,0,P|336:212|468:180,1,240,4|0,0:0|0:0,0:0:0:0:
392,156,105476,2,0,P|392:112|372:80,1,80
300,48,105964,1,8,0:0:0:0:
220,60,106208,1,0,0:0:0:0:
196,136,106452,2,0,P|176:212|44:180,1,240
120,156,107428,2,0,P|120:112|140:80,1,80
212,48,107915,1,8,0:0:0:0:
292,60,108159,1,0,0:0:0:0:
328,132,108403,6,0,P|358:107|373:69,2,80,0|0|8,0:0|0:0|0:0,0:0:0:0:
256,168,109135,1,0,0:0:0:0:
184,132,109379,2,0,P|153:107|138:69,2,80,0|0|8,0:0|0:0|0:0,0:0:0:0:
256,168,110111,1,0,0:0:0:0:
332,212,110354,2,0,P|344:252|328:304,1,80
256,336,110842,2,0,L|256:252,1,80,8|0,0:0|0:0,0:0:0:0:
180,212,111330,2,0,P|168:252|184:304,1,80
256,256,111818,1,8,0:0:0:0:
256,168,112062,1,0,0:0:0:0:
224,88,112306,6,0,P|160:40|72:52,1,160,4|8,0:0|0:0,0:0:0:0:
21,96,113037,1,0,0:0:0:0:
42,173,113281,1,0,0:0:0:0:
112,209,113525,1,0,0:0:0:0:
192,210,113769,2,0,P|220:204|256:168,1,80,8|0,0:0|0:0,0:0:0:0:
288,88,114257,2,0,P|352:40|440:52,1,160,0|8,0:0|0:0,0:0:0:0:
491,96,114988,1,0,0:0:0:0:
470,173,115232,1,0,0:0:0:0:
400,209,115476,1,0,0:0:0:0:
319,210,115720,2,0,P|292:204|256:168,1,80,8|0,0:0|0:0,0:0:0:0:
336,128,116208,6,0,L|380:108,2,40,4|0|0,0:0|0:0|0:0,0:0:0:0:
297,56,116696,2,0,L|329:0,2,40,8|0|0,0:0|0:0|0:0,0:0:0:0:
215,56,117183,2,0,L|183:0,2,40
176,128,117671,2,0,L|132:108,2,40,8|0|0,0:0|0:0|0:0,0:0:0:0:
256,164,118159,6,0,B|256:124,6,40,4|0|0|0|8|0|0,0:0|0:0|0:0|0:0|0:0|0:0|0:0,0:0:0:0:
188,208,119134,1,4,0:0:0:0:
216,284,119378,1,0,0:0:0:0:
296,284,119622,1,8,0:0:0:0:
324,208,119866,1,0,0:0:0:0:
400,232,120110,6,0,P|468:204|476:124,1,160,4|8,0:0|0:0,0:0:0:0:
428,60,120841,1,0,0:0:0:0:
352,36,121085,2,0,P|312:44|288:72,1,80
187,179,121573,2,0,P|226:173|252:144,1,80,8|0,0:0|0:0,0:0:0:0:
112,152,122061,2,0,P|44:180|36:260,1,160,0|8,0:0|0:0,0:0:0:0:
84,324,122792,1,0,0:0:0:0:
160,348,123036,2,0,P|200:340|224:312,1,80
324,200,123524,2,0,P|284:212|260:240,1,80,8|0,0:0|0:0,0:0:0:0:
330,278,124012,6,0,P|392:240|384:148,1,160,0|8,0:0|0:0,0:0:0:0:
119,159,124988,2,0,P|117:236|182:278,1,160,0|8,0:0|0:0,0:0:0:0:
392,160,125963,1,0,0:0:0:0:
256,24,126451,1,8,0:0:0:0:
120,160,126939,1,0,0:0:0:0:
256,296,127427,1,8,0:0:0:0:
256,216,127670,1,0,0:0:0:0:
324,256,127914,6,0,P|400:268|452:212,1,160,4|8,0:0|0:0,0:0:0:0:
444,132,128646,1,0,0:0:0:0:
388,76,128890,2,0,L|304:68,1,80
244,116,129378,2,0,P|252:156|240:192,1,80,8|0,0:0|0:0,0:0:0:0:
188,256,129866,2,0,P|112:268|60:212,1,160,0|8,0:0|0:0,0:0:0:0:
68,132,130597,1,0,0:0:0:0:
124,76,130841,2,0,L|208:68,1,80
331,124,131329,2,0,L|252:132,1,80,8|0,0:0|0:0,0:0:0:0:
180,184,131817,6,0,L|140:176,2,40,4|0|0,0:0|0:0|0:0,0:0:0:0:
256,228,132305,2,0,P|276:256|320:272,1,80,8|0,0:0|0:0,0:0:0:0:
332,184,132792,2,0,L|372:176,2,40
256,228,133280,2,0,P|236:256|192:272,1,80,8|0,0:0|0:0,0:0:0:0:
256,140,133768,6,0,L|256:56,3,80,4|0|8|0,0:0|0:0|0:0|0:0,0:0:0:0:
176,108,134744,2,0,P|168:146|180:184,1,80,4|0,0:0|0:0,0:0:0:0:
331,184,135231,2,0,P|343:146|336:108,1,80,8|0,0:0|0:0,0:0:0:0:
216,32,135719,6,0,P|136:32|92:92,1,160,4|8,0:0|0:0,0:0:0:0:
176,108,136451,1,0,0:0:0:0:
296,32,136695,2,0,P|376:32|420:92,1,160,0|8,0:0|0:0,0:0:0:0:
336,108,137427,1,0,0:0:0:0:
296,186,137670,2,0,P|308:222|340:246,1,80,0|0,0:0|0:0,0:0:0:0:
295,322,138158,2,0,P|256:315|217:322,1,80,8|0,0:0|0:0,0:0:0:0:
171,246,138646,2,0,P|203:223|216:186,1,80,0|0,0:0|0:0,0:0:0:0:
256,108,139134,1,8,0:0:0:0:
256,108,139378,1,0,0:0:0:0:
324,54,139622,6,0,P|254:23|184:56,1,160,0|8,0:0|0:0,0:0:0:0:
108,216,140597,1,0,0:0:0:0:
256,308,141085,1,8,0:0:0:0:
404,216,141573,2,0,P|388:184|352:160,1,80
196,247,142061,2,0,P|188:286|201:324,1,80,8|0,0:0|0:0,0:0:0:0:
311,324,142549,2,0,P|323:286|315:247,1,80
160,159,143037,2,0,P|126:181|108:216,1,80,8|0,0:0|0:0,0:0:0:0:
152,292,143524,6,0,P|116:304|72:296,2,80,4|0|8,0:0|0:0|0:0,0:0:0:0:
212,228,144256,1,0,0:0:0:0:
256,304,144500,1,0,0:0:0:0:
300,228,144744,1,0,0:0:0:0:
360,292,144988,2,0,P|396:304|440:296,1,80,8|0,0:0|0:0,0:0:0:0:
404,216,145475,6,0,P|404:140|344:88,1,160,4|8,0:0|0:0,0:0:0:0:
256,76,146207,1,0,0:0:0:0:
167,88,146451,2,0,P|107:138|107:215,1,160,4|8,0:0|0:0,0:0:0:0:
172,276,147183,1,0,0:0:0:0:
204,192,147427,6,0,P|256:142|308:192,2,160,4|8|0,0:0|0:0|0:0,0:0:0:0:
172,276,148646,1,0,0:0:0:0:
256,304,148890,1,8,0:0:0:0:
340,276,149134,1,0,0:0:0:0:
384,200,149378,5,4,0:0:0:0:
256,80,149866,1,12,0:0:0:0:
128,200,150353,1,4,0:0:0:0:
200,252,150597,2,0,P|256:270|312:252,1,120
456,128,151329,6,0,P|416:128|384:104,1,80,4|0,0:0|0:0,0:0:0:0:
336,32,151817,1,0,0:0:0:0:
300,112,152061,1,0,0:0:0:0:
212,112,152305,1,0,0:0:0:0:
176,32,152549,1,0,0:0:0:0:
127,105,152792,2,0,P|95:128|56:128,1,80,8|0,0:0|0:0,0:0:0:0:
72,216,153280,2,0,P|108:292|176:292,1,160,0|8,0:0|0:0,0:0:0:0:
256,256,154012,1,0,0:0:0:0:
336,292,154256,2,0,P|412:286|440:216,1,160,0|8,0:0|0:0,0:0:0:0:
356,64,155231,6,0,P|319:46|280:49,1,80,0|0,0:0|0:0,0:0:0:0:
191,69,155719,2,0,P|168:72|116:52,1,80,8|0,0:0|0:0,0:0:0:0:
116,52,156085,2,0,P|60:84|36:132,1,120
48,220,156695,1,8,0:0:0:0:
135,234,156939,1,0,0:0:0:0:
156,320,157183,2,0,P|192:337|231:334,1,80,0|0,0:0|0:0,0:0:0:0:
321,315,157671,2,0,P|344:312|396:332,1,80,8|0,0:0|0:0,0:0:0:0:
396,332,158036,2,0,P|452:300|476:252,1,120
488,164,158647,1,8,0:0:0:0:
468,80,158891,1,0,0:0:0:0:
404,140,159134,6,0,P|380:172|312:184,1,80,0|0,0:0|0:0,0:0:0:0:
328,100,159622,2,0,P|304:68|300:28,1,80,8|0,0:0|0:0,0:0:0:0:
212,29,160110,2,0,P|207:68|184:100,1,80
108,140,160597,2,0,P|132:172|200:184,1,80,8|0,0:0|0:0,0:0:0:0:
256,204,161085,2,0,P|212:268|128:268,1,160,0|8,0:0|0:0,0:0:0:0:
256,204,162061,2,0,P|300:268|384:268,1,160,0|8,0:0|0:0,0:0:0:0:
460,116,163036,5,4,0:0:0:0:
424,36,163280,1,0,0:0:0:0:
372,108,163524,2,0,P|328:116|296:104,1,80,8|0,0:0|0:0,0:0:0:0:
272,84,163890,2,0,P|232:60|160:60,1,120
88,112,164500,2,0,P|116:140|168:148,1,80,8|0,0:0|0:0,0:0:0:0:
204,224,164988,2,0,P|256:275|308:224,1,160,4|8,0:0|0:0,0:0:0:0:
328,138,165719,1,0,0:0:0:0:
316,48,165963,2,0,L|276:36,3,40
236,36,166451,2,0,L|197:47,3,40,8|0|0|0,0:0|0:0|0:0|0:0,0:0:0:0:
160,128,166939,6,0,P|150:198|76:236,1,160,4|8,0:0|0:0,0:0:0:0:
76,148,167670,1,0,0:0:0:0:
76,236,167914,2,0,P|116:304|192:320,1,160,0|8,0:0|0:0,0:0:0:0:
276,292,168647,1,0,0:0:0:0:
340,232,168890,2,0,L|356:152,1,80
376,68,169378,2,0,P|332:68|300:84,1,80,8|0,0:0|0:0,0:0:0:0:
211,83,169866,2,0,P|175:66|136:68,1,80
156,153,170353,2,0,L|172:232,1,80,8|0,0:0|0:0,0:0:0:0:
124,308,170841,6,0,P|196:320|256:264,1,160,0|8,0:0|0:0,0:0:0:0:
256,176,171573,1,0,0:0:0:0:
256,264,171817,2,0,P|311:318|388:308,1,160,0|8,0:0|0:0,0:0:0:0:
387,308,172549,1,0,0:0:0:0:
256,176,173036,1,0,0:0:0:0:
180,128,173280,2,0,P|136:128|104:104,1,80,8|0,0:0|0:0,0:0:0:0:
256,88,173768,2,0,L|256:4,1,80
332,128,174256,2,0,P|376:128|408:104,1,80,8|0,0:0|0:0,0:0:0:0:
332,128,174744,6,0,P|304:200|336:272,1,160,4|8,0:0|0:0,0:0:0:0:
256,308,175475,1,0,0:0:0:0:
176,271,175719,2,0,P|207:200|180:128,1,160,0|8,0:0|0:0,0:0:0:0:
256,80,176451,1,0,0:0:0:0:
332,128,176695,2,0,P|344:164|376:188,1,80
364,276,177183,2,0,P|328:288|300:320,1,80,8|0,0:0|0:0,0:0:0:0:
211,318,177670,2,0,P|185:288|148:276,1,80
135,188,178158,2,0,P|167:165|180:128,1,80,8|0,0:0|0:0,0:0:0:0:
256,80,178646,6,0,P|336:90|336:156,1,160,4|8,0:0|0:0,0:0:0:0:
256,192,179378,1,0,0:0:0:0:
175,228,179622,2,0,P|182:301|256:304,1,160,0|8,0:0|0:0,0:0:0:0:
256,192,180597,12,4,182549,0:0:0:0:
256,64,183036,5,8,0:0:0:0:
343,220,183524,2,0,P|328:257|299:283,1,80
211,283,184012,2,0,P|183:259|167:219,1,80,8|0,0:0|0:0,0:0:0:0:
188,136,184500,2,0,P|256:100|324:136,1,160,0|8,0:0|0:0,0:0:0:0:
256,192,185231,1,0,0:0:0:0:
184,244,185475,1,0,0:0:0:0:
212,328,185719,1,0,0:0:0:0:
300,328,185963,1,8,0:0:0:0:
328,244,186207,1,0,0:0:0:0:
400,192,186451,6,0,P|436:180|460:148,2,80,0|0|8,0:0|0:0|0:0,0:0:0:0:
320,156,187183,1,0,0:0:0:0:
256,96,187427,2,0,P|224:72|184:68,1,80
120,128,187914,2,0,P|152:152|192:156,1,80,8|0,0:0|0:0,0:0:0:0:
256,96,188402,2,0,P|288:72|328:68,1,80
392,128,188890,2,0,P|368:152|320:156,1,80,8|0,0:0|0:0,0:0:0:0:
256,216,189378,1,0,0:0:0:0:
188,272,189622,1,0,0:0:0:0:
256,328,189866,1,8,0:0:0:0:
324,272,190110,1,0,0:0:0:0:
408,244,190353,6,0,P|464:196|456:116,1,160,4|8,0:0|0:0,0:0:0:0:
396,52,191085,1,0,0:0:0:0:
312,32,191329,2,0,L|232:24,1,80
180,96,191817,2,0,L|260:104,1,80,8|0,0:0|0:0,0:0:0:0:
104,140,192305,2,0,P|48:188|56:268,1,160,0|8,0:0|0:0,0:0:0:0:
124,328,193037,1,0,0:0:0:0:
212,340,193281,2,0,L|292:348,1,80
340,272,193769,2,0,L|260:264,1,80,8|0,0:0|0:0,0:0:0:0:
172,252,194256,6,0,L|108:244,2,40,4|0|0,0:0|0:0|0:0,0:0:0:0:
261,264,194744,2,0,P|300:252|320:220,1,80,8|0,0:0|0:0,0:0:0:0:
340,132,195231,2,0,L|404:140,2,40
251,120,195719,2,0,P|212:132|192:164,1,80,8|0,0:0|0:0,0:0:0:0:
184,252,196207,6,0,L|200:296,3,40,4|0|0|0,0:0|0:0|0:0|0:0,0:0:0:0:
234,315,196695,2,0,L|278:315,3,40,8|0|0|0,0:0|0:0|0:0|0:0,0:0:0:0:
314,289,197183,2,0,L|328:252,3,40,4|0|0|0,0:0|0:0|0:0|0:0,0:0:0:0:
332,164,197670,1,8,0:0:0:0:
256,80,197914,1,0,0:0:0:0:
180,164,198158,6,0,P|128:228|52:228,1,160,4|8,0:0|0:0,0:0:0:0:
92,148,198890,1,0,0:0:0:0:
44,72,199134,2,0,P|76:60|120:64,1,80
204,96,199622,1,8,0:0:0:0:
292,85,199866,1,0,0:0:0:0:
332,164,200110,2,0,P|384:228|460:228,1,160,0|8,0:0|0:0,0:0:0:0:
420,148,200842,1,0,0:0:0:0:
468,72,201086,2,0,P|436:60|392:64,1,80
308,96,201573,2,0,P|268:101|231:88,1,80,8|0,0:0|0:0,0:0:0:0:
144,68,202061,6,0,P|76:104|76:180,1,160,0|8,0:0|0:0,0:0:0:0:
128,252,202792,2,0,P|156:272|200:268,1,80
256,200,203280,1,0,0:0:0:0:
312,268,203524,2,0,P|351:273|384:252,1,80,8|0,0:0|0:0,0:0:0:0:
436,179,204012,2,0,P|435:103|368:68,1,160,0|8,0:0|0:0,0:0:0:0:
280,76,204744,1,0,0:0:0:0:
216,136,204988,2,0,P|181:161|144:164,1,80
81,102,205475,2,0,P|117:76|152:74,1,80,8|0,0:0|0:0,0:0:0:0:
145,164,205963,6,0,P|114:186|69:191,2,80,4|0|8,0:0|0:0|0:0,0:0:0:0:
172,80,206695,1,0,0:0:0:0:
236,144,206939,1,0,0:0:0:0:
253,230,207183,1,0,0:0:0:0:
242,318,207427,2,0,P|282:314|314:291,1,80,8|0,0:0|0:0,0:0:0:0:
367,220,207914,2,0,P|398:198|443:193,2,80,0|0|8,0:0|0:0|0:0,0:0:0:0:
340,304,208646,1,0,0:0:0:0:
276,240,208890,1,0,0:0:0:0:
259,154,209134,1,0,0:0:0:0:
269,65,209378,2,0,P|229:69|197:92,1,80,8|0,0:0|0:0,0:0:0:0:
156,172,209866,6,0,P|131:157|121:135,2,40,4|0|0,0:0|0:0|0:0,0:0:0:0:
208,244,210353,2,0,P|183:258|159:255,2,40,8|0|0,0:0|0:0|0:0,0:0:0:0:
304,244,210841,2,0,P|328:258|352:255,2,40
356,172,211329,2,0,P|380:157|390:135,2,40,8|0|0,0:0|0:0|0:0,0:0:0:0:
300,104,211817,6,0,P|304:80|300:56,2,40,4|0|0,0:0|0:0|0:0,0:0:0:0:
212,120,212305,2,0,P|201:103|184:92,2,40,8|0|0,0:0|0:0|0:0,0:0:0:0:
200,210,212792,2,0,P|158:212|125:196,1,80,4|0,0:0|0:0,0:0:0:0:
311,197,213280,2,0,P|353:195|386:211,1,80,8|0,0:0|0:0,0:0:0:0:
404,300,213768,6,0,P|332:326|271:280,1,160,4|8,0:0|0:0,0:0:0:0:
256,192,214500,1,0,0:0:0:0:
241,104,214744,2,0,P|180:58|108:84,1,160,0|8,0:0|0:0,0:0:0:0:
56,156,215475,1,0,0:0:0:0:
78,241,215719,2,0,P|31:241|1:224,2,80,0|0|8,0:0|0:0|0:0,0:0:0:0:
160,204,216451,1,0,0:0:0:0:
228,260,216695,2,0,P|268:280|304:280,1,80
384,244,217183,2,0,L|420:168,1,80,8|0,0:0|0:0,0:0:0:0:
404,84,217670,6,0,P|332:58|271:104,1,160,0|8,0:0|0:0,0:0:0:0:
256,192,218402,1,0,0:0:0:0:
241,280,218646,2,0,P|180:326|108:300,1,160,0|8,0:0|0:0,0:0:0:0:
76,216,219377,1,0,0:0:0:0:
112,135,219622,2,0,P|140:107|184:95,1,80
188,183,220110,2,0,P|189:222|212:255,1,80,8|0,0:0|0:0,0:0:0:0:
300,254,220597,2,0,P|322:222|324:183,1,80
334,95,221085,2,0,P|371:106|400:135,1,80,8|0,0:0|0:0,0:0:0:0:
428,220,221573,6,0,L|416:300,2,80,4|0|8,0:0|0:0|0:0,0:0:0:0:
400,135,222305,2,0,P|360:124|324:136,1,80
256,192,222792,1,0,0:0:0:0:
187,248,223036,2,0,P|149:260|112:248,1,80,8|0,0:0|0:0,0:0:0:0:
84,164,223524,6,0,L|96:84,2,80,4|0|8,0:0|0:0|0:0,0:0:0:0:
112,248,224256,1,0,0:0:0:0:
180,304,224500,2,0,P|256:328|332:304,1,160,4|8,0:0|0:0,0:0:0:0:
400,248,225231,1,0,0:0:0:0:
428,164,225475,6,0,P|428:120|412:88,1,80,4|0,0:0|0:0,0:0:0:0:
336,44,225963,2,0,P|296:68|260:68,1,80,8|0,0:0|0:0,0:0:0:0:
180,40,226451,1,0,0:0:0:0:
106,88,226695,1,0,0:0:0:0:
69,168,226939,1,8,0:0:0:0:
72,256,227183,1,0,0:0:0:0:
116,332,227427,5,4,0:0:0:0:
256,192,227914,1,12,0:0:0:0:
396,332,228402,1,4,0:0:0:0:
312,280,228646,2,0,P|256:300|200:280,1,120
96,186,229378,6,0,L|108:104,1,80,4|0,0:0|0:0,0:0:0:0:
180,56,229866,2,0,L|192:136,1,80,8|0,0:0|0:0,0:0:0:0:
204,156,230231,1,0,0:0:0:0:
224,168,230353,2,0,P|260:176|304:164,1,80
376,120,230841,2,0,P|414:109|453:117,1,80,8|0,0:0|0:0,0:0:0:0:
416,198,231329,2,0,L|404:280,1,80
332,328,231817,2,0,L|320:248,1,80,8|0,0:0|0:0,0:0:0:0:
308,228,232182,1,0,0:0:0:0:
288,216,232305,2,0,P|252:208|208:220,1,80
136,264,232792,2,0,P|96:276|52:268,1,80,8|0,0:0|0:0,0:0:0:0:
88,184,233280,6,0,P|100:108|168:72,1,160,0|8,0:0|0:0,0:0:0:0:
256,84,234012,1,0,0:0:0:0:
343,71,234256,2,0,P|411:107|424:184,1,160,0|8,0:0|0:0,0:0:0:0:
360,252,234988,1,0,0:0:0:0:
300,312,235231,2,0,P|328:332|372:336,1,80
256,236,235719,2,0,L|256:156,1,80,8|0,0:0|0:0,0:0:0:0:
212,312,236207,2,0,P|184:332|140:336,1,80
76,272,236695,1,8,0:0:0:0:
84,184,236939,1,0,0:0:0:0:
140,116,237183,6,0,P|56:100|3:147,2,160,0|8|0,0:0|0:0|0:0,0:0:0:0:
184,192,238402,1,0,0:0:0:0:
256,244,238646,1,8,0:0:0:0:
328,192,238890,1,0,0:0:0:0:
372,116,239134,2,0,P|456:100|508:147,2,160,0|8|0,0:0|0:0|0:0,0:0:0:0:
328,192,240353,1,0,0:0:0:0:
256,244,240597,1,8,0:0:0:0:
184,192,240841,1,0,0:0:0:0:
196,104,241085,6,0,P|256:60|316:104,1,160,4|8,0:0|0:0,0:0:0:0:
316,280,242061,2,0,P|256:324|196:280,1,160,0|8,0:0|0:0,0:0:0:0:
156,108,243036,1,4,0:0:0:0:
212,40,243280,1,0,0:0:0:0:
300,40,243524,1,8,0:0:0:0:
356,108,243768,1,0,0:0:0:0:
300,176,244012,2,0,P|315:189|336:196,2,40,0|0|0,0:0|0:0|0:0,0:0:0:0:
212,176,244500,2,0,P|196:189|176:196,2,40,8|0|0,0:0|0:0|0:0,0:0:0:0:
156,108,244988,6,0,P|80:104|36:168,1,160,4|8,0:0|0:0,0:0:0:0:
60,252,245719,2,0,L|48:292,1,40
60,252,245963,2,0,P|97:264|136:257,1,80
213,213,246451,2,0,P|251:205|293:221,1,80,8|0,0:0|0:0,0:0:0:0:
356,276,246939,2,0,P|432:280|476:216,1,160,0|8,0:0|0:0,0:0:0:0:
476,128,247670,2,0,L|491:89,1,40
476,128,247914,2,0,P|440:111|400:115,1,80
324,158,248402,2,0,P|284:161|245:143,1,80,8|0,0:0|0:0,0:0:0:0:
180,92,248890,6,0,P|148:144|176:236,1,160,0|8,0:0|0:0,0:0:0:0:
256,268,249622,1,0,0:0:0:0:
338,234,249866,2,0,P|366:161|332:92,1,160,0|8,0:0|0:0,0:0:0:0:
256,48,250597,2,0,L|256:128,1,80
256,216,251085,1,0,0:0:0:0:
184,264,251329,2,0,P|164:276|108:276,1,80,8|0,0:0|0:0,0:0:0:0:
256,304,251817,2,0,L|256:384,1,80
328,264,252305,2,0,P|348:276|404:276,1,80,8|0,0:0|0:0,0:0:0:0:
448,200,252792,6,0,P|404:136|328:144,1,160,4|8,0:0|0:0,0:0:0:0:
256,192,253524,1,0,0:0:0:0:
182,240,253768,2,0,P|106:247|64:184,2,160,0|8|0,0:0|0:0|0:0,0:0:0:0:
256,192,254988,1,0,0:0:0:0:
219,113,255231,2,0,P|183:90|144:92,2,80,8|0|0,0:0|0:0|0:0,0:0:0:0:
256,192,255963,1,0,0:0:0:0:
290,270,256207,2,0,P|328:293|368:292,1,80,8|0,0:0|0:0,0:0:0:0:
444,264,256695,6,0,P|474:192|444:120,1,160,4|8,0:0|0:0,0:0:0:0:
376,68,257427,1,0,0:0:0:0:
288,80,257670,2,0,L|232:148,1,80
152,156,258158,2,0,L|136:240,1,80,8|0,0:0|0:0,0:0:0:0:
256,192,258646,12,0,260597,0:0:0:0:
136,188,268402,6,0,L|84:252,1,80,4|0,0:0|0:0,0:0:0:0:
212,232,268890,2,0,L|188:308,1,80,8|0,0:0|0:0,0:0:0:0:
300,232,269378,2,0,L|324:308,1,80
376,188,269866,2,0,L|428:252,1,80,8|0,0:0|0:0,0:0:0:0:
420,112,270353,2,0,P|382:98|343:103,1,80
304,124,270719,2,0,P|260:136|188:120,1,120,2|0,0:0|0:0,0:0:0:0:
112,72,271329,1,0,0:0:0:0:
112,72,271451,1,0,0:0:0:0:
112,72,271573,1,0,0:0:0:0:
48,136,271817,2,0,P|64:171|63:211,1,80,8|0,0:0|0:0,0:0:0:0:
16,288,272305,5,0,0:0:0:0:
96,328,272549,1,0,0:0:0:0:
180,296,272792,1,8,0:0:0:0:
264,328,273036,1,0,0:0:0:0:
340,280,273280,2,0,P|376:212|352:136,1,160,0|8,0:0|0:0,0:0:0:0:
292,72,274012,1,0,0:0:0:0:
212,112,274256,2,0,P|172:124|132:120,1,80
92,132,274622,2,0,P|76:168|84:248,1,120,2|0,0:0|0:0,0:0:0:0:
144,312,275231,2,0,P|128:328|120:344,2,40
228,280,275719,1,8,0:0:0:0:
272,204,275963,1,0,0:0:0:0:
348,248,276207,6,0,P|400:256|472:184,1,160,4|8,0:0|0:0,0:0:0:0:
472,96,276939,1,0,0:0:0:0:
388,68,277183,2,0,P|356:88|312:88,1,80
228,68,277670,2,0,P|188:68|154:88,1,80,8|0,0:0|0:0,0:0:0:0:
96,152,278158,2,0,L|104:232,1,80
184,272,278646,1,8,0:0:0:0:
264,232,278890,1,0,0:0:0:0:
260,320,279134,1,0,0:0:0:0:
260,320,279256,1,0,0:0:0:0:
260,320,279378,1,0,0:0:0:0:
340,280,279622,2,0,P|380:284|420:264,1,80,8|0,0:0|0:0,0:0:0:0:
440,184,280110,6,0,L|449:145,3,40
424,92,280597,2,0,L|394:64,3,40,8|0|0|0,0:0|0:0|0:0|0:0,0:0:0:0:
336,52,281085,2,0,L|297:63,3,40
264,111,281573,2,0,L|254:150,3,40,8|0|0|0,0:0|0:0|0:0|0:0,0:0:0:0:
276,204,282061,2,0,L|305:231,3,40
364,240,282548,2,0,L|402:228,3,40,8|0|0|0,0:0|0:0|0:0|0:0,0:0:0:0:
404,136,283036,1,0,0:0:0:0:
312,72,283280,1,0,0:0:0:0:
200,72,283524,1,8,0:0:0:0:
108,136,283768,1,0,0:0:0:0:
88,236,284012,6,0,P|136:300|208:292,1,160,0|8,0:0|0:0,0:0:0:0:
303,291,284744,2,0,P|379:298|424:236,1,160
436,148,285475,2,0,L|412:72,1,80,8|0,0:0|0:0,0:0:0:0:
332,36,285963,1,0,0:0:0:0:
256,80,286207,2,0,P|256:96|256:120,2,40,0|0|8,0:0|0:0|0:0,0:0:0:0:
180,36,286695,1,0,0:0:0:0:
100,72,286939,2,0,L|76:148,1,80
0,196,287427,2,0,P|24:224|64:236,1,80,8|0,0:0|0:0,0:0:0:0:
148,204,287914,6,0,P|172:176|212:160,2,80,0|0|8,0:0|0:0|0:0,0:0:0:0:
132,292,288646,1,0,0:0:0:0:
204,344,288890,2,0,B|240:328|256:286|256:286|272:328|308:344,1,160,0|8,0:0|0:0,0:0:0:0:
380,292,289622,1,0,0:0:0:0:
363,203,289866,2,0,P|337:174|300:160,2,80,0|0|8,0:0|0:0|0:0,0:0:0:0:
380,292,290597,1,0,0:0:0:0:
452,240,290841,2,0,P|468:212|472:164,1,80
468,76,291329,1,8,0:0:0:0:
388,36,291573,1,0,0:0:0:0:
300,40,291817,6,0,L|220:52,1,80
200,136,292305,2,0,L|280:124,1,80,8|0,0:0|0:0,0:0:0:0:
348,200,292792,2,0,L|268:212,1,80
248,296,293280,2,0,L|328:284,1,80,8|0,0:0|0:0,0:0:0:0:
428,236,293768,2,0,P|428:156|368:112,1,160,0|8,0:0|0:0,0:0:0:0:
143,112,294744,2,0,P|82:158|84:236,1,160,0|8,0:0|0:0,0:0:0:0:
324,232,295719,6,0,P|324:196|300:160,1,80
211,160,296207,2,0,P|189:192|188:232,1,80,8|0,0:0|0:0,0:0:0:0:
144,308,296695,2,0,P|168:332|212:340,1,80
299,339,297183,2,0,P|338:334|368:308,1,80,8|0,0:0|0:0,0:0:0:0:
420,228,297670,1,4,0:0:0:0:
256,76,298158,1,4,0:0:0:0:
92,228,298646,1,4,0:0:0:0:
198,282,298890,2,0,P|256:295|314:282,1,120,4|0,0:0|0:0,0:0:0:0:
256,192,299623,12,0,301574,0:0:0:0:
412,116,315231,5,0,0:0:0:0:
256,36,315719,1,0,0:0:0:0:
92,72,316207,1,0,0:0:0:0:
88,92,316329,1,0,0:0:0:0:
84,112,316451,1,0,0:0:0:0:
80,132,316573,1,0,0:0:0:0:
76,152,316695,2,0,L|68:192,1,40
180,304,317183,6,0,P|248:336|328:320,1,160,4|8,0:0|0:0,0:0:0:0:
400,268,317914,1,0,0:0:0:0:
436,188,318158,2,0,L|448:108,1,80
372,64,318646,2,0,L|360:144,1,80,8|0,0:0|0:0,0:0:0:0:
316,220,319134,2,0,P|244:244|216:180,1,160,0|8,0:0|0:0,0:0:0:0:
244,96,319866,1,0,0:0:0:0:
188,28,320110,2,0,L|108:36,1,80
80,120,320597,2,0,L|160:112,1,80,8|0,0:0|0:0,0:0:0:0:
132,196,321085,6,0,P|132:308|164:340,1,160,0|8,0:0|0:0,0:0:0:0:
351,337,322061,2,0,P|394:272|380:196,1,160,0|8,0:0|0:0,0:0:0:0:
380,196,322792,1,0,0:0:0:0:
192,152,323280,1,0,0:0:0:0:
192,240,323524,2,0,P|202:281|230:310,1,80,8|0,0:0|0:0,0:0:0:0:
275,234,324012,2,0,P|311:256|348:256,1,80
332,170,324500,2,0,P|373:159|401:135,1,80,8|0,0:0|0:0,0:0:0:0:
332,80,324988,6,0,P|264:48|184:64,1,160,4|8,0:0|0:0,0:0:0:0:
112,116,325719,1,0,0:0:0:0:
76,196,325963,2,0,L|64:276,1,80
140,320,326451,2,0,L|152:240,1,80,8|0,0:0|0:0,0:0:0:0:
196,164,326939,2,0,P|268:140|296:204,1,160,0|8,0:0|0:0,0:0:0:0:
268,288,327671,1,0,0:0:0:0:
344,328,327914,2,0,P|416:324|452:252,1,160,0|8,0:0|0:0,0:0:0:0:
420,80,328890,6,0,P|380:56|340:56,1,80,4|0,0:0|0:0,0:0:0:0:
264,84,329378,2,0,P|224:80|191:58,1,80,8|0,0:0|0:0,0:0:0:0:
191,58,329744,2,0,P|140:72|100:124,1,120
100,212,330353,1,8,0:0:0:0:
164,272,330597,1,0,0:0:0:0:
248,292,330841,6,0,P|285:268|301:234,1,80,4|0,0:0|0:0,0:0:0:0:
297,149,331329,2,0,P|298:109|319:76,1,80,8|0,0:0|0:0,0:0:0:0:
236,48,331817,2,0,L|196:52,3,40,4|0|0|0,0:0|0:0|0:0|0:0,0:0:0:0:
152,36,332305,2,0,L|112:40,3,40,8|0|0|0,0:0|0:0|0:0|0:0,0:0:0:0:
112,40,332792,6,0,P|128:168|220:208,1,240.000009155274
216,92,334745,2,0,B|168:56|72:80|56:164|120:256|204:304|256:327|256:327|308:304|392:256|456:164|440:80|344:56|296:92,1,806.399975390626
292,208,339622,2,0,P|394:154|400:40,1,240.000009155274
256,72,341573,5,0,0:0:0:0:
256,168,342549,1,0,0:0:0:0:
256,240,343525,1,0,0:0:0:0:
256,312,344500,2,0,L|256:344,1,30.0000011444092
256,192,344684,12,0,348525,0:0:0:0:
