osu file format v14

[General]
AudioFilename: audio.mp3
AudioLeadIn: 0
PreviewTime: 163088
Countdown: 0
SampleSet: Soft
StackLeniency: 0.7
Mode: 0
LetterboxInBreaks: 0
WidescreenStoryboard: 0

[Editor]
DistanceSpacing: 0.5
BeatDivisor: 4
GridSize: 32
TimelineZoom: 1.4

[Metadata]
Title:Kachou Fuugetsu
TitleUnicode:華鳥風月
Artist:senya
ArtistUnicode:senya
Creator:Adinda
Version:Illusion
Source:東方花映塚 ~ Phantasmagoria of Flower View.
Tags:jpop ZUN Team Shanghai Alice 四季映姫 ヤマザナドゥ eiki shiki yamaxanadu 六十年目の東方裁判 Fate of Sixty Years touhou 東方Project 2hu iceon kamasetora かませ虎 纏-MATOI- fantasy kaleidoscope gensou mangekyou 幻想万華鏡 the memories of phantasm 幽閉サテライト yuuhei satellite japanese pop video game shikieiki j-pop kaeizuka flower reflecting mound th9
BeatmapID:3088726
BeatmapSetID:1508174

[Difficulty]
HPDrainRate:6.5
CircleSize:4.4
OverallDifficulty:7.5
ApproachRate:8
SliderMultiplier:2
SliderTickRate:1

[Events]
//Background and Video events
0,0,"a.jpg",0,0
//Break Periods
2,85362,91241
2,298045,310753
//Storyboard Layer 0 (Background)
//Storyboard Layer 1 (Fail)
//Storyboard Layer 2 (Pass)
//Storyboard Layer 3 (Foreground)
//Storyboard Layer 4 (Overlay)
//Storyboard Sound Samples

[TimingPoints]
1260,487.80487804878,3,2,1,50,1,0
1260,-153.846153846153,3,2,1,40,0,0
53942,487.80487804878,4,2,1,50,1,0
53942,-153.846153846153,4,2,1,50,0,0
68576,-100,4,2,4,80,0,0
69551,-83.3333333333333,4,2,1,90,0,1
69917,-83.3333333333333,4,2,1,5,0,1
70039,-83.3333333333333,4,2,1,90,0,1
82966,-83.3333333333333,4,2,4,90,0,1
85161,-133.333333333333,4,2,4,80,0,0
91990,-133.333333333333,4,2,4,70,0,0
92966,-111.111111111111,4,2,1,75,0,0
99795,-111.111111111111,4,2,4,75,0,0
100771,-100,4,2,1,80,0,0
112478,-100,4,2,4,80,0,0
116381,-100,4,2,1,80,0,0
128088,-100,4,2,4,80,0,0
131990,-90.9090909090909,4,2,1,85,0,0
132356,-90.9090909090909,4,2,1,5,0,0
132478,-90.9090909090909,4,2,1,85,0,0
145405,-90.9090909090909,4,2,4,85,0,0
147600,-83.3333333333333,4,2,1,90,0,1
162234,-83.3333333333333,4,2,4,90,0,1
163210,-83.3333333333333,4,2,1,90,0,1
163576,-83.3333333333333,4,2,1,5,0,1
163698,-83.3333333333333,4,2,1,90,0,1
176624,-83.3333333333333,4,2,4,90,0,1
178820,-100,4,2,1,80,0,0
190527,-100,4,2,4,80,0,0
194429,-100,4,2,1,80,0,0
206137,-100,4,2,4,80,0,0
210039,-90.9090909090909,4,2,1,85,0,0
210405,-90.9090909090909,4,2,1,5,0,0
210527,-90.9090909090909,4,2,1,85,0,0
223454,-90.9090909090909,4,2,4,85,0,0
225649,-83.3333333333333,4,2,1,90,0,1
240283,-83.3333333333333,4,2,4,90,0,1
241259,-83.3333333333333,4,2,1,90,0,1
241624,-83.3333333333333,4,2,1,5,0,1
241746,-83.3333333333333,4,2,1,90,0,1
254673,-83.3333333333333,4,2,4,90,0,1
256868,-83.3333333333333,4,2,1,90,0,1
262478,-83.3333333333333,4,2,4,90,0,1
264673,-90.9090909090909,4,2,1,85,0,0
276381,-90.9090909090909,4,2,4,85,0,0
280283,-90.9090909090909,4,2,1,85,0,0
293698,-90.9090909090909,4,2,4,85,0,0
297844,-90.9090909090909,4,2,1,40,0,0
312478,-100,4,2,4,80,0,0
313454,-83.3333333333333,4,2,1,90,0,1
313820,-83.3333333333333,4,2,1,5,0,1
313941,-83.3333333333333,4,2,1,90,0,1
326868,-83.3333333333333,4,2,4,90,0,1
329063,-83.3333333333333,4,2,1,90,0,0

[Colours]
Combo1 : 207,16,45
Combo2 : 43,106,145
Combo3 : 47,189,89

[HitObjects]
141,104,1260,6,0,P|91:89|6:80,2,129.999994049073,2|0|0,0:0|0:0|0:0,0:0:0:0:
276,24,2723,2,0,P|340:17|403:0,2,129.999994049073,2|0|0,0:0|0:0|0:0,0:0:0:0:
377,195,4186,6,0,L|364:263,1,64.9999970245363,2|0,0:0|0:0,0:0:0:0:
452,253,4674,2,0,L|465:321,1,64.9999970245363,2|0,0:0|0:0,0:0:0:0:
384,373,5162,2,0,P|361:348|263:330,1,129.999994049073,2|0,0:0|0:0,0:0:0:0:
270,327,5894,1,2,0:0:0:0:
214,262,6138,2,0,P|184:277|149:282,1,64.9999970245363,2|0,0:0|0:0,0:0:0:0:
111,360,6625,2,0,P|81:345|46:340,1,64.9999970245363,2|0,0:0|0:0,0:0:0:0:
8,169,7113,6,0,L|37:42,2,129.999994049073,2|0|0,0:0|0:0|0:0,0:0:0:0:
195,0,8577,2,0,L|224:127,2,129.999994049073,2|0|0,0:0|0:0|0:0,0:0:0:0:
483,97,10040,6,0,P|439:93|352:46,2,129.999994049073,2|0|0,0:0|0:0|0:0,0:0:0:0:
310,223,11503,2,0,P|354:219|441:172,2,129.999994049073,2|0|0,0:0|0:0|0:0,0:0:0:0:
29,35,12967,6,0,P|40:82|49:174,2,129.999994049073,2|0|0,0:0|0:0|0:0,0:0:0:0:
174,97,14430,2,0,P|163:144|154:236,2,129.999994049073,2|0|0,0:0|0:0|0:0,0:0:0:0:
394,11,15894,6,0,P|357:14|326:12,1,64.9999970245363,2|0,0:0|0:0,0:0:0:0:
328,123,16381,2,0,P|360:121|392:124,1,64.9999970245363,2|0,0:0|0:0,0:0:0:0:
365,231,16869,2,0,P|322:247|314:333,1,129.999994049073,2|0,0:0|0:0,0:0:0:0:
307,322,17601,1,2,0:0:0:0:
427,367,17845,2,0,P|460:359|495:355,1,64.9999970245363,2|0,0:0|0:0,0:0:0:0:
510,278,18333,2,0,P|477:270|442:266,1,64.9999970245363,2|0,0:0|0:0,0:0:0:0:
463,15,18820,6,0,L|492:149,2,129.999994049073,2|0|0,0:0|0:0|0:0,0:0:0:0:
196,77,20284,2,0,L|167:211,2,129.999994049073,2|0|0,0:0|0:0|0:0,0:0:0:0:
427,4,21747,6,0,L|456:138,2,129.999994049073,2|0|0,0:0|0:0|0:0,0:0:0:0:
160,66,23211,2,0,L|131:200,2,129.999994049073,2|0|0,0:0|0:0|0:0,0:0:0:0:
1,378,24674,6,0,P|39:358|103:354,1,97.4999955368044,2|0,0:0|0:0,0:0:0:0:
118,335,25162,2,0,P|155:333|194:335,1,64.9999970245363,2|0,0:0|0:0,0:0:0:0:
263,306,25650,2,0,P|263:347|282:379,1,64.9999970245363,2|0,0:0|0:0,0:0:0:0:
401,335,26138,2,0,P|421:284|417:229,1,97.4999955368044,2|0,0:0|0:0,0:0:0:0:
444,221,26625,2,0,L|458:157,1,64.9999970245363,2|0,0:0|0:0,0:0:0:0:
458,157,27113,1,2,0:0:0:0:
15,78,27601,6,0,L|0:14,1,64.9999970245363,2|0,0:0|0:0,0:0:0:0:
150,40,28089,2,0,L|135:103,1,64.9999970245363,2|0,0:0|0:0,0:0:0:0:
50,133,28577,2,0,L|16:-12,1,129.999994049073,2|0,0:0|0:0,0:0:0:0:
21,6,29308,1,2,0:0:0:0:
150,40,29552,2,0,P|180:33|217:10,1,64.9999970245363,2|0,0:0|0:0,0:0:0:0:
250,102,30040,2,0,P|280:109|317:132,1,64.9999970245363,2|0,0:0|0:0,0:0:0:0:
449,2,30528,6,0,P|429:54|425:110,1,97.4999955368044,2|0,0:0|0:0,0:0:0:0:
435,125,31016,2,0,P|423:158|419:211,1,64.9999970245363,2|0,0:0|0:0,0:0:0:0:
309,125,31503,2,0,P|321:158|325:211,1,64.9999970245363,2|0,0:0|0:0,0:0:0:0:
512,322,31991,2,0,P|456:328|425:373,1,97.4999955368044,2|0,0:0|0:0,0:0:0:0:
408,378,32479,2,0,L|341:358,1,64.9999970245363,2|0,0:0|0:0,0:0:0:0:
277,294,32967,2,0,L|344:274,1,64.9999970245363,2|0,0:0|0:0,0:0:0:0:
149,317,33455,6,0,L|36:282,1,97.4999955368044,2|0,0:0|0:0,0:0:0:0:
25,288,33942,2,0,P|5:264|1:229,1,64.9999970245363,2|0,0:0|0:0,0:0:0:0:
59,155,34430,2,0,P|39:131|35:96,1,64.9999970245363,2|0,0:0|0:0,0:0:0:0:
149,42,34918,2,0,P|184:53|260:56,1,97.4999955368044,2|0,0:0|0:0,0:0:0:0:
266,46,35406,2,0,P|291:55|346:57,1,64.9999970245363,2|0,0:0|0:0,0:0:0:0:
383,130,35894,2,0,P|408:121|463:119,1,64.9999970245363,2|0,0:0|0:0,0:0:0:0:
325,195,36381,6,0,P|315:251|326:299,1,97.4999955368044,2|0,0:0|0:0,0:0:0:0:
346,313,36869,2,0,L|324:374,1,64.9999970245363,2|0,0:0|0:0,0:0:0:0:
234,362,37357,2,0,L|210:293,1,64.9999970245363,2|0,0:0|0:0,0:0:0:0:
155,184,37845,2,0,P|139:233|83:227,1,97.4999955368044,2|0,0:0|0:0,0:0:0:0:
78,262,38333,2,0,P|87:298|91:332,1,64.9999970245363,2|0,0:0|0:0,0:0:0:0:
90,325,38820,1,2,0:0:0:0:
333,167,39308,6,0,P|337:134|345:103,1,64.9999970245363,2|0,0:0|0:0,0:0:0:0:
418,32,39796,2,0,P|426:63|430:95,1,64.9999970245363,2|0,0:0|0:0,0:0:0:0:
512,157,40284,2,0,P|458:173|437:254,1,129.999994049073,2|0,0:0|0:0,0:0:0:0:
432,237,41016,1,2,0:0:0:0:
504,333,41259,2,0,P|471:330|437:334,1,64.9999970245363,2|0,0:0|0:0,0:0:0:0:
497,236,41747,2,0,P|464:233|430:237,1,64.9999970245363,2|0,0:0|0:0,0:0:0:0:
276,292,42235,6,0,P|274:246|232:201,1,97.4999955368044,2|0,0:0|0:0,0:0:0:0:
227,183,42723,2,0,L|250:115,1,64.9999970245363,2|0,0:0|0:0,0:0:0:0:
327,74,43211,2,0,L|304:6,1,64.9999970245363,2|0,0:0|0:0,0:0:0:0:
114,39,43699,2,0,L|76:148,1,97.4999955368044,2|0,0:0|0:0,0:0:0:0:
63,153,44186,2,0,P|76:186|81:228,1,64.9999970245363,2|0,0:0|0:0,0:0:0:0:
0,251,44674,2,0,P|13:284|18:326,1,64.9999970245363,2|0,0:0|0:0,0:0:0:0:
153,379,45162,6,0,P|151:351|220:327,1,97.4999955368044,2|0,0:0|0:0,0:0:0:0:
231,334,45650,2,0,L|300:316,1,64.9999970245363,2|0,0:0|0:0,0:0:0:0:
417,384,46138,2,0,L|348:366,1,64.9999970245363,2|0,0:0|0:0,0:0:0:0:
398,214,46625,2,0,P|390:169|397:110,1,97.4999955368044,2|0,0:0|0:0,0:0:0:0:
414,102,47113,2,0,P|447:104|499:99,1,64.9999970245363,2|0,0:0|0:0,0:0:0:0:
478,102,47601,1,2,0:0:0:0:
31,0,48089,6,0,L|14:62,1,64.9999970245363,2|0,0:0|0:0,0:0:0:0:
148,106,48577,2,0,L|131:43,1,64.9999970245363,2|0,0:0|0:0,0:0:0:0:
40,74,49064,2,0,L|23:136,1,64.9999970245363,2|0,0:0|0:0,0:0:0:0:
131,43,49552,2,0,P|168:40|259:9,1,129.999994049073,2|2,0:0|0:0,0:0:0:0:
255,10,50284,1,0,0:0:0:0:
360,77,50528,2,0,P|355:40|358:7,1,64.9999970245363,2|0,0:0|0:0,0:0:0:0:
443,192,51016,6,0,L|509:167,1,64.9999970245363,2|0,0:0|0:0,0:0:0:0:
360,317,51503,2,0,L|426:342,1,64.9999970245363,2|0,0:0|0:0,0:0:0:0:
273,200,51991,2,0,L|339:175,1,64.9999970245363,2|0,0:0|0:0,0:0:0:0:
355,190,52357,1,2,0:0:0:0:
355,190,52479,1,2,0:0:0:0:
70,212,53455,5,2,0:0:0:0:
89,124,53699,1,2,0:0:0:0:
0,156,53942,2,0,P|-21:205|250:280,1,454.999979171754,2|0,0:0|0:0,0:0:0:0:
192,197,55894,6,0,P|181:139|187:-9,1,194.999991073609,2|0,0:0|0:0,0:0:0:0:
280,51,56869,2,0,L|415:12,1,129.999994049073,2|0,0:0|0:0,0:0:0:0:
512,219,57845,6,0,B|517:136|425:116|425:116|381:167,1,194.999991073609,2|0,0:0|0:0,0:0:0:0:
307,191,58820,2,0,P|331:242|359:384,1,194.999991073609,2|0,0:0|0:0,0:0:0:0:
206,375,59796,6,0,L|221:309,1,64.9999970245363,2|0,0:0|0:0,0:0:0:0:
132,315,60284,2,0,L|117:249,1,64.9999970245363,2|0,0:0|0:0,0:0:0:0:
22,88,61016,5,2,0:0:0:0:
114,39,61259,1,2,0:0:0:0:
26,0,61503,1,2,0:0:0:0:
110,137,61747,2,0,B|279:128|179:214|373:197,1,259.999988098145,2|2,0:0|0:0,0:0:0:0:
445,87,63089,5,2,0:0:0:0:
353,198,63455,1,2,0:0:0:0:
512,297,63699,2,0,L|475:169,1,129.999994049073,2|0,0:0|0:0,0:0:0:0:
316,322,64674,2,0,L|353:194,1,129.999994049073,2|0,0:0|0:0,0:0:0:0:
8,176,65650,6,0,P|-17:257|217:304,1,389.999982147218,2|0,0:0|0:0,0:0:0:0:
354,24,67601,5,4,1:0:0:0:
409,182,68089,1,0,1:0:0:0:
220,58,68577,6,8,L|211:-2,1,50,12|8,1:2|0:2,0:0:0:0:
97,67,68820,2,8,L|89:116,1,50,8|8,1:2|0:2,0:0:0:0:
195,50,69064,1,8,0:2:0:0:
195,50,69186,2,8,L|186:-10,1,50,8|8,1:2|0:2,0:0:0:0:
20,193,69430,5,8,0:2:0:0:
20,193,69552,2,0,B|8:148|8:148|54:80|54:80|101:128,1,179.999994506836,14|0,1:0|0:0,0:0:0:0:
121,139,70040,2,0,P|179:130|250:138,1,119.999996337891,10|0,0:0|0:0,0:0:0:0:
398,365,70528,6,0,B|388:305|388:305|402:235,1,119.999996337891,2|0,1:0|0:0,0:0:0:0:
506,323,70894,2,0,B|516:263|516:263|502:193,1,119.999996337891,2|0,0:0|0:0,0:0:0:0:
373,163,71259,2,0,B|363:103|363:103|377:33,1,119.999996337891,2|0,0:0|1:0,0:0:0:0:
166,176,71747,5,2,0:0:0:0:
239,135,71991,2,0,P|230:227|99:229,1,239.999992675781,10|2,0:0|1:0,0:0:0:0:
19,109,72723,5,2,0:0:0:0:
19,109,72844,1,2,0:0:0:0:
115,51,73089,1,2,0:0:0:0:
115,51,73211,1,2,0:0:0:0:
104,234,73455,6,0,P|99:294|129:356,1,119.999996337891,2|0,1:0|0:0,0:0:0:0:
379,365,73942,2,0,B|323:357|323:357|249:368,1,119.999996337891,10|0,0:0|0:0,0:0:0:0:
240,337,74308,1,2,0:0:0:0:
240,337,74430,2,0,B|194:235|304:182|304:182|347:228,1,239.999992675781,2|8,1:0|0:0,0:0:0:0:
503,164,75162,2,0,P|486:229|481:295,1,119.999996337891,2|0,0:0|1:0,0:0:0:0:
377,28,75650,5,2,0:0:0:0:
315,100,75894,2,0,P|332:165|337:231,1,119.999996337891,10|0,0:0|0:0,0:0:0:0:
52,149,76381,1,2,1:1:0:0:
52,149,76503,1,8,0:0:0:0:
52,149,76625,1,2,0:0:0:0:
195,144,76869,5,10,1:2:0:0:
108,36,77113,1,2,1:1:0:0:
148,264,77357,6,0,B|141:328|141:328|149:389,1,119.999996337891,6|0,1:0|0:0,0:0:0:0:
420,346,77845,2,0,P|359:344|294:348,1,119.999996337891,10|0,0:0|0:0,0:0:0:0:
273,325,78211,1,2,0:0:0:0:
273,325,78333,2,0,B|265:273|265:273|272:205,1,119.999996337891,2|0,1:0|0:0,0:0:0:0:
301,183,78699,2,0,B|308:131|308:131|301:63,1,119.999996337891,2|0,0:0|0:0,0:0:0:0:
268,41,79064,1,2,0:0:0:0:
464,25,79308,5,0,1:0:0:0:
464,25,79430,1,8,0:0:0:0:
464,25,79552,1,2,0:0:0:0:
420,101,79796,1,10,0:0:0:0:
486,181,80040,1,2,0:0:0:0:
420,101,80284,1,2,1:0:0:0:
420,101,80405,1,8,0:0:0:0:
420,101,80528,1,2,0:0:0:0:
506,198,80772,6,0,P|497:257|512:324,1,119.999996337891,10|8,0:0|0:0,0:0:0:0:
437,382,81138,1,8,0:0:0:0:
437,382,81259,6,0,L|366:368,1,59.9999981689454,6|8,1:0|0:0,0:0:0:0:
229,320,81503,1,8,0:0:0:0:
347,298,81747,2,0,L|211:324,1,119.999996337891,8|0,0:0|0:0,0:0:0:0:
212,355,82113,1,8,0:0:0:0:
212,355,82235,1,0,1:0:0:0:
0,210,82479,2,0,L|117:233,2,119.999996337891,2|10|10,0:0|0:0|0:0,0:0:0:0:
75,128,83089,1,8,0:0:0:0:
75,128,83211,5,12,1:2:0:0:
104,125,83333,1,8,0:0:0:0:
134,118,83455,1,8,0:0:0:0:
160,105,83577,1,8,0:0:0:0:
184,87,83699,1,8,1:2:0:0:
210,71,83820,1,8,0:0:0:0:
239,63,83942,1,8,0:0:0:0:
268,58,84064,1,8,0:0:0:0:
298,54,84186,6,8,P|289:88|286:122,1,59.9999981689454,12|8,1:2|0:0,0:0:0:0:
411,147,84430,2,8,P|407:117|399:88,1,59.9999981689454,8|8,1:2|0:0,0:0:0:0:
315,202,84674,1,8,0:0:0:0:
315,202,84796,2,8,P|306:236|303:270,1,59.9999981689454,8|8,1:2|0:0,0:0:0:0:
428,295,85040,1,8,0:0:0:0:
428,295,85162,1,4,1:2:0:0:
77,11,91991,5,8,0:0:0:0:
53,21,92113,1,8,0:0:0:0:
41,44,92235,1,8,0:0:0:0:
46,69,92357,1,8,0:0:0:0:
65,86,92479,1,10,0:0:0:0:
84,103,92601,1,8,0:0:0:0:
88,128,92723,1,10,0:0:0:0:
76,151,92845,1,8,0:0:0:0:
52,161,92967,6,0,B|117:167|117:167|145:203|145:203|222:215,1,179.999994506836,6|8,1:0|0:0,0:0:0:0:
283,97,93699,2,0,P|253:114|197:129,1,89.9999972534181,2|0,0:0|1:0,0:0:0:0:
199,128,94186,1,0,0:0:0:0:
294,0,94430,2,0,P|337:10|377:31,1,89.9999972534181,10|0,0:0|0:0,0:0:0:0:
499,235,94918,6,0,B|507:193|507:193|463:129|463:129|406:168,1,179.999994506836,2|8,1:0|0:0,0:0:0:0:
365,271,95650,2,0,P|383:317|394:369,1,89.9999972534181,2|0,0:0|1:0,0:0:0:0:
370,369,96016,1,8,0:0:0:0:
370,369,96138,1,0,0:0:0:0:
242,285,96381,2,0,P|225:326|214:370,1,89.9999972534181,10|0,0:0|0:0,0:0:0:0:
79,176,96869,5,2,1:0:0:0:
35,266,97113,2,0,P|81:262|135:267,1,89.9999972534181,2|8,0:0|0:0,0:0:0:0:
31,97,97601,2,0,P|77:93|131:98,1,89.9999972534181,2|0,0:0|1:0,0:0:0:0:
252,129,98089,2,0,B|245:83|245:83|249:32,2,89.9999972534181,2|10|2,0:0|0:0|0:0,0:0:0:0:
501,179,98820,6,0,B|441:159|441:159|424:112|424:112|354:89,1,179.999994506836,2|10,1:0|0:0,0:0:0:0:
360,91,99552,1,2,0:0:0:0:
165,241,99796,5,8,1:2:0:0:
160,267,99918,1,8,0:0:0:0:
169,292,100040,1,8,0:0:0:0:
194,306,100162,2,8,L|206:246,1,44.999998626709,8|8,1:2|0:0,0:0:0:0:
289,291,100406,1,8,0:0:0:0:
289,291,100528,2,8,L|297:335,1,44.999998626709,8|8,1:2|0:0,0:0:0:0:
380,229,100772,6,0,B|401:149|316:105|316:105|259:137,1,200,6|8,1:0|0:0,0:0:0:0:
18,202,101503,2,0,B|149:198|76:256|204:261,1,200,2|0,0:0|0:0,0:0:0:0:
45,287,102235,2,0,P|59:339|65:389,1,100,10|0,0:0|0:0,0:0:0:0:
273,384,102723,6,0,P|279:334|292:286,1,100,2|0,1:0|0:0,0:0:0:0:
463,183,103211,1,8,0:0:0:0:
380,229,103455,2,0,B|411:226|440:205|440:205|514:246|498:324,1,200,2|0,0:0|0:0,0:0:0:0:
269,176,104186,2,0,B|274:132|274:132|266:67,1,100,10|0,0:0|0:0,0:0:0:0:
44,46,104674,6,0,P|43:109|163:130,1,200,2|8,1:0|0:0,0:0:0:0:
183,26,105406,1,2,0:0:0:0:
267,76,105650,2,0,P|222:73|173:37,1,100,2|0,1:0|0:0,0:0:0:0:
355,33,106138,2,0,P|400:30|449:-6,1,100,8|0,0:0|0:0,0:0:0:0:
394,171,106625,6,0,L|415:275,2,100,2|0|8,1:0|0:0|0:0,0:0:0:0:
372,353,107357,5,2,0:0:0:0:
401,178,107601,1,2,1:0:0:0:
401,178,107723,1,8,0:0:0:0:
401,178,107845,1,0,0:0:0:0:
505,286,108089,5,10,1:2:0:0:
257,252,108333,1,2,1:0:0:0:
155,300,108577,6,0,B|157:251|157:251|119:176|119:176|59:222,1,200,6|8,1:0|0:0,0:0:0:0:
5,113,109308,2,0,P|29:82|35:7,1,100,2|0,0:0|1:0,0:0:0:0:
38,23,109796,1,0,0:0:0:0:
219,0,110040,2,0,P|224:49|252:89,1,100,10|0,0:0|0:0,0:0:0:0:
507,69,110528,6,0,B|432:79|432:79|404:123|404:123|323:135,1,200,2|8,1:0|0:0,0:0:0:0:
487,263,111259,2,0,B|479:214|479:214|486:163,1,100,2|0,0:0|1:0,0:0:0:0:
499,151,111625,1,8,0:0:0:0:
499,151,111747,1,0,0:0:0:0:
375,231,111991,2,0,B|383:280|383:280|376:329,1,100,10|0,0:0|0:0,0:0:0:0:
148,197,112479,5,14,1:2:0:0:
160,195,112601,1,8,0:0:0:0:
172,193,112723,1,8,0:0:0:0:
184,191,112845,1,8,0:0:0:0:
197,187,112967,1,8,1:2:0:0:
208,182,113089,1,8,0:0:0:0:
219,176,113211,1,8,0:0:0:0:
228,168,113333,1,8,0:0:0:0:
237,159,113455,1,8,1:2:0:0:
247,152,113577,1,8,0:0:0:0:
258,146,113699,1,8,0:0:0:0:
270,141,113820,1,8,0:0:0:0:
282,138,113942,1,8,1:2:0:0:
294,136,114064,1,8,0:0:0:0:
307,135,114186,1,8,0:0:0:0:
319,134,114308,1,8,0:0:0:0:
333,134,114430,5,12,1:2:0:0:
348,114,114552,1,8,0:0:0:0:
356,91,114674,1,8,0:0:0:0:
354,66,114796,1,8,0:0:0:0:
344,44,114918,1,8,1:2:0:0:
326,27,115040,1,8,0:0:0:0:
302,18,115162,1,8,0:0:0:0:
278,18,115284,1,8,0:0:0:0:
253,28,115406,2,8,L|186:9,3,50,12|8|8|8,1:2|0:0|0:0|0:0,0:0:0:0:
102,131,115894,6,8,L|53:144,1,50,12|8,1:2|0:0,0:0:0:0:
114,215,116138,2,8,L|162:228,1,50,8|8,1:2|0:0,0:0:0:0:
308,286,116381,6,0,B|177:282|250:340|122:345,1,200,6|8,1:0|0:0,0:0:0:0:
302,172,117113,1,0,0:0:0:0:
302,172,117357,2,0,P|344:199|404:217,1,100,0|0,1:0|0:0,0:0:0:0:
392,71,117845,2,0,P|434:44|494:26,1,100,8|0,0:0|0:0,0:0:0:0:
301,15,118333,6,0,B|258:70|176:44|176:44|160:16|130:-2,1,200,2|8,1:0|0:0,0:0:0:0:
302,172,119064,2,0,P|354:168|418:172,1,100,2|0,0:0|1:0,0:0:0:0:
420,155,119430,1,8,0:0:0:0:
420,155,119552,1,0,0:0:0:0:
366,350,119796,2,0,P|418:346|482:350,1,100,10|0,0:0|0:0,0:0:0:0:
255,380,120284,2,0,B|261:329|261:329|250:280,1,100,2|0,1:0|0:0,0:0:0:0:
222,274,120650,1,2,0:0:0:0:
222,274,120772,1,10,0:0:0:0:
23,229,121016,5,2,0:0:0:0:
23,229,121138,1,2,0:0:0:0:
23,229,121259,1,2,1:0:0:0:
96,317,121503,1,2,0:0:0:0:
88,180,121747,1,10,0:0:0:0:
35,372,121991,1,2,0:0:0:0:
112,171,122235,6,0,L|88:71,1,100,2|0,1:0|0:0,0:0:0:0:
88,73,122723,1,10,0:0:0:0:
207,103,122967,2,0,L|231:3,1,100,2|0,0:0|1:0,0:0:0:0:
258,5,123333,1,8,0:0:0:0:
258,5,123455,1,0,0:0:0:0:
438,48,123699,5,10,1:2:0:0:
310,198,123942,1,2,1:0:0:0:
490,156,124186,6,0,P|480:213|475:360,1,200,6|8,1:0|0:0,0:0:0:0:
223,289,124918,2,0,B|266:344|348:318|348:318|364:290|394:272,1,200,2|0,0:0|0:0,0:0:0:0:
220,174,125650,2,0,P|220:127|183:74,1,100,10|0,0:0|0:0,0:0:0:0:
15,139,126138,6,0,P|15:92|52:39,1,100,2|0,1:0|0:0,0:0:0:0:
41,47,126625,1,8,0:0:0:0:
126,248,126869,2,0,B|73:257|73:257|19:249,1,100,2|0,0:0|1:0,0:0:0:0:
5,266,127235,1,8,0:0:0:0:
5,266,127357,1,0,0:0:0:0:
106,368,127601,2,0,B|151:374|151:374|204:365,1,100,10|0,0:0|0:0,0:0:0:0:
455,91,128089,5,14,1:2:0:0:
458,102,128211,1,8,0:2:0:0:
460,115,128333,1,8,0:2:0:0:
460,127,128455,1,8,0:2:0:0:
457,139,128577,1,8,1:2:0:0:
453,151,128699,1,8,0:2:0:0:
446,162,128820,1,8,0:2:0:0:
438,171,128942,1,8,0:2:0:0:
428,179,129064,1,8,1:2:0:0:
417,185,129186,1,8,0:2:0:0:
406,189,129308,1,8,0:2:0:0:
393,191,129430,1,8,0:2:0:0:
381,191,129552,1,8,1:2:0:0:
369,189,129674,1,8,0:2:0:0:
357,185,129796,1,8,0:2:0:0:
346,179,129918,1,8,0:2:0:0:
332,168,130040,5,12,1:2:0:0:
314,185,130162,1,8,0:2:0:0:
301,207,130284,1,8,0:2:0:0:
295,231,130406,1,8,0:2:0:0:
296,256,130528,1,8,1:2:0:0:
304,279,130650,1,8,0:2:0:0:
318,300,130772,1,8,0:2:0:0:
337,316,130894,1,8,0:2:0:0:
360,327,131016,2,8,P|390:316|427:306,3,50,12|8|8|8,1:2|0:2|0:2|0:2,0:0:0:0:
211,244,131503,6,8,P|181:233|144:223,1,50,14|8,1:2|0:2,0:0:0:0:
216,152,131747,2,8,P|239:144|263:135,1,50,10|8,1:2|0:2,0:0:0:0:
486,82,131991,6,0,B|492:18|413:-3|413:-3|365:35,1,165.000005035401,6|0,1:0|0:0,0:0:0:0:
361,66,132479,2,0,P|376:120|382:180,1,110.000003356934,10|0,0:0|0:0,0:0:0:0:
425,379,132967,2,0,P|431:324|445:271,1,110.000003356934,2|0,1:0|0:0,0:0:0:0:
507,218,133332,2,0,L|482:156,1,55.0000016784668,2|8,0:0|0:0,0:0:0:0:
230,2,133699,6,0,P|224:77|97:78,1,220.000006713867,2|2,0:0|0:0,0:0:0:0:
137,239,134430,2,0,B|81:229|81:229|26:240,1,110.000003356934,10|0,0:0|0:0,0:0:0:0:
71,384,134918,2,0,B|127:374|127:374|179:384,1,110.000003356934,2|0,1:0|0:0,0:0:0:0:
255,338,135284,2,0,L|272:269,1,55.0000016784668,2|8,0:0|0:0,0:0:0:0:
440,125,135650,5,2,0:0:0:0:
345,102,135894,2,0,B|370:131|407:134|407:134|443:213|381:277,2,220.000006713867,2|10|2,1:0|0:0|1:0,0:0:0:0:
209,40,137113,1,2,0:0:0:0:
209,40,137235,1,2,0:0:0:0:
209,40,137357,2,0,P|256:38|313:-2,1,110.000003356934,10|0,0:0|0:0,0:0:0:0:
503,216,137845,5,2,1:0:0:0:
376,107,138089,1,2,0:0:0:0:
489,47,138333,1,10,0:0:0:0:
394,264,138577,1,2,0:0:0:0:
443,167,138820,1,2,1:0:0:0:
443,167,138942,1,10,0:0:0:0:
443,167,139064,1,0,0:0:0:0:
312,228,139308,5,10,1:2:0:0:
479,359,139552,1,2,1:0:0:0:
311,205,139796,2,0,B|247:193|206:217|206:217|143:195|138:131,1,220.000006713867,6|8,1:0|0:0,0:0:0:0:
60,1,140528,6,0,B|196:-3|122:71|275:58,1,220.000006713867,2|0,0:0|0:0,0:0:0:0:
138,135,141259,2,0,B|133:190|133:190|139:248,1,110.000003356934,10|0,0:0|0:0,0:0:0:0:
23,243,141625,1,8,0:0:0:0:
23,243,141747,6,0,B|28:188|28:188|23:133,1,110.000003356934,6|0,1:0|0:0,0:0:0:0:
62,381,142235,2,0,P|98:356|168:349,1,110.000003356934,8|0,0:0|0:0,0:0:0:0:
252,316,142601,1,8,0:0:0:0:
252,316,142723,2,0,P|298:344|352:349,1,110.000003356934,4|0,1:0|0:0,0:0:0:0:
312,160,143211,2,0,P|358:131|412:126,1,110.000003356934,8|0,0:0|0:0,0:0:0:0:
479,195,143577,1,8,0:0:0:0:
479,195,143699,6,0,B|461:230|420:240|420:240|420:341|495:367,1,220.000006713867,6|8,1:0|0:0,0:0:0:0:
223,227,144430,1,2,0:0:0:0:
223,227,144552,1,2,0:0:0:0:
223,227,144674,2,0,B|166:235|166:235|110:229,1,110.000003356934,0|0,1:0|0:0,0:0:0:0:
2,2,145162,2,0,B|54:7|54:7|111:0,1,110.000003356934,8|8,0:0|0:0,0:0:0:0:
206,25,145528,1,8,0:2:0:0:
206,25,145650,5,12,1:2:0:0:
193,49,145772,1,8,0:2:0:0:
189,76,145894,1,8,0:2:0:0:
197,102,146016,1,8,0:2:0:0:
213,124,146138,1,8,1:2:0:0:
237,138,146259,1,8,0:2:0:0:
264,142,146381,1,8,0:2:0:0:
290,136,146503,1,8,0:2:0:0:
316,117,146625,6,8,L|303:54,1,55.0000016784668,12|8,1:2|0:2,0:0:0:0:
185,155,146869,2,8,L|198:92,1,55.0000016784668,8|8,1:2|0:2,0:0:0:0:
377,256,147113,1,10,0:2:0:0:
377,256,147235,2,8,L|364:193,1,55.0000016784668,8|10,1:2|0:2,0:0:0:0:
246,294,147479,5,8,0:2:0:0:
246,294,147601,2,0,B|93:289|177:373|4:358,2,239.999992675781,14|8|0,1:0|0:0|1:0,0:0:0:0:
246,294,148820,1,0,0:0:0:0:
135,225,149064,2,0,P|85:205|21:188,1,119.999996337891,8|0,0:0|0:0,0:0:0:0:
124,11,149552,6,0,P|122:91|254:96,1,239.999992675781,2|8,1:0|0:0,0:0:0:0:
443,21,150284,1,2,0:0:0:0:
443,21,150406,1,2,0:0:0:0:
443,21,150528,2,0,B|383:37|383:37|325:23,1,119.999996337891,2|0,1:0|0:0,0:0:0:0:
391,146,151016,2,0,B|447:159|447:159|507:143,1,119.999996337891,10|0,0:0|0:0,0:0:0:0:
343,260,151503,6,0,P|236:240|214:346,1,239.999992675781,2|8,1:0|0:0,0:0:0:0:
214,346,152235,1,0,0:0:0:0:
123,137,152479,1,2,1:0:0:0:
123,137,152601,1,8,0:0:0:0:
123,137,152723,1,0,0:0:0:0:
54,205,152967,2,0,P|38:253|63:318,1,119.999996337891,8|0,0:0|0:0,0:0:0:0:
343,260,153455,5,2,1:0:0:0:
216,349,153699,1,2,0:0:0:0:
299,378,153942,1,10,0:0:0:0:
256,217,154186,2,0,P|240:169|265:104,1,119.999996337891,2|0,0:0|1:0,0:0:0:0:
259,82,154552,1,8,0:0:0:0:
259,82,154674,5,0,0:0:0:0:
368,119,154918,1,10,0:0:0:0:
512,0,155162,1,2,0:0:0:0:
483,78,155406,6,0,P|472:147|463:318,1,239.999992675781,2|8,1:0|0:0,0:0:0:0:
263,357,156138,1,2,0:0:0:0:
263,357,156259,1,2,0:0:0:0:
263,357,156381,2,0,B|327:364|327:364|383:356,1,119.999996337891,2|0,1:0|0:0,0:0:0:0:
336,278,156747,2,0,B|280:270|280:270|216:277,1,119.999996337891,2|0,0:0|0:0,0:0:0:0:
195,297,157113,1,2,0:0:0:0:
21,121,157357,6,0,L|55:-4,1,119.999996337891,2|0,1:0|0:0,0:0:0:0:
214,143,157845,2,0,L|180:18,1,119.999996337891,10|0,0:0|0:0,0:0:0:0:
0,165,158333,2,0,L|34:40,1,119.999996337891,2|0,1:0|0:0,0:0:0:0:
193,187,158820,2,0,L|159:62,1,119.999996337891,10|0,0:0|0:0,0:0:0:0:
3,361,159308,5,6,1:0:0:0:
159,301,159552,1,2,0:0:0:0:
86,229,159796,1,10,0:0:0:0:
182,303,160040,2,0,B|269:311|269:311|301:360|301:360|413:373,1,239.999992675781,2|0,0:0|0:0,0:0:0:0:
335,107,160772,2,0,P|312:163|310:228,1,119.999996337891,10|0,0:0|0:0,0:0:0:0:
485,18,161259,6,0,P|507:73|510:132,1,119.999996337891,6|0,1:0|0:0,0:0:0:0:
277,10,161747,2,0,B|341:18|341:18|404:8,1,119.999996337891,8|2,0:0|0:0,0:0:0:0:
44,212,162235,6,8,P|40:242|60:278,1,59.9999981689454,8|8,1:2|0:2,0:0:0:0:
168,195,162479,2,8,P|172:225|152:261,1,59.9999981689454,8|8,1:2|0:2,0:0:0:0:
8,73,162723,1,10,0:2:0:0:
8,73,162845,2,8,P|4:103|24:139,1,59.9999981689454,8|8,1:2|0:2,0:0:0:0:
132,56,163089,5,8,0:2:0:0:
132,56,163211,2,0,B|180:87|249:59|249:59|259:18|287:2,1,179.999994506836,12|0,1:0|0:0,0:0:0:0:
308,0,163699,2,0,P|367:-4|437:-1,1,119.999996337891,10|0,0:0|0:0,0:0:0:0:
382,200,164186,6,0,B|372:141|372:141|379:76,1,119.999996337891,2|0,1:0|0:0,0:0:0:0:
498,76,164552,2,0,B|508:135|508:135|501:200,1,119.999996337891,2|0,0:0|0:0,0:0:0:0:
450,262,164918,2,0,P|445:334|456:394,1,119.999996337891,2|0,0:0|1:0,0:0:0:0:
206,293,165406,5,2,0:0:0:0:
336,298,165650,2,0,B|183:293|267:377|94:362,1,239.999992675781,10|2,0:0|1:0,0:0:0:0:
171,171,166381,1,2,0:0:0:0:
171,171,166503,1,2,0:0:0:0:
28,103,166747,1,2,0:0:0:0:
28,103,166869,1,2,0:0:0:0:
152,192,167113,6,0,B|139:135|139:135|148:68,1,119.999996337891,2|0,1:0|0:0,0:0:0:0:
288,192,167601,2,0,B|275:135|275:135|284:68,1,119.999996337891,10|0,0:0|0:0,0:0:0:0:
316,73,167967,1,2,0:0:0:0:
316,73,168089,2,0,B|387:123|471:67|471:67|477:16|515:-15,1,239.999992675781,2|8,1:0|0:0,0:0:0:0:
512,244,168820,6,0,P|502:309|503:372,1,119.999996337891,2|0,0:0|1:0,0:0:0:0:
440,187,169308,1,2,0:0:0:0:
380,363,169552,2,0,P|379:303|370:243,1,119.999996337891,10|0,0:0|0:0,0:0:0:0:
67,182,170040,5,2,1:1:0:0:
67,182,170162,1,8,0:0:0:0:
67,182,170284,1,2,0:0:0:0:
223,161,170528,5,10,1:2:0:0:
125,61,170772,1,2,1:0:0:0:
173,284,171016,5,6,1:0:0:0:
173,284,171137,1,8,0:0:0:0:
173,284,171259,1,0,0:0:0:0:
223,161,171503,2,0,P|215:108|246:46,1,119.999996337891,10|0,0:0|0:0,0:0:0:0:
263,24,171869,1,2,0:0:0:0:
263,24,171991,2,0,B|326:29|326:29|388:20,1,119.999996337891,2|0,1:0|0:0,0:0:0:0:
393,39,172357,2,0,B|456:44|456:44|518:35,1,119.999996337891,2|0,0:0|0:0,0:0:0:0:
486,131,172723,5,10,0:0:0:0:
486,131,172845,2,0,L|503:203,1,59.9999981689454,8|0,0:0|1:0,0:0:0:0:
407,171,173089,1,8,0:0:0:0:
407,171,173211,2,0,L|390:243,1,59.9999981689454,10|0,0:0|0:0,0:0:0:0:
412,380,173455,5,10,0:0:0:0:
393,229,173699,1,2,0:0:0:0:
512,298,173942,1,2,1:0:0:0:
512,298,174064,1,8,0:0:0:0:
512,298,174186,1,2,0:0:0:0:
297,316,174430,2,0,P|235:311|167:318,1,119.999996337891,10|8,0:0|0:0,0:0:0:0:
97,256,174796,1,8,0:0:0:0:
97,256,174918,6,0,L|77:188,1,59.9999981689454,6|8,1:0|0:0,0:0:0:0:
220,104,175162,1,8,0:0:0:0:
187,220,175406,2,0,L|220:105,1,119.999996337891,8|0,0:0|0:0,0:0:0:0:
247,99,175772,1,8,0:0:0:0:
247,99,175894,1,0,1:0:0:0:
328,8,176138,2,0,B|391:16|391:16|470:3,2,119.999996337891,2|10|10,0:0|0:0|0:0,0:0:0:0:
359,130,176747,1,8,0:2:0:0:
359,130,176869,5,12,1:2:0:0:
363,159,176991,1,8,0:2:0:0:
376,186,177113,1,8,0:2:0:0:
395,209,177235,1,8,0:2:0:0:
417,230,177357,1,8,1:2:0:0:
435,254,177479,1,8,0:2:0:0:
448,281,177601,1,8,0:2:0:0:
455,310,177723,1,8,0:2:0:0:
458,340,177845,2,8,L|474:271,1,59.9999981689454,12|8,1:2|0:2,0:0:0:0:
308,221,178089,6,8,L|321:279,1,59.9999981689454,8|8,1:2|0:2,0:0:0:0:
238,120,178333,1,8,0:2:0:0:
238,120,178455,2,8,L|222:189,1,59.9999981689454,8|8,1:2|0:2,0:0:0:0:
269,15,178698,5,8,0:2:0:0:
269,15,178820,2,0,B|312:70|394:44|394:44|410:16|440:-2,1,200,6|8,1:0|0:0,0:0:0:0:
238,120,179552,2,0,B|228:155|185:177|185:177|185:257|233:286,1,200,2|0,0:0|0:0,0:0:0:0:
466,214,180284,6,0,L|355:184,1,100,10|0,0:0|0:0,0:0:0:0:
433,365,180772,2,0,L|351:283,1,100,2|0,1:0|0:0,0:0:0:0:
238,120,181259,5,8,0:0:0:0:
176,190,181503,2,0,B|243:167|243:167|260:121|260:121|347:96,1,200,2|0,0:0|0:0,0:0:0:0:
144,101,182235,2,0,P|98:100|50:54,1,100,10|0,0:0|0:0,0:0:0:0:
6,305,182723,6,0,B|-5:256|-5:256|44:178|44:178|91:234,1,200,2|8,1:0|0:0,0:0:0:0:
200,370,183455,2,0,B|150:364|150:364|86:375,1,100,2|0,0:0|1:0,0:0:0:0:
101,372,183942,1,0,0:0:0:0:
288,321,184186,2,0,B|338:327|338:327|386:318,1,100,10|0,0:0|0:0,0:0:0:0:
512,184,184674,6,0,P|483:185|422:144,1,100,2|0,1:0|0:0,0:0:0:0:
330,143,185162,1,10,0:0:0:0:
395,36,185406,2,0,P|444:31|482:0,1,100,2|0,0:0|1:0,0:0:0:0:
509,11,185772,1,8,0:0:0:0:
509,11,185894,1,0,0:0:0:0:
301,34,186138,5,10,1:2:0:0:
330,143,186381,1,2,1:0:0:0:
119,167,186625,6,0,B|139:85|41:58|41:58|7:103,1,200,6|8,1:0|0:0,0:0:0:0:
0,203,187357,2,0,P|13:252|21:306,1,100,2|0,0:0|1:0,0:0:0:0:
20,300,187845,1,0,0:0:0:0:
194,237,188089,2,0,P|181:285|173:334,1,100,10|0,0:0|0:0,0:0:0:0:
368,120,188577,6,0,B|297:102|297:102|275:54|275:54|198:36,1,200,2|8,1:0|0:0,0:0:0:0:
331,241,189308,2,0,P|324:288|353:337,1,100,2|0,0:0|1:0,0:0:0:0:
381,335,189674,1,8,0:0:0:0:
381,335,189796,1,0,0:0:0:0:
489,367,190040,2,0,P|482:320|511:271,1,100,10|0,0:0|0:0,0:0:0:0:
224,371,190528,5,14,1:2:0:0:
211,369,190650,1,8,0:0:0:0:
199,367,190772,1,8,0:0:0:0:
186,365,190894,1,8,0:0:0:0:
174,362,191016,1,8,1:2:0:0:
162,358,191138,1,8,0:0:0:0:
151,354,191259,1,8,0:0:0:0:
140,347,191381,1,8,0:0:0:0:
131,339,191503,1,8,1:2:0:0:
121,331,191625,1,8,0:0:0:0:
110,325,191747,1,8,0:0:0:0:
98,321,191869,1,8,0:0:0:0:
86,318,191991,1,8,1:2:0:0:
74,316,192113,1,8,0:0:0:0:
61,314,192235,1,8,0:0:0:0:
49,312,192357,1,8,0:0:0:0:
37,309,192479,5,12,1:2:0:0:
27,285,192601,1,8,0:0:0:0:
24,261,192723,1,8,0:0:0:0:
28,236,192845,1,8,0:0:0:0:
39,214,192967,1,8,1:2:0:0:
55,195,193089,1,8,0:0:0:0:
76,181,193211,1,8,0:0:0:0:
100,174,193333,1,8,0:0:0:0:
122,177,193455,2,0,L|133:125,3,50,12|8|8|8,1:2|0:0|0:0|0:0,0:0:0:0:
260,89,193942,6,0,L|249:40,1,50,12|8,1:2|0:0,0:0:0:0:
350,131,194186,2,0,L|361:79,1,50,8|8,1:2|0:0,0:0:0:0:
305,237,194430,6,0,B|331:233|355:214|355:214|436:236|446:323,1,200,6|8,1:0|0:0,0:0:0:0:
444,315,195162,1,0,0:0:0:0:
171,376,195406,2,0,B|220:367|220:367|282:375,1,100,0|0,1:0|0:0,0:0:0:0:
346,317,195894,2,0,B|395:308|395:308|457:316,1,100,8|0,0:0|0:0,0:0:0:0:
503,125,196381,6,0,B|522:34|419:13|419:13|381:69,1,200,2|8,1:0|0:0,0:0:0:0:
232,119,197113,2,0,P|237:97|196:28,1,100,2|0,0:0|1:0,0:0:0:0:
200,11,197479,1,8,0:0:0:0:
200,11,197601,1,0,0:0:0:0:
49,148,197845,2,0,P|47:99|78:60,1,100,10|0,0:0|0:0,0:0:0:0:
119,266,198333,6,0,B|70:274|70:274|16:266,1,100,2|0,1:0|0:0,0:0:0:0:
9,245,198699,1,2,0:0:0:0:
9,245,198820,1,10,0:0:0:0:
232,119,199064,5,2,0:0:0:0:
232,119,199186,1,2,0:0:0:0:
232,119,199308,1,2,1:0:0:0:
307,183,199552,1,2,0:0:0:0:
230,221,199796,1,10,0:0:0:0:
305,285,200040,1,2,0:0:0:0:
412,191,200284,6,0,P|417:236|452:281,1,100,2|0,1:0|0:0,0:0:0:0:
449,278,200772,1,10,0:0:0:0:
472,81,201016,2,0,P|502:119|509:168,1,100,2|0,0:0|1:0,0:0:0:0:
505,198,201381,1,8,0:0:0:0:
505,198,201503,1,0,0:0:0:0:
335,84,201747,5,10,1:2:0:0:
255,178,201991,1,2,1:0:0:0:
84,64,202235,6,0,B|92:104|127:121|127:121|130:200|55:229,1,200,6|8,1:0|0:0,0:0:0:0:
267,29,202967,2,0,B|316:67|389:47|389:47|413:12|449:-2,1,200,2|0,0:0|0:0,0:0:0:0:
503,109,203699,2,0,P|487:167|481:218,1,100,10|0,0:0|0:0,0:0:0:0:
291,287,204186,6,0,P|304:334|312:384,1,100,2|0,1:0|0:0,0:0:0:0:
312,384,204674,1,8,0:0:0:0:
166,329,204918,2,0,B|119:342|119:342|54:328,1,100,2|0,0:0|1:0,0:0:0:0:
42,340,205284,1,8,0:0:0:0:
42,340,205406,1,0,0:0:0:0:
98,190,205650,2,0,B|51:203|51:203|-14:189,1,100,10|0,0:0|0:0,0:0:0:0:
203,16,206138,5,14,1:2:0:0:
197,27,206259,1,8,0:2:0:0:
193,38,206381,1,8,0:2:0:0:
191,51,206503,1,8,0:2:0:0:
192,63,206625,1,8,1:2:0:0:
194,75,206747,1,8,0:2:0:0:
199,87,206869,1,8,0:2:0:0:
206,97,206991,1,8,0:2:0:0:
214,107,207113,1,8,1:2:0:0:
224,114,207235,1,8,0:2:0:0:
235,120,207357,1,8,0:2:0:0:
247,123,207479,1,8,0:2:0:0:
260,125,207601,1,8,1:2:0:0:
272,124,207723,1,8,0:2:0:0:
284,121,207845,1,8,0:2:0:0:
296,116,207967,1,8,0:2:0:0:
308,109,208089,5,12,1:2:0:0:
308,133,208211,1,8,0:2:0:0:
311,158,208333,1,8,0:2:0:0:
319,182,208455,1,8,0:2:0:0:
332,203,208577,1,8,1:2:0:0:
346,224,208699,1,8,0:2:0:0:
354,248,208820,1,8,0:2:0:0:
357,272,208942,1,8,0:2:0:0:
354,296,209064,2,0,P|383:304|407:315,3,50,12|8|8|8,1:2|0:2|0:2|0:2,0:0:0:0:
160,380,209552,6,0,P|184:373|207:364,1,50,14|8,1:2|0:2,0:0:0:0:
143,276,209796,2,0,P|119:266|95:260,1,50,10|8,1:2|0:2,0:0:0:0:
2,163,210040,6,0,B|-5:123|-5:123|27:53|27:53|63:89,1,165.000005035401,6|0,1:0|0:0,0:0:0:0:
94,106,210528,2,0,P|148:100|214:104,1,110.000003356934,10|0,0:0|0:0,0:0:0:0:
364,147,211016,2,0,B|354:92|354:92|366:35,1,110.000003356934,2|0,1:0|0:0,0:0:0:0:
449,46,211381,2,0,L|503:30,1,55.0000016784668,2|8,0:0|0:0,0:0:0:0:
506,224,211747,6,0,P|505:297|377:296,1,220.000006713867,2|2,0:0|0:0,0:0:0:0:
157,366,212479,2,0,P|213:359|266:337,1,110.000003356934,10|0,0:0|0:0,0:0:0:0:
151,162,212967,2,0,P|95:155|42:133,1,110.000003356934,2|0,1:0|0:0,0:0:0:0:
5,54,213333,2,0,L|28:-2,1,55.0000016784668,2|8,0:0|0:0,0:0:0:0:
336,71,213699,5,2,0:0:0:0:
246,15,213942,2,0,B|325:25|325:25|361:68|361:68|452:80,2,220.000006713867,2|10|2,1:0|0:0|1:0,0:0:0:0:
346,222,215162,1,2,0:0:0:0:
346,222,215284,1,2,0:0:0:0:
346,222,215406,2,0,B|336:275|336:275|343:336,1,110.000003356934,10|0,0:0|0:0,0:0:0:0:
68,297,215894,5,2,1:0:0:0:
186,238,216138,1,2,0:0:0:0:
100,131,216381,1,10,0:0:0:0:
41,191,216625,5,2,0:0:0:0:
110,111,216869,1,2,1:0:0:0:
110,111,216991,1,10,0:0:0:0:
110,111,217113,1,0,0:0:0:0:
0,4,217357,5,10,1:2:0:0:
117,77,217601,1,2,1:0:0:0:
329,2,217845,2,0,B|304:21|258:25|258:25|235:117|304:154,1,220.000006713867,6|8,1:0|0:0,0:0:0:0:
483,187,218577,6,0,B|347:183|421:257|268:244,1,220.000006713867,2|0,0:0|0:0,0:0:0:0:
193,128,219308,2,0,P|246:147|305:151,1,110.000003356934,10|0,0:0|0:0,0:0:0:0:
278,244,219674,1,8,0:0:0:0:
278,244,219796,6,0,P|223:248|171:267,1,110.000003356934,6|0,1:0|0:0,0:0:0:0:
66,384,220284,2,0,B|56:336|56:336|66:272,1,110.000003356934,8|0,0:0|0:0,0:0:0:0:
0,212,220650,1,8,0:0:0:0:
0,212,220772,2,0,B|-10:164|-10:164|0:100,1,110.000003356934,4|0,1:0|0:0,0:0:0:0:
167,26,221259,2,0,P|171:96|214:143,1,110.000003356934,8|0,0:0|0:0,0:0:0:0:
280,106,221625,1,8,0:0:0:0:
280,106,221747,6,0,B|344:94|385:118|385:118|448:96|453:32,1,220.000006713867,6|8,1:0|0:0,0:0:0:0:
503,211,222479,1,2,0:0:0:0:
503,211,222601,1,2,0:0:0:0:
503,211,222723,2,0,P|490:266|487:324,1,110.000003356934,2|0,1:0|0:0,0:0:0:0:
335,262,223211,2,0,P|348:317|351:375,1,110.000003356934,8|8,0:0|0:0,0:0:0:0:
254,338,223577,1,8,0:2:0:0:
254,338,223699,5,12,1:2:0:0:
227,331,223820,1,8,0:2:0:0:
201,322,223941,1,8,0:2:0:0:
178,307,224064,1,8,0:2:0:0:
160,286,224186,1,8,1:2:0:0:
138,269,224308,1,8,0:2:0:0:
113,260,224430,1,8,0:2:0:0:
86,254,224552,1,8,0:2:0:0:
59,251,224674,2,0,L|72:309,1,55.0000016784668,12|8,1:2|0:2,0:0:0:0:
252,225,224918,6,0,L|263:171,1,55.0000016784668,8|8,1:2|0:2,0:0:0:0:
354,124,225162,1,10,0:2:0:0:
354,124,225284,2,0,L|342:70,1,55.0000016784668,8|10,1:2|0:2,0:0:0:0:
230,0,225528,5,8,0:2:0:0:
230,0,225650,2,0,B|137:17|137:17|106:68|106:68|9:83,2,239.999992675781,14|8|0,1:0|0:0|1:0,0:0:0:0:
230,0,226869,1,0,0:0:0:0:
141,182,227113,2,0,P|140:235|179:300,1,119.999996337891,8|0,0:0|0:0,0:0:0:0:
384,370,227601,6,0,B|371:310|371:310|423:223|423:223|483:282,1,239.999992675781,2|8,1:0|0:0,0:0:0:0:
479,20,228333,1,2,0:0:0:0:
479,20,228455,1,2,0:0:0:0:
479,20,228577,2,0,L|501:144,1,119.999996337891,2|0,1:0|0:0,0:0:0:0:
320,118,229064,2,0,L|340:0,1,119.999996337891,10|0,0:0|0:0,0:0:0:0:
22,115,229552,6,0,B|109:103|109:103|139:54|139:54|243:40,1,239.999992675781,2|8,1:0|0:0,0:0:0:0:
232,41,230284,1,0,0:0:0:0:
262,154,230528,1,2,1:0:0:0:
262,154,230650,1,8,0:0:0:0:
262,154,230772,1,0,0:0:0:0:
74,219,231016,2,0,B|63:278|63:278|73:343,1,119.999996337891,8|0,0:0|0:0,0:0:0:0:
381,316,231502,5,2,1:0:0:0:
258,263,231747,1,2,0:0:0:0:
281,367,231991,1,10,0:0:0:0:
366,215,232235,2,0,B|375:155|375:155|364:96,1,119.999996337891,2|0,0:0|1:0,0:0:0:0:
344,84,232601,1,8,0:0:0:0:
344,84,232723,1,0,0:0:0:0:
500,79,232967,2,0,B|489:138|489:138|498:197,1,119.999996337891,10|0,0:0|0:0,0:0:0:0:
197,352,233455,6,0,B|134:338|93:368|93:368|15:342|17:268,1,239.999992675781,2|8,1:0|0:0,0:0:0:0:
45,59,234186,1,2,0:0:0:0:
45,59,234308,1,2,0:0:0:0:
45,59,234430,1,2,1:0:0:0:
141,132,234674,2,0,L|172:6,1,119.999996337891,2|8,0:0|0:0,0:0:0:0:
415,46,235162,5,2,0:0:0:0:
415,46,235284,1,2,0:0:0:0:
415,46,235406,2,0,B|356:39|356:39|290:51,1,119.999996337891,2|0,1:0|0:0,0:0:0:0:
470,160,235894,2,0,B|411:153|411:153|345:165,1,119.999996337891,10|0,0:0|0:0,0:0:0:0:
456,25,236381,2,0,B|397:18|397:18|331:30,1,119.999996337891,2|0,1:0|0:0,0:0:0:0:
511,139,236869,2,0,B|452:132|452:132|386:144,1,119.999996337891,10|0,0:0|0:0,0:0:0:0:
159,315,237357,5,6,1:0:0:0:
243,256,237601,1,2,0:0:0:0:
150,153,237845,1,10,0:0:0:0:
264,250,238089,2,0,P|257:310|408:341,1,239.999992675781,2|0,0:0|0:0,0:0:0:0:
499,227,238820,2,0,P|482:187|467:109,1,119.999996337891,10|0,0:0|0:0,0:0:0:0:
324,0,239308,6,0,P|314:59|292:114,1,119.999996337891,6|0,1:0|0:0,0:0:0:0:
65,33,239796,2,0,B|128:38|128:38|195:28,1,119.999996337891,8|2,0:0|0:0,0:0:0:0:
6,163,240284,6,0,P|14:188|23:223,1,59.9999981689454,8|8,1:2|0:2,0:0:0:0:
166,184,240528,2,0,P|156:212|149:241,1,59.9999981689454,8|8,1:2|0:2,0:0:0:0:
58,303,240772,1,10,0:2:0:0:
58,303,240894,2,0,P|66:328|75:363,1,59.9999981689454,8|8,1:2|0:2,0:0:0:0:
218,324,241138,5,8,0:2:0:0:
218,324,241259,2,0,B|283:314|326:348|326:348|390:311,1,179.999994506836,12|0,1:0|0:0,0:0:0:0:
392,286,241747,2,0,P|384:235|388:165,1,119.999996337891,10|0,0:0|0:0,0:0:0:0:
494,12,242235,6,0,B|434:22|434:22|375:15,1,119.999996337891,2|0,1:0|0:0,0:0:0:0:
294,56,242601,2,0,B|234:66|234:66|175:59,1,119.999996337891,2|0,0:0|0:0,0:0:0:0:
94,103,242967,2,0,P|85:160|119:214,1,119.999996337891,2|0,0:0|1:0,0:0:0:0:
88,369,243455,5,2,0:0:0:0:
0,303,243699,2,0,B|153:298|69:382|242:367,1,239.999992675781,10|2,0:0|1:0,0:0:0:0:
447,238,244430,1,2,0:0:0:0:
447,238,244552,1,2,0:0:0:0:
384,358,244796,1,2,0:0:0:0:
384,358,244918,1,2,0:0:0:0:
475,226,245162,6,0,P|466:273|485:358,1,119.999996337891,2|0,1:0|0:0,0:0:0:0:
324,123,245650,2,0,P|315:170|334:255,1,119.999996337891,10|0,0:0|0:0,0:0:0:0:
302,254,246016,1,2,0:0:0:0:
302,254,246138,2,0,B|231:304|147:248|147:248|141:197|103:166,1,239.999992675781,2|8,1:0|0:0,0:0:0:0:
2,60,246869,6,0,B|-7:124|-7:124|0:188,1,119.999996337891,2|0,0:0|1:0,0:0:0:0:
59,271,247357,1,2,0:0:0:0:
116,56,247601,2,0,B|125:120|125:120|118:184,1,119.999996337891,10|0,0:0|0:0,0:0:0:0:
405,12,248089,5,2,1:1:0:0:
405,12,248211,1,8,0:0:0:0:
405,12,248333,1,2,0:0:0:0:
321,131,248577,5,10,1:2:0:0:
244,25,248820,1,2,1:0:0:0:
471,125,249064,5,6,1:0:0:0:
471,125,249186,1,8,0:0:0:0:
471,125,249308,1,0,0:0:0:0:
393,228,249552,2,0,P|394:291|428:335,1,119.999996337891,10|0,0:0|0:0,0:0:0:0:
411,362,249918,1,2,0:0:0:0:
411,362,250040,2,0,B|350:356|350:356|285:363,1,119.999996337891,2|0,1:0|0:0,0:0:0:0:
265,381,250406,2,0,B|204:375|204:375|139:382,1,119.999996337891,2|0,0:0|0:0,0:0:0:0:
82,324,250772,5,10,0:0:0:0:
82,324,250894,2,0,L|98:262,1,59.9999981689454,8|0,0:0|1:0,0:0:0:0:
190,251,251138,1,8,0:0:0:0:
190,251,251259,2,0,L|174:189,1,59.9999981689454,10|0,0:0|0:0,0:0:0:0:
98,12,251503,5,10,0:0:0:0:
234,61,251747,1,2,0:0:0:0:
234,61,251869,1,8,0:0:0:0:
44,136,252113,1,8,0:0:0:0:
44,136,252235,1,2,0:0:0:0:
215,44,252479,2,0,B|273:50|273:50|344:40,1,119.999996337891,10|8,0:0|0:0,0:0:0:0:
374,128,252845,1,8,0:0:0:0:
374,128,252967,6,0,P|364:158|362:194,1,59.9999981689454,6|8,1:0|0:0,0:0:0:0:
479,286,253211,1,8,0:0:0:0:
456,169,253455,2,0,P|474:224|478:291,1,119.999996337891,8|0,0:0|0:0,0:0:0:0:
501,301,253820,1,8,0:0:0:0:
501,301,253942,1,0,1:0:0:0:
243,358,254185,6,0,B|301:364|301:364|362:355,2,119.999996337891,2|10|10,0:0|0:0|0:0,0:0:0:0:
184,276,254796,1,8,0:2:0:0:
184,276,254918,5,12,1:2:0:0:
179,246,255040,1,8,0:2:0:0:
179,216,255162,1,8,0:2:0:0:
186,187,255284,1,8,0:2:0:0:
201,161,255406,1,8,1:2:0:0:
212,133,255528,1,8,0:2:0:0:
217,104,255650,1,8,0:2:0:0:
217,74,255772,1,8,0:2:0:0:
215,44,255894,2,0,P|243:35|288:8,1,59.9999981689454,12|8,1:2|0:2,0:0:0:0:
84,86,256138,6,0,P|57:72|28:62,1,59.9999981689454,8|8,1:2|0:2,0:0:0:0:
34,157,256381,1,8,0:2:0:0:
34,157,256503,2,0,P|62:166|89:180,1,59.9999981689454,8|8,1:2|0:2,0:0:0:0:
406,210,256747,5,8,0:2:0:0:
406,210,256869,2,0,B|252:205|336:289|163:274,1,239.999992675781,6|10,1:0|0:0,0:0:0:0:
306,352,257601,1,2,0:0:0:0:
474,134,257845,2,0,B|466:75|466:75|473:7,1,119.999996337891,2|0,1:0|0:0,0:0:0:0:
443,15,258211,1,2,0:0:0:0:
443,15,258333,5,8,0:0:0:0:
406,210,258577,1,2,0:0:0:0:
406,210,258699,1,8,0:0:0:0:
319,64,258942,1,8,0:0:0:0:
319,64,259064,1,2,0:0:0:0:
210,103,259308,5,10,0:0:0:0:
11,11,259552,1,2,0:0:0:0:
207,1,259796,1,2,1:0:0:0:
207,1,259918,1,8,0:0:0:0:
207,1,260040,1,2,0:0:0:0:
31,128,260284,2,0,B|24:188|24:188|32:247,1,119.999996337891,10|8,0:0|0:0,0:0:0:0:
122,268,260650,1,8,0:0:0:0:
122,268,260772,6,0,L|187:251,1,59.9999981689454,6|8,1:0|0:0,0:0:0:0:
234,383,261016,1,8,0:0:0:0:
117,352,261259,2,0,L|240:384,1,119.999996337891,8|0,0:0|0:0,0:0:0:0:
250,361,261625,1,8,0:0:0:0:
250,361,261746,1,0,1:0:0:0:
370,270,261991,2,0,P|366:327|402:385,2,119.999996337891,2|10|10,0:0|0:0|0:0,0:0:0:0:
295,190,262601,1,8,0:2:0:0:
295,190,262723,5,12,1:2:0:0:
324,187,262845,1,8,0:2:0:0:
354,181,262967,1,8,0:2:0:0:
380,167,263089,1,8,0:2:0:0:
400,145,263211,1,8,1:2:0:0:
422,124,263333,1,8,0:2:0:0:
450,113,263455,1,8,0:2:0:0:
479,108,263577,1,8,0:2:0:0:
509,105,263699,2,8,L|499:169,1,59.9999981689454,12|8,1:2|0:2,0:0:0:0:
340,76,263942,6,8,L|331:17,1,59.9999981689454,8|8,1:2|0:2,0:0:0:0:
173,15,264186,1,8,0:2:0:0:
173,15,264308,2,8,L|163:74,1,59.9999981689454,8|8,1:2|0:2,0:0:0:0:
257,58,264552,1,8,0:2:0:0:
257,58,264674,1,6,1:2:0:0:
21,248,264918,6,8,B|12:194|12:194|22:139,1,110.000003356934,2|8,0:0|0:0,0:0:0:0:
142,247,265406,2,0,P|132:330|6:338,1,220.000006713867,2|0,0:0|0:0,0:0:0:0:
267,240,266138,5,8,0:0:0:0:
402,330,266381,1,2,0:0:0:0:
402,330,266503,1,2,0:0:0:0:
402,330,266625,1,2,1:0:0:0:
401,204,266869,1,2,0:0:0:0:
276,362,267113,1,10,0:0:0:0:
476,258,267357,5,2,0:0:0:0:
476,258,267479,1,2,0:0:0:0:
331,148,267723,1,2,0:0:0:0:
331,148,267845,1,2,0:0:0:0:
493,251,268089,2,0,B|483:193|483:193|493:129,1,110.000003356934,10|0,0:0|0:0,0:0:0:0:
195,6,268577,5,2,1:0:0:0:
177,159,268820,1,2,0:0:0:0:
317,36,269064,1,10,0:0:0:0:
60,132,269307,1,2,0:0:0:0:
12,226,269552,5,2,1:0:0:0:
12,226,269674,1,2,0:0:0:0:
12,226,269796,1,2,0:0:0:0:
12,226,269918,1,2,0:0:0:0:
12,226,270040,2,0,P|10:282|43:329,1,110.000003356934,10|2,0:0|0:0,0:0:0:0:
210,384,270528,6,0,L|229:270,1,110.000003356934,2|0,1:0|0:0,0:0:0:0:
267,271,270894,2,0,L|286:157,1,110.000003356934,2|0,0:0|0:0,0:0:0:0:
321,146,271259,1,2,0:0:0:0:
465,125,271503,1,2,1:0:0:0:
465,125,271625,1,8,0:0:0:0:
465,125,271747,1,0,0:0:0:0:
370,17,271991,1,10,1:2:0:0:
417,256,272235,1,0,1:0:0:0:
271,69,272479,6,0,B|207:57|166:81|166:81|103:59|98:-5,2,220.000006713867,6|8|0,1:0|0:0|1:0,0:0:0:0:
167,218,273699,1,2,0:0:0:0:
241,276,273942,2,0,B|231:337|231:337|240:388,1,110.000003356934,10|0,0:0|0:0,0:0:0:0:
167,218,274430,5,2,1:0:0:0:
167,218,274552,1,2,0:0:0:0:
167,218,274674,1,2,0:0:0:0:
239,384,274918,1,10,0:0:0:0:
339,245,275162,1,2,0:0:0:0:
412,304,275406,5,0,1:0:0:0:
412,304,275528,1,8,0:0:0:0:
412,304,275650,1,0,0:0:0:0:
497,140,275894,6,0,P|486:100|499:27,1,110.000003356934,10|0,0:0|0:0,0:0:0:0:
151,2,276381,5,14,1:2:0:0:
178,5,276503,1,8,0:2:0:0:
205,11,276625,1,8,0:2:0:0:
230,20,276747,1,8,0:2:0:0:
252,38,276868,1,8,1:2:0:0:
273,55,276991,1,8,0:2:0:0:
297,68,277113,1,8,0:2:0:0:
323,76,277235,1,8,0:2:0:0:
352,82,277357,5,14,1:2:0:0:
353,114,277479,1,8,0:2:0:0:
345,146,277601,1,8,0:2:0:0:
327,174,277723,1,8,0:2:0:0:
302,195,277845,1,8,1:2:0:0:
272,207,277967,1,8,0:2:0:0:
239,210,278089,1,8,0:2:0:0:
207,202,278211,1,8,0:2:0:0:
176,187,278333,5,14,1:2:0:0:
139,210,278455,1,8,0:2:0:0:
116,248,278577,1,8,0:2:0:0:
113,291,278699,1,8,0:2:0:0:
130,331,278820,1,8,1:2:0:0:
162,360,278942,1,8,0:2:0:0:
204,372,279064,1,8,0:2:0:0:
247,363,279186,1,8,0:2:0:0:
281,338,279308,2,8,L|297:276,3,55.0000016784668,14|8|8|8,1:2|0:2|0:2|0:2,0:0:0:0:
113,291,279796,6,8,L|100:238,1,55.0000016784668,10|8,1:2|0:2,0:0:0:0:
194,255,280040,2,8,L|207:201,1,55.0000016784668,10|8,1:2|0:2,0:0:0:0:
340,69,280284,6,0,B|276:57|235:81|235:81|172:59|167:-5,2,220.000006713867,6|10|0,1:0|0:0|1:0,0:0:0:0:
477,127,281503,5,2,0:0:0:0:
304,189,281747,1,10,0:0:0:0:
340,69,281991,1,2,0:0:0:0:
444,257,282235,1,2,1:0:0:0:
397,164,282479,1,2,0:0:0:0:
397,164,282601,1,2,0:0:0:0:
397,164,282723,1,10,0:0:0:0:
192,257,282967,6,0,B|270:275|270:275|292:330|292:330|381:354,1,220.000006713867,2|0,0:0|0:0,0:0:0:0:
197,348,283699,2,0,P|138:354|91:383,1,110.000003356934,8|0,0:0|0:0,0:0:0:0:
0,103,284186,2,0,P|46:130|101:135,1,110.000003356934,2|2,1:0|0:0,0:0:0:0:
123,115,284552,1,2,0:0:0:0:
123,115,284674,5,10,0:0:0:0:
192,80,284836,5,2,0:0:0:0:
220,157,284998,5,2,0:0:0:0:
289,122,285162,6,0,B|358:100|421:139|421:139|503:88,1,220.000006713867,2|10,1:0|0:0,0:0:0:0:
487,71,285772,1,2,0:0:0:0:
487,71,285894,1,2,0:0:0:0:
379,257,286138,6,0,B|368:313|368:313|379:375,1,110.000003356934,2|0,1:0|0:0,0:0:0:0:
407,369,286503,1,2,0:0:0:0:
407,369,286625,1,8,0:0:0:0:
255,304,286869,2,0,B|276:218|174:177|174:177|123:221,1,220.000006713867,2|0,0:0|0:0,0:0:0:0:
26,283,287600,5,8,1:2:0:0:
134,211,287844,1,0,1:0:0:0:
115,372,288088,1,4,1:0:0:0:
43,126,288333,5,2,0:0:0:0:
33,94,288455,1,2,0:0:0:0:
36,62,288577,1,10,0:0:0:0:
52,33,288699,1,2,0:0:0:0:
78,13,288820,1,2,0:0:0:0:
109,4,288942,1,2,0:0:0:0:
142,8,289064,2,0,B|199:19|199:19|252:8,1,110.000003356934,2|2,1:0|0:0,0:0:0:0:
276,0,289429,1,2,0:0:0:0:
276,0,289551,1,10,0:0:0:0:
379,18,289795,1,2,0:0:0:0:
263,114,290040,6,0,P|280:166|289:220,1,110.000003356934,6|0,1:0|0:0,0:0:0:0:
388,193,290406,2,0,P|370:245|361:299,1,110.000003356934,2|0,0:0|0:0,0:0:0:0:
277,342,290772,5,2,0:0:0:0:
277,342,290894,1,2,0:0:0:0:
277,342,291016,2,0,B|225:352|225:352|168:342,1,110.000003356934,6|0,1:0|0:0,0:0:0:0:
388,193,291503,2,0,B|439:203|439:203|496:193,1,110.000003356934,10|0,0:0|0:0,0:0:0:0:
152,17,291990,5,6,1:0:0:0:
74,87,292235,1,2,0:0:0:0:
95,102,292357,2,0,P|93:151|132:204,1,110.000003356934,2|2,0:0|0:0,0:0:0:0:
151,204,292723,5,2,0:0:0:0:
357,283,292967,1,2,1:0:0:0:
240,346,293211,1,2,0:0:0:0:
272,146,293455,1,10,0:0:0:0:
506,61,293699,5,10,0:2:0:0:
506,61,293820,1,8,0:2:0:0:
506,61,293942,5,14,1:2:0:0:
478,63,294064,1,8,0:2:0:0:
452,54,294186,1,8,0:2:0:0:
432,36,294308,1,8,0:2:0:0:
419,17,294430,5,10,1:2:0:0:
385,59,294552,1,8,0:2:0:0:
371,112,294674,1,8,0:2:0:0:
379,166,294796,1,8,0:2:0:0:
407,211,294918,6,8,P|432:204|472:198,1,55.0000016784668,10|8,1:2|0:2,0:0:0:0:
353,374,295162,2,8,P|325:369|299:362,1,55.0000016784668,10|8,1:2|0:2,0:0:0:0:
204,278,295406,5,10,0:2:0:0:
204,278,295528,2,0,B|215:200|140:188|140:188|99:232,1,165.000005035401,8|2,1:2|0:2,0:0:0:0:
256,192,296016,12,2,297845,0:0:0:0:
290,290,311503,5,0,1:0:0:0:
205,206,311991,1,0,1:0:0:0:
28,370,312479,6,8,L|41:312,1,50,8|8,1:2|0:2,0:2:0:0:
153,335,312723,2,8,L|140:277,1,50,8|8,1:2|0:2,0:2:0:0:
57,192,312967,1,10,0:2:0:0:
57,192,313089,2,8,L|70:134,1,50,8|8,1:2|0:2,0:2:0:0:
58,40,313333,5,8,0:2:0:0:
58,40,313455,2,0,B|33:55|22:73|22:73|10:152|60:195,1,179.999994506836,12|0,1:0|0:0,0:0:0:0:
88,206,313942,2,0,B|137:202|137:202|156:211|156:211|226:205,1,119.999996337891,10|0,0:0|0:0,0:0:0:0:
347,117,314430,2,0,B|331:60|331:60|341:-1,1,119.999996337891,2|0,1:0|0:0,0:0:0:0:
461,0,314795,2,0,B|470:59|470:59|454:116,1,119.999996337891,2|0,0:0|0:0,0:0:0:0:
403,196,315162,2,0,P|401:237|430:312,1,119.999996337891,2|0,0:0|1:0,0:0:0:0:
192,327,315650,5,2,0:0:0:0:
312,372,315894,2,0,P|215:358|73:372,1,239.999992675781,10|2,0:0|1:0,0:0:0:0:
22,231,316625,1,2,0:0:0:0:
22,231,316747,1,2,0:0:0:0:
74,371,316991,1,2,0:0:0:0:
74,371,317113,1,2,0:0:0:0:
138,155,317357,6,0,L|110:37,1,119.999996337891,2|0,1:0|0:0,0:0:0:0:
248,191,317845,2,0,L|275:74,1,119.999996337891,10|0,0:0|0:0,0:0:0:0:
259,44,318211,1,2,0:0:0:0:
259,44,318333,2,0,B|351:28|351:28|391:60|391:60|489:37,1,239.999992675781,2|8,1:0|0:0,0:0:0:0:
386,195,319064,2,0,P|388:255|426:308,1,119.999996337891,2|0,0:0|1:0,0:0:0:0:
494,373,319552,5,2,0:0:0:0:
420,303,319796,2,0,B|361:314|361:314|289:303,1,119.999996337891,10|0,0:0|0:0,0:0:0:0:
22,201,320284,5,2,1:1:0:0:
22,201,320406,1,8,0:0:0:0:
22,201,320528,1,2,0:0:0:0:
141,172,320772,5,10,1:2:0:0:
2,349,321016,1,2,1:0:0:0:
124,313,321259,5,6,1:0:0:0:
124,313,321381,1,8,0:0:0:0:
124,313,321503,1,0,0:0:0:0:
22,201,321747,2,0,P|10:156|33:66,1,119.999996337891,10|0,0:0|0:0,0:0:0:0:
64,73,322112,1,2,0:0:0:0:
64,73,322234,2,0,B|124:81|124:81|197:67,1,119.999996337891,2|0,1:0|0:0,0:0:0:0:
202,48,322601,2,0,B|262:56|262:56|335:42,1,119.999996337891,2|0,0:0|0:0,0:0:0:0:
364,121,322967,5,10,0:0:0:0:
364,121,323089,2,0,P|354:149|351:193,1,59.9999981689454,8|0,0:0|1:0,0:0:0:0:
439,177,323333,1,8,0:0:0:0:
439,177,323455,2,0,P|449:205|452:249,1,59.9999981689454,10|0,0:0|0:0,0:0:0:0:
413,371,323699,5,10,0:0:0:0:
267,295,323942,1,2,0:0:0:0:
452,234,324186,1,2,1:0:0:0:
452,234,324308,1,8,0:0:0:0:
452,234,324430,1,2,0:0:0:0:
280,316,324674,2,0,P|227:305|160:314,1,119.999996337891,10|8,0:0|0:0,0:0:0:0:
102,260,325040,1,8,0:0:0:0:
102,260,325162,6,0,L|92:187,1,59.9999981689454,6|8,1:0|0:0,0:0:0:0:
15,141,325406,1,8,0:0:0:0:
0,260,325650,2,0,L|17:132,1,119.999996337891,8|0,0:0|0:0,0:0:0:0:
6,125,326016,1,8,0:0:0:0:
6,125,326138,1,0,1:0:0:0:
263,197,326381,2,0,L|279:315,2,119.999996337891,2|10|10,0:0|0:0|0:0,0:0:0:0:
384,127,326991,1,8,0:2:0:0:
384,127,327113,5,12,1:2:0:0:
354,120,327235,1,8,0:2:0:0:
325,111,327357,1,8,0:2:0:0:
299,98,327479,1,8,0:2:0:0:
278,76,327601,1,8,1:2:0:0:
257,56,327723,1,8,0:2:0:0:
229,44,327845,1,8,0:2:0:0:
200,36,327967,1,8,0:2:0:0:
169,27,328089,6,0,P|177:62|183:103,1,59.9999981689454,12|8,1:2|0:2,0:0:0:0:
56,62,328333,2,0,P|60:32|67:3,1,59.9999981689454,8|8,1:2|0:2,0:0:0:0:
131,188,328577,5,8,0:2:0:0:
144,244,328699,1,8,0:2:0:0:
113,294,328820,1,8,0:2:0:0:
56,307,328942,1,8,0:2:0:0:
6,276,329064,1,4,1:2:0:0:
