osu file format v14

[General]
AudioFilename: audio.mp3
AudioLeadIn: 0
PreviewTime: 185475
Countdown: 1
SampleSet: Normal
StackLeniency: 0.7
Mode: 0
LetterboxInBreaks: 0
WidescreenStoryboard: 0

[Editor]
Bookmarks: 10275,19875,29475,49875,88275,108675,127875,225075
DistanceSpacing: 1.1
BeatDivisor: 4
GridSize: 8
TimelineZoom: 3.499999

[Metadata]
Title:Iro wa jou e to IzanauIro
TitleUnicode:色は情へと誘う
Artist:senya
ArtistUnicode:senya
Creator:sAraShina
Version:Extra
Source:senya
Tags:touhou
BeatmapID:1104761
BeatmapSetID:520081

[Difficulty]
HPDrainRate:6
CircleSize:4
OverallDifficulty:8.5
ApproachRate:9.5
SliderMultiplier:1.8
SliderTickRate:1

[Events]
//Background and Video events
0,0,"bg.jpg",0,0
//Break Periods
//Storyboard Layer 0 (Background)
//Storyboard Layer 1 (Fail)
//Storyboard Layer 2 (Pass)
//Storyboard Layer 3 (Foreground)
//Storyboard Sound Samples

[TimingPoints]
675,300,4,1,0,60,1,0
10275,-100,4,1,0,50,0,0
19875,-100,4,1,0,55,0,0
29475,-100,4,1,0,60,0,0
49875,-133.333333333333,4,1,0,55,0,0
88275,-100,4,1,0,60,0,0
108675,-100,4,1,0,70,0,1
109875,-66.6666666666667,4,1,0,70,0,1
110325,-100,4,1,0,70,0,1
110475,-66.6666666666667,4,1,0,70,0,1
110925,-100,4,1,0,70,0,1
119475,-66.6666666666667,4,1,0,70,0,1
119925,-100,4,1,0,70,0,1
120075,-66.6666666666667,4,1,0,70,0,1
120525,-100,4,1,0,70,0,1
127875,-133.333333333333,4,1,0,50,0,0
147075,-100,4,1,0,60,0,0
166425,-100,4,1,0,55,0,0
186675,-100,4,1,0,70,0,1
187875,-66.6666666666667,4,1,0,70,0,1
188100,-66.6666666666667,4,1,0,70,0,1
188325,-100,4,1,0,70,0,1
188475,-66.6666666666667,4,1,0,70,0,1
188700,-66.6666666666667,4,1,0,70,0,1
188925,-100,4,1,0,70,0,1
192675,-66.6666666666667,4,1,0,70,0,1
192900,-66.6666666666667,4,1,0,70,0,1
193200,-100,4,1,0,70,0,1
193275,-66.6666666666667,4,1,0,70,0,1
193500,-66.6666666666667,4,1,0,70,0,1
193725,-100,4,1,0,70,0,1
197475,-66.6666666666667,4,1,0,70,0,1
197700,-66.6666666666667,4,1,0,70,0,1
197925,-100,4,1,0,70,0,1
198075,-66.6666666666667,4,1,0,70,0,1
198300,-66.6666666666667,4,1,0,70,0,1
198525,-100,4,1,0,70,0,1
202275,-66.6666666666667,4,1,0,70,0,1
202500,-66.6666666666667,4,1,0,70,0,1
202725,-100,4,1,0,70,0,1
202875,-66.6666666666667,4,1,0,70,0,1
203100,-66.6666666666667,4,1,0,70,0,1
203325,-100,4,1,0,70,0,1
205875,-100,4,1,0,60,0,0

[HitObjects]
320,160,10275,6,0,P|296:200|256:232,1,90
160,296,10575,1,0,0:0:0:0:
160,160,10725,1,0,0:0:0:0:
352,256,10875,2,0,P|400:280|432:312,1,90
288,336,11175,1,0,0:0:0:0:
216,216,11325,1,0,0:0:0:0:
352,168,11475,6,0,P|312:104|240:72,2,135
208,136,12075,2,0,P|136:160|88:224,2,135
304,240,12675,6,0,P|288:288|264:328,1,90
416,304,12975,2,0,P|440:256|448:216,1,90
352,112,13275,1,0,0:0:0:0:
224,168,13425,1,0,0:0:0:0:
368,192,13575,2,0,P|352:248|320:296,1,90
88,176,13875,6,2,P|120:272|192:320,1,180,0|0,0:0|0:0,0:0:0:0:
288,232,14325,1,0,0:0:0:0:
368,88,14475,2,2,P|280:112|192:80,1,180
408,280,15075,6,0,P|368:304|320:304,1,90
336,184,15375,1,0,0:0:0:0:
232,96,15525,1,0,0:0:0:0:
400,64,15675,2,0,P|352:80|312:112,1,90
224,208,15975,1,0,0:0:0:0:
360,264,16125,1,0,0:0:0:0:
128,320,16275,6,0,P|72:272|48:200,2,135
224,208,16875,2,0,P|288:256|320:328,2,135
136,96,17475,6,0,P|184:72|232:64,1,90
352,128,17775,2,0,P|304:136|248:160,1,90
152,240,18075,1,0,0:0:0:0:
264,328,18225,1,0,0:0:0:0:
352,216,18375,1,0,0:0:0:0:
256,192,18525,12,0,19575,0:0:0:0:
152,80,19875,6,0,P|120:120|104:168,1,90,4|0,0:0|0:0,0:0:0:0:
208,296,20175,1,0,0:0:0:0:
360,216,20325,1,0,0:0:0:0:
192,208,20475,1,8,0:0:0:0:
288,344,20625,1,0,0:0:0:0:
440,272,20775,2,0,P|464:224|472:176,1,90
360,56,21075,6,0,B|344:104|312:136,1,90
184,112,21300,2,0,B|160:184|160:184|168:200,1,90
176,208,21525,1,0,0:0:0:0:
208,320,21675,2,0,B|240:280|280:264,1,90
328,168,21900,2,0,B|408:176|408:176|424:208,1,90
424,192,22125,1,0,0:0:0:0:
288,48,22275,6,0,P|256:96|240:136,1,90,4|0,0:0|0:0,0:0:0:0:
272,296,22575,1,0,0:0:0:0:
152,176,22725,1,0,0:0:0:0:
200,344,22875,1,8,0:0:0:0:
152,176,23025,1,0,0:0:0:0:
328,136,23175,2,0,P|376:176|392:224,1,90
192,272,23475,6,2,P|96:240|40:160,1,180
256,152,23925,1,0,0:0:0:0:
424,112,24075,2,2,P|416:216|376:312,1,180
96,96,24675,5,4,0:0:0:0:
232,200,24825,1,0,0:0:0:0:
208,32,24975,1,0,0:0:0:0:
112,184,25125,1,0,0:0:0:0:
224,320,25275,2,0,P|280:312|312:296,1,90,8|0,0:0|0:0,0:0:0:0:
168,248,25575,2,0,P|128:288|104:352,1,90
304,224,25875,6,2,P|400:160|440:72,1,180
416,304,26325,1,0,0:0:0:0:
312,120,26475,2,2,P|216:152|128:128,1,180
304,224,26925,1,0,0:0:0:0:
120,288,27075,6,0,P|104:232|104:184,1,90,4|0,0:0|0:0,0:0:0:0:
312,120,27375,1,0,0:0:0:0:
128,64,27525,1,0,0:0:0:0:
208,232,27675,1,8,0:0:0:0:
376,328,27825,1,0,0:0:0:0:
304,224,27975,1,0,0:0:0:0:
224,328,28125,1,0,0:0:0:0:
104,240,28275,5,8,0:0:0:0:
112,200,28350,1,0,0:0:0:0:
128,168,28425,1,0,0:0:0:0:
160,144,28500,1,0,0:0:0:0:
200,136,28575,1,8,0:0:0:0:
240,144,28650,1,0,0:0:0:0:
264,176,28725,1,0,0:0:0:0:
264,216,28800,1,0,0:0:0:0:
288,248,28875,1,8,0:0:0:0:
328,264,28950,1,0,0:0:0:0:
368,248,29025,1,0,0:0:0:0:
392,216,29100,1,0,0:0:0:0:
392,176,29175,1,8,0:0:0:0:
368,144,29250,1,0,0:0:0:0:
360,104,29325,1,0,0:0:0:0:
192,72,29475,6,0,P|152:112|120:160,1,90,4|0,0:0|0:0,0:0:0:0:
128,304,29775,1,0,0:0:0:0:
328,264,29925,1,0,0:0:0:0:
168,200,30075,1,0,0:0:0:0:
168,200,30225,1,0,0:0:0:0:
320,136,30375,1,0,0:0:0:0:
320,136,30525,1,0,0:0:0:0:
424,264,30675,6,0,P|392:304|352:336,1,90
200,320,30975,2,0,P|224:272|240:216,1,90
232,72,31275,1,0,0:0:0:0:
96,160,31425,1,0,0:0:0:0:
232,72,31575,1,0,0:0:0:0:
96,160,31725,1,0,0:0:0:0:
256,184,31875,6,0,P|304:216|360:240,1,90,4|0,0:0|0:0,0:0:0:0:
400,80,32175,1,0,0:0:0:0:
232,72,32325,1,0,0:0:0:0:
368,192,32475,1,0,0:0:0:0:
320,16,32625,1,0,0:0:0:0:
256,184,32775,1,0,0:0:0:0:
104,232,32925,1,0,0:0:0:0:
264,312,33075,6,0,P|312:328|368:336,1,90
472,224,33375,2,0,P|432:200|384:192,1,90
192,88,33675,2,0,P|240:72|288:64,1,90
192,216,33975,2,0,P|152:256|112:280,1,90
280,320,34275,6,0,P|328:288|360:248,1,90,4|0,0:0|0:0,0:0:0:0:
344,104,34575,1,0,0:0:0:0:
192,40,34725,1,0,0:0:0:0:
208,200,34875,1,0,0:0:0:0:
272,56,35025,1,0,0:0:0:0:
384,176,35175,1,0,0:0:0:0:
288,304,35325,1,0,0:0:0:0:
112,232,35475,6,0,P|88:184|88:136,1,90
384,176,35775,6,0,P|408:224|408:272,1,90
192,64,36075,2,0,P|248:56|312:56,1,90
320,319,36375,2,0,P|275:326|230:329,1,90
152,184,36675,6,0,P|200:168|256:160,1,90,4|0,0:0|0:0,0:0:0:0:
392,216,36975,1,0,0:0:0:0:
328,64,37125,1,0,0:0:0:0:
168,64,37275,1,0,0:0:0:0:
312,144,37425,1,0,0:0:0:0:
224,280,37575,1,0,0:0:0:0:
232,120,37725,1,0,0:0:0:0:
88,192,37875,6,0,P|96:248|128:288,1,90
352,320,38175,2,0,P|376:280|392:224,1,90
216,208,38475,2,0,P|256:240|304:256,1,90
288,64,38775,2,0,P|240:48|176:48,1,90
400,184,39075,6,0,P|384:224|352:264,1,90,4|0,0:0|0:0,0:0:0:0:
208,336,39375,1,0,0:0:0:0:
184,120,39525,1,0,0:0:0:0:
312,160,39675,1,8,0:0:0:0:
216,248,39825,1,0,0:0:0:0:
104,168,39975,1,0,0:0:0:0:
112,328,40125,1,0,0:0:0:0:
272,328,40275,6,0,P|312:312|352:288,1,90,4|0,0:0|0:0,0:0:0:0:
368,200,40500,2,0,P|408:160|432:128,1,90
368,48,40725,2,0,L|328:88,1,45
248,152,40875,2,0,P|224:112|184:72,1,90
112,48,41100,2,0,P|120:112|112:168,1,90
56,216,41325,2,0,L|96:240,1,45
128,256,41475,5,4,0:0:0:0:
288,264,41625,1,0,0:0:0:0:
128,256,41775,1,0,0:0:0:0:
272,184,41925,1,0,0:0:0:0:
112,152,42075,1,8,0:0:0:0:
208,280,42225,1,0,0:0:0:0:
368,216,42375,2,0,P|376:160|368:112,1,90
192,96,42675,6,2,P|144:176|128:264,1,180
280,200,43125,1,0,0:0:0:0:
376,336,43275,2,2,P|272:336|184:304,1,180
72,216,43725,1,0,0:0:0:0:
208,136,43875,6,0,P|248:104|288:88,1,90,4|0,0:0|0:0,0:0:0:0:
392,208,44175,1,0,0:0:0:0:
248,288,44325,1,0,0:0:0:0:
432,288,44475,1,8,0:0:0:0:
360,136,44625,1,0,0:0:0:0:
344,296,44775,1,0,0:0:0:0:
208,184,44925,1,0,0:0:0:0:
64,104,45075,6,0,L|88:224,1,90
96,272,45300,2,0,P|136:304|192:320,1,90
272,296,45525,2,0,L|240:264,1,45
208,184,45675,2,0,P|264:168|304:168,1,90
360,200,45900,2,0,P|400:168|424:128,1,90
400,48,46125,2,0,L|360:88,1,45
344,104,46275,5,4,0:0:0:0:
184,80,46425,1,0,0:0:0:0:
160,240,46575,1,0,0:0:0:0:
296,320,46725,1,0,0:0:0:0:
272,208,46875,2,0,P|224:176|176:160,1,90,8|0,0:0|0:0,0:0:0:0:
48,232,47175,1,0,0:0:0:0:
152,104,47325,1,0,0:0:0:0:
320,104,47475,6,0,P|376:136|408:168,1,90,4|0,0:0|0:0,0:0:0:0:
328,320,47775,1,0,0:0:0:0:
224,200,47925,1,0,0:0:0:0:
432,248,48075,2,0,P|384:224|344:224,1,90,8|0,0:0|0:0,0:0:0:0:
208,304,48375,1,0,0:0:0:0:
88,200,48525,1,0,0:0:0:0:
200,72,48675,5,8,0:0:0:0:
200,120,48750,1,0,0:0:0:0:
232,152,48825,1,0,0:0:0:0:
272,160,48900,1,0,0:0:0:0:
320,160,48975,2,0,P|344:144|368:144,1,45,8|0,0:0|0:0,0:0:0:0:
400,160,49125,2,0,P|424:184|432:216,1,45
440,240,49275,1,8,0:0:0:0:
416,280,49350,1,0,0:0:0:0:
368,288,49425,1,0,0:0:0:0:
328,272,49500,1,0,0:0:0:0:
280,280,49575,6,0,P|240:304|208:344,1,90,8|0,0:0|0:0,0:0:0:0:
128,112,49875,2,0,B|192:64|192:64|264:64,1,135.000005149842
352,152,50475,1,0,0:0:0:0:
160,232,50775,2,0,B|224:288|224:288|288:304,1,135.000005149842
208,72,51375,2,0,L|152:136,1,67.5000025749208
40,224,51675,2,0,L|88:280,1,67.5000025749208
152,336,51975,1,0,0:0:0:0:
264,320,52275,6,0,B|280:248|280:248|264:184,1,135.000005149842
192,72,52875,1,0,0:0:0:0:
400,120,53175,2,2,B|456:176|456:176|472:240,1,135.000005149842
288,224,53775,2,0,L|224:160,1,67.5000025749208
136,96,54075,2,0,L|120:192,1,67.5000025749208
112,264,54375,1,0,0:0:0:0:
256,184,54675,6,0,B|280:264|280:264|320:312,1,135.000005149842
408,192,55275,1,0,0:0:0:0:
328,88,55575,2,0,B|256:72|256:72|176:88,1,135.000005149842
136,184,56175,2,0,L|208:208,1,67.5000025749208
344,240,56475,2,0,L|272:288,1,67.5000025749208
184,336,56775,1,0,0:0:0:0:
288,112,57075,5,0,0:0:0:0:
160,176,57375,1,0,0:0:0:0:
128,320,57675,1,0,0:0:0:0:
320,304,57975,2,0,L|288:240,1,67.5000025749208
352,72,58425,6,0,L|384:136,1,67.5000025749208
368,232,58875,2,0,B|320:176|320:176|248:152,1,135.000005149842
104,136,59475,6,0,B|88:216|88:216|104:272,1,135.000005149842
224,320,60075,1,0,0:0:0:0:
208,176,60375,6,0,B|288:200|288:200|336:248,1,135.000005149842
392,64,60975,2,0,P|352:64|312:104,1,67.5000025749208
440,176,61275,2,0,P|408:200|408:256,1,67.5000025749208
272,176,61575,1,0,0:0:0:0:
168,64,61875,6,0,B|120:120|120:120|112:184,1,135.000005149842
232,264,62475,1,0,0:0:0:0:
288,112,62775,6,2,B|352:168|352:168|376:224,1,135.000005149842
128,160,63375,2,0,L|80:208,1,67.5000025749208
200,304,63675,2,0,L|256:248,1,67.5000025749208
328,168,63975,1,0,0:0:0:0:
392,48,64275,6,0,B|464:88|464:88|488:168,1,135.000005149842
408,248,64875,1,0,0:0:0:0:
392,48,65175,6,0,B|368:120|368:120|312:160,1,135.000005149842
232,56,65775,2,0,L|184:112,1,67.5000025749208
104,224,66075,2,0,L|200:224,1,67.5000025749208
304,224,66375,1,0,0:0:0:0:
424,136,66675,5,0,0:0:0:0:
376,288,66975,1,0,0:0:0:0:
216,312,67275,1,0,0:0:0:0:
256,192,67575,1,0,0:0:0:0:
232,160,67725,2,0,L|176:80,1,67.5000025749208
64,216,68025,2,0,L|112:280,1,67.5000025749208
280,272,68475,2,0,B|360:264|360:264|408:208,1,135.000005149842
184,80,69075,5,4,0:0:0:0:
352,160,69675,2,0,P|336:200|304:224,1,67.5000025749208
256,280,69975,1,0,0:0:0:0:
168,272,70125,1,0,0:0:0:0:
128,192,70275,2,0,P|144:160|184:144,1,67.5000025749208
256,120,70575,1,0,0:0:0:0:
208,48,70725,1,0,0:0:0:0:
120,48,70875,1,0,0:0:0:0:
232,224,71175,1,0,0:0:0:0:
392,88,71475,5,4,0:0:0:0:
112,296,72075,2,0,P|136:272|176:256,1,67.5000025749208
256,264,72375,1,0,0:0:0:0:
312,328,72525,1,0,0:0:0:0:
392,304,72675,6,0,P|416:280|424:240,1,67.5000025749208
384,168,72975,1,0,0:0:0:0:
440,96,73125,1,0,0:0:0:0:
376,40,73275,1,0,0:0:0:0:
256,192,73575,1,0,0:0:0:0:
104,80,73875,5,4,0:0:0:0:
440,264,74475,2,0,P|408:272|376:296,1,67.5000025749208
312,352,74775,1,0,0:0:0:0:
232,312,74925,1,0,0:0:0:0:
264,232,75075,6,0,P|232:208|192:200,1,67.5000025749208
120,232,75375,1,0,0:0:0:0:
64,160,75525,1,0,0:0:0:0:
112,88,75675,1,0,0:0:0:0:
296,264,75975,2,0,L|256:176,1,67.5000025749208
352,104,76275,6,0,P|424:144|464:192,1,135.000005149842
248,216,76875,1,0,0:0:0:0:
352,104,77175,2,0,L|280:64,1,67.5000025749208
184,64,77475,6,0,P|128:120|96:192,1,135.000005149842
128,296,78075,1,0,0:0:0:0:
352,304,78375,1,0,0:0:0:0:
280,80,78675,5,4,0:0:0:0:
112,168,79275,2,0,P|128:208|160:240,1,67.5000025749208
224,264,79575,1,0,0:0:0:0:
312,248,79725,1,0,0:0:0:0:
360,176,79875,6,0,P|400:200|416:232,1,67.5000025749208
408,304,80175,1,0,0:0:0:0:
336,352,80325,1,0,0:0:0:0:
272,128,80475,1,0,0:0:0:0:
168,304,80775,1,0,0:0:0:0:
64,136,81075,5,4,0:0:0:0:
384,104,81675,2,0,P|408:144|408:176,1,67.5000025749208
408,248,81975,1,0,0:0:0:0:
360,320,82125,1,0,0:0:0:0:
280,312,82275,6,0,P|240:304|216:280,1,67.5000025749208
192,208,82575,1,0,0:0:0:0:
368,104,82875,1,0,0:0:0:0:
448,288,83175,1,0,0:0:0:0:
248,248,83475,5,4,0:0:0:0:
208,64,84075,2,0,P|280:72|344:96,1,135.000005149842
280,176,84525,1,0,0:0:0:0:
408,216,84675,6,0,P|336:256|288:304,1,135.000005149842
168,272,85275,1,0,0:0:0:0:
328,96,85575,1,0,0:0:0:0:
192,96,85875,6,0,P|216:168|264:224,1,135.000005149842
432,216,86475,1,0,0:0:0:0:
288,88,86775,1,0,0:0:0:0:
112,160,87075,5,8,0:0:0:0:
104,184,87150,1,0,0:0:0:0:
104,208,87225,1,0,0:0:0:0:
112,232,87300,1,0,0:0:0:0:
136,248,87375,1,8,0:0:0:0:
160,248,87450,1,0,0:0:0:0:
184,232,87525,1,0,0:0:0:0:
208,232,87600,1,0,0:0:0:0:
232,248,87675,1,8,0:0:0:0:
248,264,87750,1,0,0:0:0:0:
256,288,87825,1,0,0:0:0:0:
248,312,87900,1,0,0:0:0:0:
264,336,87975,1,8,0:0:0:0:
432,200,88275,5,4,0:0:0:0:
272,88,88425,1,0,0:0:0:0:
432,72,88575,1,0,0:0:0:0:
248,208,88725,1,0,0:0:0:0:
88,160,88875,1,8,0:0:0:0:
192,56,89025,1,0,0:0:0:0:
328,248,89175,1,0,0:0:0:0:
160,208,89325,1,0,0:0:0:0:
336,112,89475,6,0,P|384:136|424:184,1,90,4|0,0:0|0:0,0:0:0:0:
336,344,89775,1,0,0:0:0:0:
168,304,89925,1,0,0:0:0:0:
328,248,90075,1,8,0:0:0:0:
232,136,90225,1,0,0:0:0:0:
456,176,90375,1,0,0:0:0:0:
400,24,90525,1,0,0:0:0:0:
312,160,90675,6,0,P|272:192|208:208,1,90,4|0,0:0|0:0,0:0:0:0:
80,192,90975,1,0,0:0:0:0:
256,288,91125,1,0,0:0:0:0:
216,128,91275,1,8,0:0:0:0:
128,312,91425,1,0,0:0:0:0:
328,216,91575,1,0,0:0:0:0:
328,216,91650,1,0,0:0:0:0:
328,216,91725,1,0,0:0:0:0:
96,120,91875,6,0,P|120:160|168:200,1,90,4|0,0:0|0:0,0:0:0:0:
408,152,92175,2,0,P|384:112|336:72,1,90
216,72,92475,1,8,0:0:0:0:
144,208,92625,1,0,0:0:0:0:
320,184,92775,1,0,0:0:0:0:
376,312,92925,1,0,0:0:0:0:
432,72,93075,6,0,P|424:136|400:176,1,90,4|0,0:0|0:0,0:0:0:0:
272,288,93375,1,0,0:0:0:0:
232,120,93525,1,0,0:0:0:0:
184,320,93675,1,8,0:0:0:0:
320,128,93825,1,0,0:0:0:0:
112,248,93975,1,0,0:0:0:0:
80,48,94125,1,0,0:0:0:0:
192,216,94275,6,0,P|160:168|96:144,1,90,4|0,0:0|0:0,0:0:0:0:
336,200,94575,2,0,P|384:240|400:272,1,90
224,320,94875,1,8,0:0:0:0:
416,168,95025,1,0,0:0:0:0:
304,48,95175,1,0,0:0:0:0:
160,136,95325,1,0,0:0:0:0:
344,288,95475,6,0,P|312:248|296:200,1,90,4|0,0:0|0:0,0:0:0:0:
208,32,95775,1,0,0:0:0:0:
192,224,95925,1,0,0:0:0:0:
384,136,96075,1,8,0:0:0:0:
160,120,96225,1,0,0:0:0:0:
320,240,96375,1,0,0:0:0:0:
304,48,96525,1,0,0:0:0:0:
208,288,96675,6,0,P|248:328|304:344,1,90,4|0,0:0|0:0,0:0:0:0:
432,248,96975,1,0,0:0:0:0:
256,128,97125,1,0,0:0:0:0:
448,136,97275,1,8,0:0:0:0:
240,216,97425,1,0,0:0:0:0:
200,32,97575,1,0,0:0:0:0:
48,136,97725,1,0,0:0:0:0:
256,128,97875,6,0,P|304:168|328:216,1,90,4|0,0:0|0:0,0:0:0:0:
320,328,98175,1,0,0:0:0:0:
128,256,98325,1,0,0:0:0:0:
376,208,98475,1,8,0:0:0:0:
272,40,98625,1,0,0:0:0:0:
136,160,98775,1,0,0:0:0:0:
352,96,98925,1,0,0:0:0:0:
256,232,99075,6,0,P|240:280|208:320,1,90,4|0,0:0|0:0,0:0:0:0:
64,240,99375,1,0,0:0:0:0:
224,152,99525,1,0,0:0:0:0:
360,256,99675,1,8,0:0:0:0:
384,96,99825,1,0,0:0:0:0:
256,232,99975,1,0,0:0:0:0:
96,144,100125,1,0,0:0:0:0:
400,176,100275,6,0,P|440:224|448:272,1,90,4|0,0:0|0:0,0:0:0:0:
304,344,100575,1,0,0:0:0:0:
136,296,100725,1,0,0:0:0:0:
344,40,100875,2,0,P|288:32|240:48,1,90,8|0,0:0|0:0,0:0:0:0:
136,128,101175,1,0,0:0:0:0:
136,296,101325,1,0,0:0:0:0:
456,256,101475,6,0,P|440:208|400:160,1,90,4|0,0:0|0:0,0:0:0:0:
280,80,101775,1,0,0:0:0:0:
176,216,101925,1,0,0:0:0:0:
336,272,102075,1,8,0:0:0:0:
152,112,102225,1,0,0:0:0:0:
376,80,102375,1,0,0:0:0:0:
184,288,102525,1,0,0:0:0:0:
400,200,102675,6,0,P|360:160|312:144,1,90,4|0,0:0|0:0,0:0:0:0:
112,200,102975,1,0,0:0:0:0:
320,304,103125,1,0,0:0:0:0:
280,176,103275,1,8,0:0:0:0:
112,304,103425,1,0,0:0:0:0:
120,104,103575,1,0,0:0:0:0:
320,88,103725,1,0,0:0:0:0:
184,200,103875,6,0,P|192:256|224:304,1,90,4|0,0:0|0:0,0:0:0:0:
408,264,104175,2,0,P|392:224|352:176,1,90
160,88,104475,2,0,P|208:56|256:48,1,90,8|0,0:0|0:0,0:0:0:0:
280,256,104775,2,0,P|248:288|200:304,1,90
264,144,105075,6,0,P|312:128|368:128,1,90,4|0,0:0|0:0,0:0:0:0:
488,264,105375,2,0,P|448:296|400:312,1,90
120,232,105675,2,0,L|192:312,1,90,8|0,0:0|0:0,0:0:0:0:
408,152,105975,2,0,L|344:224,1,90
240,304,106275,6,0,L|200:280,1,45,8|0,0:0|0:0,0:0:0:0:
216,200,106425,2,0,L|224:152,1,45
288,88,106575,2,0,L|320:128,1,45,8|0,0:0|0:0,0:0:0:0:
408,152,106725,2,0,L|456:136,1,45
416,240,106875,2,0,L|400:296,1,45,8|0,0:0|0:0,0:0:0:0:
312,240,107025,2,0,L|328:184,1,45
416,240,107175,2,0,L|400:296,1,45,8|0,0:0|0:0,0:0:0:0:
312,240,107325,2,0,L|328:184,1,45
328,144,107475,5,8,0:0:0:0:
296,104,107550,1,0,0:0:0:0:
248,88,107625,1,0,0:0:0:0:
200,88,107700,1,0,0:0:0:0:
168,128,107775,2,0,P|160:152|144:176,1,45,8|0,0:0|0:0,0:0:0:0:
104,168,107925,2,0,P|80:192|64:224,1,45
72,248,108075,1,8,0:0:0:0:
88,296,108150,1,0,0:0:0:0:
128,320,108225,1,0,0:0:0:0:
176,320,108300,1,0,0:0:0:0:
216,296,108375,2,0,P|248:264|280:216,1,90,8|0,0:0|0:0,0:0:0:0:
384,48,108675,6,0,P|408:96|424:152,1,90,4|0,0:0|0:0,0:0:0:0:
336,288,108975,1,0,0:0:0:0:
288,112,109125,1,0,0:0:0:0:
440,152,109275,1,8,0:0:0:0:
160,200,109425,1,0,0:0:0:0:
224,288,109575,1,0,0:0:0:0:
160,64,109725,1,0,0:0:0:0:
400,80,109875,6,0,B|392:112|336:104|336:104|320:144|352:176,1,135.000005149842,4|0,0:0|0:0,0:0:0:0:
416,192,110100,2,0,B|432:216|400:240|400:240|360:208|368:272|312:256,1,135.000005149842,4|0,0:0|0:0,0:0:0:0:
256,184,110325,2,0,L|264:240,1,45,8|0,0:0|0:0,0:0:0:0:
224,304,110475,2,0,B|192:320|144:304|144:304|160:280|144:248|112:240,1,135.000005149842,4|0,0:0|0:0,0:0:0:0:
80,168,110700,2,0,B|96:144|96:144|144:176|184:176|192:136,1,135.000005149842,4|0,0:0|0:0,0:0:0:0:
208,56,110925,2,0,L|240:96,1,45,8|0,0:0|0:0,0:0:0:0:
288,160,111075,5,4,0:0:0:0:
104,280,111225,1,0,0:0:0:0:
256,88,111375,1,0,0:0:0:0:
304,312,111525,1,0,0:0:0:0:
128,160,111675,1,8,0:0:0:0:
408,120,111825,1,0,0:0:0:0:
232,272,111975,1,0,0:0:0:0:
184,48,112125,1,0,0:0:0:0:
344,192,112275,6,0,P|352:248|352:304,1,90,4|0,0:0|0:0,0:0:0:0:
184,160,112575,1,0,0:0:0:0:
432,240,112725,1,0,0:0:0:0:
168,320,112875,1,8,0:0:0:0:
304,136,113025,1,0,0:0:0:0:
384,320,113175,1,0,0:0:0:0:
168,232,113325,1,0,0:0:0:0:
104,48,113475,6,0,P|80:96|80:160,1,90,4|0,0:0|0:0,0:0:0:0:
184,328,113775,1,0,0:0:0:0:
400,184,113925,1,0,0:0:0:0:
144,128,114075,1,8,0:0:0:0:
384,264,114225,1,0,0:0:0:0:
208,64,114375,1,0,0:0:0:0:
304,304,114525,1,0,0:0:0:0:
104,216,114675,6,0,P|160:200|224:208,1,90,4|0,0:0|0:0,0:0:0:0:
392,264,114975,1,0,0:0:0:0:
304,72,115125,1,0,0:0:0:0:
184,328,115275,2,0,P|224:288|248:240,1,90,8|0,0:0|0:0,0:0:0:0:
176,64,115575,1,0,0:0:0:0:
400,136,115725,1,0,0:0:0:0:
96,208,115875,6,0,P|152:224|216:216,1,90,4|0,0:0|0:0,0:0:0:0:
408,208,116175,1,0,0:0:0:0:
280,64,116325,1,0,0:0:0:0:
336,264,116475,1,8,0:0:0:0:
176,200,116625,1,0,0:0:0:0:
160,56,116775,1,0,0:0:0:0:
88,272,116925,1,0,0:0:0:0:
256,160,117075,6,2,P|248:264|208:344,1,180
96,184,117525,1,0,0:0:0:0:
336,256,117675,2,2,P|384:168|400:80,1,180
256,80,118125,1,0,0:0:0:0:
136,264,118275,6,0,P|176:232|232:208,1,90,4|0,0:0|0:0,0:0:0:0:
384,192,118575,1,0,0:0:0:0:
464,328,118725,1,0,0:0:0:0:
368,40,118875,2,0,P|336:80|312:120,1,90,8|0,0:0|0:0,0:0:0:0:
248,256,119175,1,0,0:0:0:0:
152,104,119325,1,0,0:0:0:0:
80,256,119475,6,0,B|120:248|120:304|120:304|160:336|192:248,1,135.000005149842,4|0,0:0|0:0,0:0:0:0:
264,312,119700,2,0,B|248:272|272:240|272:240|216:216|248:176,1,135.000005149842,4|0,0:0|0:0,0:0:0:0:
240,104,119925,2,0,L|288:128,1,45,8|0,0:0|0:0,0:0:0:0:
376,168,120075,2,0,B|360:192|328:192|328:192|352:224|312:248|272:256,1,135.000005149842,4|0,0:0|0:0,0:0:0:0:
176,224,120300,2,0,B|176:192|136:176|136:176|168:144|120:72,1,135.000005149842,4|0,0:0|0:0,0:0:0:0:
96,40,120525,2,0,L|72:80,1,45,8|0,0:0|0:0,0:0:0:0:
64,160,120675,5,4,0:0:0:0:
288,224,120825,1,0,0:0:0:0:
120,96,120975,1,0,0:0:0:0:
224,288,121125,1,0,0:0:0:0:
264,64,121275,1,8,0:0:0:0:
440,152,121425,1,0,0:0:0:0:
264,64,121575,1,0,0:0:0:0:
440,152,121725,1,0,0:0:0:0:
280,208,121875,6,2,P|312:304|384:344,1,180
184,272,122325,1,0,0:0:0:0:
120,56,122475,2,2,P|72:136|64:232,1,180
208,112,122925,1,0,0:0:0:0:
368,288,123075,6,0,P|352:232|344:176,1,90,4|0,0:0|0:0,0:0:0:0:
376,32,123375,1,0,0:0:0:0:
208,216,123525,1,0,0:0:0:0:
472,128,123675,1,8,0:0:0:0:
304,312,123825,1,0,0:0:0:0:
480,232,123975,1,0,0:0:0:0:
232,128,124125,1,0,0:0:0:0:
88,56,124275,6,0,P|72:112|88:168,1,90,4|0,0:0|0:0,0:0:0:0:
160,336,124575,1,0,0:0:0:0:
344,216,124725,1,0,0:0:0:0:
104,176,124875,1,8,0:0:0:0:
280,328,125025,1,0,0:0:0:0:
240,96,125175,1,0,0:0:0:0:
88,288,125325,1,0,0:0:0:0:
304,176,125475,6,0,P|320:224|368:256,1,90,4|0,0:0|0:0,0:0:0:0:
464,112,125775,1,0,0:0:0:0:
280,32,125925,1,0,0:0:0:0:
400,216,126075,1,8,0:0:0:0:
184,208,126225,1,0,0:0:0:0:
176,32,126375,1,0,0:0:0:0:
416,48,126525,1,0,0:0:0:0:
312,120,126675,5,8,0:0:0:0:
280,152,126750,1,0,0:0:0:0:
272,192,126825,1,0,0:0:0:0:
288,232,126900,1,0,0:0:0:0:
312,272,126975,1,8,0:0:0:0:
296,312,127050,1,0,0:0:0:0:
248,320,127125,1,0,0:0:0:0:
216,288,127200,1,0,0:0:0:0:
176,264,127275,1,8,0:0:0:0:
136,280,127350,1,0,0:0:0:0:
96,264,127425,1,0,0:0:0:0:
72,224,127500,1,0,0:0:0:0:
96,184,127575,1,8,0:0:0:0:
328,88,127875,6,0,B|328:168|328:168|360:224,1,135.000005149842
464,248,128475,1,0,0:0:0:0:
296,312,128775,6,0,B|224:304|224:304|160:240,1,135.000005149842
112,96,129375,2,0,L|192:120,1,67.5000025749208
368,80,129675,2,0,L|304:56,1,67.5000025749208
304,200,129975,1,0,0:0:0:0:
64,216,130275,6,0,B|96:280|96:280|168:312,1,135.000005149842
360,320,130875,5,0,0:0:0:0:
288,160,131175,2,2,B|288:152|288:152|280:160|280:160|280:152|280:152|272:152|272:152|272:144|272:144|264:144|264:144|264:136|264:136|256:136|256:136|256:128|256:128|200:80,1,135.000005149842
400,48,131775,6,0,L|312:64,1,67.5000025749208
392,192,132075,2,0,L|320:208,1,67.5000025749208
152,232,132375,1,0,0:0:0:0:
192,48,132675,6,0,B|120:80|120:80|80:144,1,135.000005149842
296,168,133275,1,0,0:0:0:0:
200,296,133575,2,0,B|128:264|128:264|96:192,1,135.000005149842
224,64,134175,2,0,L|304:80,1,67.5000025749208
400,248,134475,2,0,L|320:224,1,67.5000025749208
160,176,134775,1,0,0:0:0:0:
344,120,135075,5,0,0:0:0:0:
192,288,135375,1,0,0:0:0:0:
112,96,135675,1,0,0:0:0:0:
392,232,135975,1,0,0:0:0:0:
424,248,136125,1,0,0:0:0:0:
240,64,136425,5,0,0:0:0:0:
232,96,136500,1,0,0:0:0:0:
224,128,136575,1,0,0:0:0:0:
216,160,136650,1,0,0:0:0:0:
208,192,136725,1,0,0:0:0:0:
320,248,136875,2,2,B|352:256|392:240|384:168|336:168,1,135.000005149842
64,104,137475,5,4,0:0:0:0:
312,312,138075,2,0,P|344:296|368:256,1,67.5000025749208
392,80,138375,2,0,P|352:88|320:120,1,67.5000025749208
248,200,138675,5,0,0:0:0:0:
136,240,138825,1,0,0:0:0:0:
56,144,138975,1,0,0:0:0:0:
56,264,139125,1,0,0:0:0:0:
160,328,139275,2,0,P|232:328|304:304,1,135.000005149842
200,80,139875,5,4,0:0:0:0:
344,304,140475,2,0,P|304:288|256:288,1,67.5000025749208
80,256,140775,2,0,P|104:224|144:200,1,67.5000025749208
240,128,141075,5,0,0:0:0:0:
344,64,141225,1,0,0:0:0:0:
424,160,141375,1,0,0:0:0:0:
320,224,141525,1,0,0:0:0:0:
208,40,141675,2,0,P|136:72|104:128,1,135.000005149842
304,312,142275,5,4,0:0:0:0:
104,112,142875,6,0,P|136:120|184:104,1,67.5000025749208
344,40,143175,2,0,P|320:88|320:128,1,67.5000025749208
336,224,143475,5,0,0:0:0:0:
224,184,143625,1,0,0:0:0:0:
120,248,143775,2,0,P|80:192|80:120,1,135.000005149842
352,120,144375,1,0,0:0:0:0:
272,256,144525,1,0,0:0:0:0:
216,144,144675,6,0,L|152:88,1,67.5000025749208
72,208,144975,2,0,P|104:288|160:320,1,135.000005149842
400,312,145575,1,0,0:0:0:0:
440,200,145725,1,0,0:0:0:0:
320,200,145875,6,0,P|272:216|224:208,1,67.5000025749208
112,160,146175,1,8,0:0:0:0:
128,128,146250,1,0,0:0:0:0:
160,112,146325,1,0,0:0:0:0:
192,120,146400,1,0,0:0:0:0:
224,136,146475,1,8,0:0:0:0:
256,136,146550,1,0,0:0:0:0:
280,120,146625,1,0,0:0:0:0:
296,88,146700,1,0,0:0:0:0:
288,56,146775,1,8,0:0:0:0:
424,288,147075,6,0,P|368:280|320:288,1,90,4|0,0:0|0:0,0:0:0:0:
152,320,147375,1,0,0:0:0:0:
272,184,147525,1,0,0:0:0:0:
448,192,147675,1,8,0:0:0:0:
296,280,147825,1,0,0:0:0:0:
128,208,147975,1,0,0:0:0:0:
240,64,148125,1,0,0:0:0:0:
224,240,148275,6,0,P|192:288|136:304,1,90,4|0,0:0|0:0,0:0:0:0:
64,152,148575,1,0,0:0:0:0:
240,160,148725,1,0,0:0:0:0:
312,328,148875,2,0,P|344:288|360:248,1,90,8|0,0:0|0:0,0:0:0:0:
376,72,149175,6,0,P|360:120|320:160,1,90
152,264,149475,6,0,P|136:224|136:160,1,90,4|0,0:0|0:0,0:0:0:0:
280,32,149775,2,0,P|256:80|256:120,1,90
296,288,150075,1,8,0:0:0:0:
296,288,150150,1,0,0:0:0:0:
296,288,150225,1,0,0:0:0:0:
408,144,150375,1,0,0:0:0:0:
232,176,150525,1,0,0:0:0:0:
136,32,150675,6,0,P|96:80|88:128,1,90,4|0,0:0|0:0,0:0:0:0:
104,288,150975,2,0,P|160:288|200:272,1,90
352,192,151275,1,8,0:0:0:0:
192,112,151425,1,0,0:0:0:0:
368,72,151575,1,0,0:0:0:0:
280,232,151725,1,0,0:0:0:0:
104,192,151875,6,0,P|112:248|136:304,1,90,4|0,0:0|0:0,0:0:0:0:
288,352,152175,1,0,0:0:0:0:
216,192,152325,1,0,0:0:0:0:
56,120,152475,1,8,0:0:0:0:
232,112,152625,1,0,0:0:0:0:
112,248,152775,1,0,0:0:0:0:
288,264,152925,1,0,0:0:0:0:
384,112,153075,6,0,P|416:168|432:216,1,90,4|0,0:0|0:0,0:0:0:0:
248,192,153375,1,0,0:0:0:0:
128,328,153525,1,0,0:0:0:0:
392,296,153675,2,0,P|336:304|264:288,1,90,8|0,0:0|0:0,0:0:0:0:
136,232,153975,1,0,0:0:0:0:
104,56,154125,1,0,0:0:0:0:
248,160,154275,6,0,P|240:224|256:264,1,90,4|0,0:0|0:0,0:0:0:0:
392,296,154575,1,0,0:0:0:0:
448,144,154725,1,0,0:0:0:0:
320,240,154875,1,8,0:0:0:0:
144,168,155025,1,0,0:0:0:0:
320,120,155175,6,0,P|272:152|240:200,1,90
144,328,155475,6,0,P|96:296|64:256,1,90,4|0,0:0|0:0,0:0:0:0:
56,96,155775,1,0,0:0:0:0:
192,216,155925,1,0,0:0:0:0:
256,48,156075,1,8,0:0:0:0:
112,152,156225,1,0,0:0:0:0:
288,160,156375,1,0,0:0:0:0:
176,304,156525,1,0,0:0:0:0:
408,256,156675,6,0,P|360:280|312:280,1,90,4|0,0:0|0:0,0:0:0:0:
160,216,156975,1,0,0:0:0:0:
272,80,157125,1,0,0:0:0:0:
440,144,157275,1,8,0:0:0:0:
288,160,157425,1,0,0:0:0:0:
328,336,157575,2,0,P|272:336|224:320,1,90
56,192,157875,6,0,P|112:184|168:200,1,90,4|0,0:0|0:0,0:0:0:0:
320,240,158175,1,0,0:0:0:0:
376,72,158325,1,0,0:0:0:0:
216,152,158475,1,8,0:0:0:0:
392,176,158625,1,0,0:0:0:0:
264,56,158775,1,0,0:0:0:0:
232,232,158925,1,0,0:0:0:0:
120,96,159075,6,0,P|80:136|64:192,1,90,4|0,0:0|0:0,0:0:0:0:
136,336,159375,1,0,0:0:0:0:
136,336,159450,1,0,0:0:0:0:
136,336,159525,1,0,0:0:0:0:
312,272,159675,2,0,P|304:216|320:160,1,90,8|0,0:0|0:0,0:0:0:0:
416,40,159975,1,0,0:0:0:0:
416,40,160050,1,0,0:0:0:0:
416,40,160125,1,0,0:0:0:0:
424,216,160275,6,0,P|384:176|336:144,1,90,4|0,0:0|0:0,0:0:0:0:
184,48,160575,1,0,0:0:0:0:
280,200,160725,1,0,0:0:0:0:
120,120,160875,1,8,0:0:0:0:
216,272,161025,1,0,0:0:0:0:
56,192,161175,1,0,0:0:0:0:
152,344,161325,1,0,0:0:0:0:
192,168,161475,6,0,P|216:120|272:80,1,90,4|0,0:0|0:0,0:0:0:0:
424,96,161775,1,0,0:0:0:0:
272,192,161925,1,0,0:0:0:0:
448,232,162075,1,8,0:0:0:0:
312,112,162225,1,0,0:0:0:0:
304,288,162375,1,0,0:0:0:0:
128,304,162525,1,0,0:0:0:0:
208,144,162675,6,0,P|160:152|112:184,1,90,4|0,0:0|0:0,0:0:0:0:
224,328,162975,1,0,0:0:0:0:
304,168,163125,1,0,0:0:0:0:
152,72,163275,1,8,0:0:0:0:
232,232,163425,1,0,0:0:0:0:
408,248,163575,2,0,P|424:208|432:144,1,90
304,32,163875,6,0,P|256:64|224:104,1,90,4|0,0:0|0:0,0:0:0:0:
120,224,164175,1,0,0:0:0:0:
80,48,164325,1,0,0:0:0:0:
208,176,164475,1,8,0:0:0:0:
384,232,164625,1,0,0:0:0:0:
224,312,164775,1,0,0:0:0:0:
312,160,164925,1,0,0:0:0:0:
200,64,165075,5,8,0:0:0:0:
160,72,165150,1,0,0:0:0:0:
120,88,165225,1,0,0:0:0:0:
88,120,165300,1,0,0:0:0:0:
72,160,165375,1,8,0:0:0:0:
80,200,165450,1,0,0:0:0:0:
120,224,165525,1,0,0:0:0:0:
168,216,165600,1,0,0:0:0:0:
216,216,165675,1,8,0:0:0:0:
256,240,165750,1,0,0:0:0:0:
296,264,165825,1,0,0:0:0:0:
336,240,165900,1,0,0:0:0:0:
352,200,165975,1,8,0:0:0:0:
320,168,166050,1,0,0:0:0:0:
312,120,166125,1,0,0:0:0:0:
328,80,166200,1,0,0:0:0:0:
376,80,166275,5,4,0:0:0:0:
464,184,166425,1,0,0:0:0:0:
416,312,166575,2,0,P|376:344|320:344,1,90
208,288,166875,2,0,P|248:240|264:200,1,90,8|0,0:0|0:0,0:0:0:0:
208,40,167175,2,0,P|160:72|128:120,1,90
128,264,167475,6,0,P|160:216|216:192,1,90,4|0,0:0|0:0,0:0:0:0:
288,176,167700,2,0,P|336:160|368:128,1,90,4|0,0:0|0:0,0:0:0:0:
448,48,167925,2,0,L|448:96,1,45,8|0,0:0|0:0,0:0:0:0:
448,192,168075,2,0,P|416:240|376:280,1,90,4|0,0:0|0:0,0:0:0:0:
312,296,168300,2,0,P|256:304|192:304,1,90,4|0,0:0|0:0,0:0:0:0:
112,280,168525,2,0,L|144:248,1,45,8|0,0:0|0:0,0:0:0:0:
200,176,168675,5,4,0:0:0:0:
96,64,168825,1,0,0:0:0:0:
248,72,168975,1,0,0:0:0:0:
304,200,169125,1,0,0:0:0:0:
400,88,169275,1,8,0:0:0:0:
384,232,169425,1,0,0:0:0:0:
248,272,169575,2,0,P|192:256|152:216,1,90
128,96,169875,6,2,P|72:176|56:264,1,180
208,168,170325,1,0,0:0:0:0:
336,176,170475,2,2,P|416:256|448:320,1,180
304,288,170925,1,0,0:0:0:0:
256,152,171075,6,0,P|224:112|176:80,1,90,4|0,0:0|0:0,0:0:0:0:
48,112,171375,1,0,0:0:0:0:
176,176,171525,1,0,0:0:0:0:
280,72,171675,1,8,0:0:0:0:
384,176,171825,1,0,0:0:0:0:
256,152,171975,2,0,P|272:216|304:264,1,90
376,288,172275,6,0,P|328:312|272:320,1,90,4|0,0:0|0:0,0:0:0:0:
200,304,172500,2,0,P|192:256|160:216,1,90,4|0,0:0|0:0,0:0:0:0:
80,200,172725,2,0,L|112:160,1,45,8|0,0:0|0:0,0:0:0:0:
168,101,172875,2,0,P|208:144|272:157,1,90,4|0,0:0|0:0,0:0:0:0:
336,168,173100,2,0,P|312:224|312:256,1,90,4|0,0:0|0:0,0:0:0:0:
368,328,173325,2,0,L|392:280,1,45,8|0,0:0|0:0,0:0:0:0:
424,224,173475,5,4,0:0:0:0:
368,96,173625,1,0,0:0:0:0:
232,144,173775,1,0,0:0:0:0:
320,32,173925,1,0,0:0:0:0:
336,176,174075,1,8,0:0:0:0:
248,288,174225,1,0,0:0:0:0:
112,240,174375,2,0,P|80:200|64:160,1,90
160,56,174675,6,2,P|192:152|272:216,1,180
360,112,175125,1,0,0:0:0:0:
440,232,175275,2,2,P|376:304|288:344,1,180
168,296,175725,1,0,0:0:0:0:
280,208,175875,6,0,P|248:168|216:144,1,90,4|0,0:0|0:0,0:0:0:0:
80,104,176175,1,0,0:0:0:0:
48,248,176325,1,0,0:0:0:0:
184,208,176475,1,8,0:0:0:0:
256,80,176625,1,0,0:0:0:0:
360,176,176775,2,0,P|376:240|352:288,1,90
264,336,177075,6,0,P|248:296|248:240,1,90,4|0,0:0|0:0,0:0:0:0:
264,160,177300,2,0,P|216:136|192:96,1,90,4|0,0:0|0:0,0:0:0:0:
152,24,177525,2,8,L|112:56,1,45
64,136,177675,2,0,P|72:192|104:240,1,90,4|0,0:0|0:0,0:0:0:0:
184,232,177900,2,0,P|160:280|152:328,1,90,4|0,0:0|0:0,0:0:0:0:
240,352,178125,2,8,L|280:320,1,45
336,280,178275,5,4,0:0:0:0:
240,176,178425,1,0,0:0:0:0:
176,304,178575,1,0,0:0:0:0:
296,224,178725,1,0,0:0:0:0:
432,280,178875,1,8,0:0:0:0:
400,136,179025,1,0,0:0:0:0:
288,40,179175,2,0,P|232:48|192:80,1,90
96,160,179475,6,2,P|160:248|240:288,1,180
296,160,179925,1,0,0:0:0:0:
416,88,180075,2,2,P|440:200|432:288,1,180
304,320,180525,1,0,0:0:0:0:
184,240,180675,6,0,P|136:208|112:152,1,90,4|0,0:0|0:0,0:0:0:0:
128,40,180975,1,0,0:0:0:0:
224,152,181125,1,0,0:0:0:0:
368,136,181275,1,8,0:0:0:0:
352,280,181425,1,0,0:0:0:0:
216,320,181575,2,0,P|160:304|120:272,1,90
64,144,181875,6,0,P|104:184|160:208,1,90,4|0,0:0|0:0,0:0:0:0:
216,232,182100,2,0,P|272:232|312:208,1,90,4|0,0:0|0:0,0:0:0:0:
400,168,182325,2,0,L|336:160,1,45,8|0,0:0|0:0,0:0:0:0:
264,136,182475,2,0,P|296:96|344:72,1,90,4|0,0:0|0:0,0:0:0:0:
408,80,182700,2,0,P|464:104|496:160,1,90,4|0,0:0|0:0,0:0:0:0:
480,208,182925,2,0,L|448:264,1,45,8|0,0:0|0:0,0:0:0:0:
416,304,183075,5,4,0:0:0:0:
280,264,183225,1,0,0:0:0:0:
400,184,183375,1,0,0:0:0:0:
336,312,183525,1,0,0:0:0:0:
192,312,183675,1,8,0:0:0:0:
128,184,183825,1,0,0:0:0:0:
88,320,183975,1,0,0:0:0:0:
200,232,184125,1,0,0:0:0:0:
336,224,184275,6,2,P|264:168|216:72,1,180
360,48,184725,1,0,0:0:0:0:
464,144,184875,2,2,P|448:232|392:312,1,180
256,296,185325,1,0,0:0:0:0:
112,264,185475,6,0,L|64:216,1,45,8|0,0:0|0:0,0:0:0:0:
104,120,185625,2,0,L|168:176,1,45
240,184,185775,2,0,L|296:160,1,45,8|0,0:0|0:0,0:0:0:0:
336,224,185925,2,0,L|384:208,1,45
416,184,186075,1,8,0:0:0:0:
424,144,186150,1,0,0:0:0:0:
408,104,186225,1,0,0:0:0:0:
376,72,186300,1,0,0:0:0:0:
336,56,186375,2,0,P|280:64|240:96,1,90,8|0,0:0|0:0,0:0:0:0:
96,216,186675,6,0,P|120:264|176:296,1,90,2|0,0:0|0:0,0:0:0:0:
384,304,186975,1,0,0:0:0:0:
208,80,187125,1,0,0:0:0:0:
448,224,187275,1,8,0:0:0:0:
168,176,187425,1,0,0:0:0:0:
464,120,187575,1,0,0:0:0:0:
192,288,187725,1,0,0:0:0:0:
376,144,187875,6,0,B|368:176|336:184|336:184|352:240|304:256,1,135.000005149842,4|0,0:0|0:0,0:0:0:0:
240,184,188100,2,0,B|272:160|240:144|240:144|320:96|280:64,1,135.000005149842,4|0,0:0|0:0,0:0:0:0:
224,32,188325,2,0,L|184:72,1,45,8|0,0:0|0:0,0:0:0:0:
144,144,188475,2,0,B|80:168|104:200|104:200|144:192|112:280,1,135.000005149842,4|0,0:0|0:0,0:0:0:0:
104,320,188700,2,0,B|128:368|128:368|184:336|200:368,1,135.000005149842,4|0,0:0|0:0,0:0:0:0:
272,328,188925,2,0,L|256:280,1,45,8|0,0:0|0:0,0:0:0:0:
232,200,189075,5,4,0:0:0:0:
408,64,189225,1,0,0:0:0:0:
456,184,189375,1,0,0:0:0:0:
192,96,189525,1,0,0:0:0:0:
80,184,189675,1,8,0:0:0:0:
352,272,189825,1,0,0:0:0:0:
328,152,189975,1,0,0:0:0:0:
168,328,190125,1,0,0:0:0:0:
144,128,190275,6,2,P|192:216|264:272,1,180
464,168,190725,1,0,0:0:0:0:
320,48,190875,2,2,P|312:144|368:248,1,180,2|0,0:0|0:0,0:0:0:0:
464,336,191325,1,0,0:0:0:0:
200,336,191475,6,0,P|168:288|160:224,1,90,4|0,0:0|0:0,0:0:0:0:
152,56,191775,1,0,0:0:0:0:
424,200,191925,1,0,0:0:0:0:
144,184,192075,1,8,0:0:0:0:
352,48,192225,1,0,0:0:0:0:
280,288,192375,1,0,0:0:0:0:
200,48,192525,1,0,0:0:0:0:
408,152,192675,6,0,B|384:176|344:152|344:152|336:216|296:216,1,135.000005149842,4|0,0:0|0:0,0:0:0:0:
248,208,192900,2,0,B|232:176|200:184|200:184|208:128|160:112,1,135.000005149842,4|0,0:0|0:0,0:0:0:0:
112,80,193125,2,0,L|72:104,1,45,8|0,0:0|0:0,0:0:0:0:
48,192,193275,2,0,B|80:224|64:256|64:256|112:248|136:304,1,135.000005149842,4|0,0:0|0:0,0:0:0:0:
192,248,193500,2,0,B|224:280|208:320|208:320|232:344|280:328,1,135.000005149842,4|0,0:0|0:0,0:0:0:0:
304,336,193725,2,0,L|336:304,1,45,8|0,0:0|0:0,0:0:0:0:
400,240,193875,5,4,0:0:0:0:
248,64,194025,1,0,0:0:0:0:
72,224,194175,1,0,0:0:0:0:
376,96,194325,1,0,0:0:0:0:
80,80,194475,1,8,0:0:0:0:
192,312,194625,1,0,0:0:0:0:
416,192,194775,1,0,0:0:0:0:
72,224,194925,1,0,0:0:0:0:
256,48,195075,6,2,P|232:144|264:240,1,180
440,320,195525,1,0,0:0:0:0:
440,96,195675,2,2,P|400:192|336:248,1,180
144,288,196125,1,0,0:0:0:0:
160,40,196275,6,0,P|208:88|224:128,1,90,4|0,0:0|0:0,0:0:0:0:
256,320,196575,1,0,0:0:0:0:
104,144,196725,1,0,0:0:0:0:
424,88,196875,1,8,0:0:0:0:
144,288,197025,1,0,0:0:0:0:
480,232,197175,1,0,0:0:0:0:
248,64,197325,1,0,0:0:0:0:
376,256,197475,6,0,B|344:256|320:208|320:208|288:240|240:216,1,135.000005149842,4|0,0:0|0:0,0:0:0:0:
184,224,197700,2,4,B|184:184|152:200|152:200|176:152|136:152|136:112,1,135.000005149842
168,40,197925,2,0,L|200:80,1,45,8|0,0:0|0:0,0:0:0:0:
248,144,198075,2,0,B|288:128|320:160|320:160|312:128|384:136,1,135.000005149842,4|0,0:0|0:0,0:0:0:0:
416,80,198300,2,0,B|424:136|472:136|472:136|480:192|456:208,1,135.000005149842,4|0,0:0|0:0,0:0:0:0:
448,248,198525,2,0,L|400:280,1,45,8|0,0:0|0:0,0:0:0:0:
336,328,198675,5,4,0:0:0:0:
120,200,198825,1,0,0:0:0:0:
376,176,198975,1,0,0:0:0:0:
120,304,199125,1,0,0:0:0:0:
144,48,199275,1,8,0:0:0:0:
280,256,199425,1,0,0:0:0:0:
400,48,199575,1,0,0:0:0:0:
120,176,199725,1,0,0:0:0:0:
376,136,199875,6,2,P|416:240|424:328,1,180
184,304,200325,1,0,0:0:0:0:
240,104,200475,2,2,P|152:80|56:96,1,180
64,280,200925,1,0,0:0:0:0:
312,304,201075,6,0,P|312:256|344:208,1,90,4|0,0:0|0:0,0:0:0:0:
456,64,201375,1,0,0:0:0:0:
232,144,201525,1,0,0:0:0:0:
456,232,201675,1,8,0:0:0:0:
304,56,201825,1,0,0:0:0:0:
200,272,201975,1,0,0:0:0:0:
48,88,202125,1,0,0:0:0:0:
232,144,202275,6,0,B|280:152|272:192|272:192|304:176|344:224,1,135.000005149842,4|0,0:0|0:0,0:0:0:0:
400,224,202500,2,0,B|400:264|416:288|416:288|344:288|344:328,1,135.000005149842,4|0,0:0|0:0,0:0:0:0:
256,344,202725,2,0,L|280:272,1,45,8|8,0:0|0:0,0:0:0:0:
224,232,202875,2,0,B|192:232|176:280|176:280|144:240|88:256,1,135.000005149842,4|0,0:0|0:0,0:0:0:0:
64,208,203100,2,0,B|88:176|64:152|64:152|40:112|104:112|112:80,1,135.000005149842,4|0,0:0|0:0,0:0:0:0:
144,32,203325,2,0,L|168:80,1,45,8|0,0:0|0:0,0:0:0:0:
200,144,203475,5,4,0:0:0:0:
440,112,203625,1,0,0:0:0:0:
168,264,203775,1,0,0:0:0:0:
408,240,203925,1,0,0:0:0:0:
280,32,204075,1,8,0:0:0:0:
304,280,204225,1,0,0:0:0:0:
96,136,204375,1,0,0:0:0:0:
384,120,204525,1,0,0:0:0:0:
256,176,204675,5,8,0:0:0:0:
208,176,204750,1,0,0:0:0:0:
160,184,204825,1,0,0:0:0:0:
120,216,204900,1,0,0:0:0:0:
96,256,204975,1,8,0:0:0:0:
104,304,205050,1,0,0:0:0:0:
144,336,205125,1,0,0:0:0:0:
192,336,205200,1,0,0:0:0:0:
240,320,205275,1,8,0:0:0:0:
280,288,205350,1,0,0:0:0:0:
328,272,205425,1,0,0:0:0:0:
376,288,205500,1,0,0:0:0:0:
424,304,205575,1,8,0:0:0:0:
472,280,205650,1,0,0:0:0:0:
480,232,205725,1,0,0:0:0:0:
456,192,205800,1,0,0:0:0:0:
408,176,205875,5,4,0:0:0:0:
256,80,206025,1,0,0:0:0:0:
144,216,206175,1,0,0:0:0:0:
320,232,206325,1,0,0:0:0:0:
176,120,206475,2,0,P|136:88|80:64,1,90,8|0,0:0|0:0,0:0:0:0:
64,264,206775,2,0,P|104:296|152:320,1,90
312,336,207075,6,0,P|264:288|240:240,1,90,4|0,0:0|0:0,0:0:0:0:
216,96,207375,1,0,0:0:0:0:
384,152,207525,1,0,0:0:0:0:
224,232,207675,1,8,0:0:0:0:
328,80,207825,1,0,0:0:0:0:
416,240,207975,1,0,0:0:0:0:
264,144,208125,1,0,0:0:0:0:
88,128,208275,6,0,P|80:192|96:240,1,90,4|0,0:0|0:0,0:0:0:0:
224,336,208575,1,0,0:0:0:0:
352,208,208725,1,0,0:0:0:0:
176,232,208875,1,8,0:0:0:0:
336,312,209025,1,0,0:0:0:0:
480,208,209175,1,0,0:0:0:0:
376,64,209325,1,0,0:0:0:0:
240,184,209475,6,0,P|200:144|184:96,1,90,4|0,0:0|0:0,0:0:0:0:
384,152,209775,2,0,P|392:208|384:264,1,90
216,320,210075,2,0,P|176:288|160:232,1,90,8|0,0:0|0:0,0:0:0:0:
208,80,210375,2,0,P|144:64|88:72,1,90
232,208,210675,6,0,P|280:200|328:160,1,90,4|0,0:0|0:0,0:0:0:0:
440,48,210975,1,0,0:0:0:0:
408,224,211125,1,0,0:0:0:0:
296,88,211275,1,8,0:0:0:0:
464,152,211425,1,0,0:0:0:0:
392,320,211575,1,0,0:0:0:0:
216,304,211725,1,0,0:0:0:0:
336,168,211875,6,0,P|288:200|232:208,1,90,4|0,0:0|0:0,0:0:0:0:
80,200,212175,2,0,P|112:168|120:120,1,90
272,40,212475,2,0,P|232:88|208:136,1,90,8|0,0:0|0:0,0:0:0:0:
144,280,212775,2,0,P|200:304|248:296,1,90
400,216,213075,6,0,P|352:192|296:176,1,90,4|0,0:0|0:0,0:0:0:0:
136,160,213375,1,0,0:0:0:0:
224,320,213525,1,0,0:0:0:0:
64,240,213675,1,8,0:0:0:0:
232,184,213825,1,0,0:0:0:0:
136,32,213975,1,0,0:0:0:0:
136,208,214125,1,0,0:0:0:0:
256,80,214275,6,0,P|304:104|360:112,1,90,4|0,0:0|0:0,0:0:0:0:
480,144,214575,2,0,P|480:200|448:240,1,90
304,320,214875,2,0,P|296:272|304:224,1,90,8|0,0:0|0:0,0:0:0:0:
392,72,215175,2,0,P|400:136|392:176,1,90
232,232,215475,5,4,0:0:0:0:
152,72,215625,1,0,0:0:0:0:
152,72,215700,1,0,0:0:0:0:
152,72,215775,1,0,0:0:0:0:
80,240,215925,1,0,0:0:0:0:
224,136,216075,1,8,0:0:0:0:
328,280,216225,1,0,0:0:0:0:
160,344,216375,2,0,P|176:296|208:256,1,90
328,176,216675,6,2,P|408:128|432:64,2,135,0|0|0,0:0|0:0|0:0,0:0:0:0:
72,200,217275,2,0,P|88:144|128:104,1,90,8|0,0:0|0:0,0:0:0:0:
232,48,217575,1,0,0:0:0:0:
232,48,217650,1,0,0:0:0:0:
232,48,217725,1,0,0:0:0:0:
376,160,217875,6,0,P|416:208|424:256,1,90,4|0,0:0|0:0,0:0:0:0:
280,344,218175,1,0,0:0:0:0:
160,216,218325,1,0,0:0:0:0:
336,240,218475,1,8,0:0:0:0:
208,112,218625,1,0,0:0:0:0:
384,120,218775,1,0,0:0:0:0:
240,248,218925,1,0,0:0:0:0:
80,184,219075,6,0,P|96:128|128:80,2,90,4|0|0,0:0|0:0|0:0,0:0:0:0:
224,88,219525,1,0,0:0:0:0:
408,96,219675,2,0,P|416:152|408:200,1,90,8|0,0:0|0:0,0:0:0:0:
320,328,219975,1,0,0:0:0:0:
320,328,220050,1,0,0:0:0:0:
320,328,220125,1,0,0:0:0:0:
160,264,220275,6,0,P|232:256|272:240,1,90,4|0,0:0|0:0,0:0:0:0:
408,192,220575,1,0,0:0:0:0:
248,136,220725,1,0,0:0:0:0:
240,304,220875,1,8,0:0:0:0:
112,184,221025,1,0,0:0:0:0:
112,184,221100,1,0,0:0:0:0:
112,184,221175,1,0,0:0:0:0:
280,224,221325,1,0,0:0:0:0:
216,64,221475,6,0,P|272:56|328:64,1,90,4|0,0:0|0:0,0:0:0:0:
384,80,221700,2,0,P|376:128|344:160,1,90
264,144,221925,2,0,L|232:176,1,45
168,256,222075,2,0,P|192:296|232:320,1,90,8|0,0:0|0:0,0:0:0:0:
312,344,222300,2,0,P|320:296|336:256,1,90
384,192,222525,2,0,L|432:216,1,45
464,288,222675,5,4,0:0:0:0:
440,120,222825,1,0,0:0:0:0:
312,240,222975,1,0,0:0:0:0:
160,160,223125,1,0,0:0:0:0:
312,88,223275,1,8,0:0:0:0:
408,224,223425,1,0,0:0:0:0:
256,304,223575,1,0,0:0:0:0:
352,160,223725,1,0,0:0:0:0:
200,88,223875,5,8,0:0:0:0:
152,96,223950,1,0,0:0:0:0:
120,120,224025,1,0,0:0:0:0:
96,160,224100,1,0,0:0:0:0:
88,208,224175,1,8,0:0:0:0:
96,256,224250,1,0,0:0:0:0:
120,288,224325,1,0,0:0:0:0:
160,304,224400,1,0,0:0:0:0:
208,312,224475,1,8,0:0:0:0:
248,296,224550,1,0,0:0:0:0:
272,256,224625,1,0,0:0:0:0:
288,216,224700,1,0,0:0:0:0:
328,200,224775,1,8,0:0:0:0:
368,224,224850,1,0,0:0:0:0:
392,264,224925,1,0,0:0:0:0:
432,280,225000,1,0,0:0:0:0:
472,264,225075,1,4,0:0:0:0:
