osu file format v14

[General]
AudioFilename: audio.mp3
AudioLeadIn: 0
PreviewTime: 61198
Countdown: 0
SampleSet: None
StackLeniency: 0.7
Mode: 3
LetterboxInBreaks: 0
SpecialStyle: 0
WidescreenStoryboard: 1

[Editor]
Bookmarks: 92068,105111
DistanceSpacing: 0.6
BeatDivisor: 4
GridSize: 8
TimelineZoom: 2.899999

[Metadata]
Title:Iro wa Nioedo, Chirinuru o
TitleUnicode:色は匂へど 散りぬるを
Artist:senya
ArtistUnicode:senya
Creator:Envory
Version:Hard
Source:東方風神録 ~ Mountain of Faith.
Tags:-ady partyu atian540 yukari_sama ascension_h 4hri touhou fuujinroku stage 3 theme 東方project th10 幽閉サテライト Yuuhei Satellite manpuku jinja Even the Blossoming Flowers Will Eventually Scatter 神々が恋した幻想郷 Gensokyo Gods Loved zun 森永真由美 mayumi morinaga 河城 にとり iceon japanese video game maimai MURASAKI
BeatmapID:1778831
BeatmapSetID:517145

[Difficulty]
HPDrainRate:7.5
CircleSize:4
OverallDifficulty:7
ApproachRate:5
SliderMultiplier:1.4
SliderTickRate:1

[Events]
//Background and Video events
0,0,"bg.jpg",0,0
//Break Periods
//Storyboard Layer 0 (Background)
//Storyboard Layer 1 (Fail)
//Storyboard Layer 2 (Pass)
//Storyboard Layer 3 (Foreground)
Sprite,Foreground,Centre,"sb\credits\upper-m.png",146.75,445 S,0,18154,,0.35 MY,1,18154,18589,445,179.75 R,1,18154,21631,-0.0413808,-0.04630892 MX,0,18154,21631,146.75,143.75 MY,0,18589,21631,179.75,213.75 F,1,20762,21631,1,0 C,1,20762,21631,160,160,230,160,210,250
Sprite,Foreground,Centre,"sb\credits\lower-a.png",169.85,445 S,0,18167,,0.35 MY,1,18167,18602,445,179.75 R,1,18167,21631,-0.06208652,0.1362338 MX,0,18167,21631,169.85 MY,0,18602,21631,179.75,213.75 F,1,20762,21631,1,0 C,1,20762,21631,160,160,230,160,210,250
Sprite,Foreground,Centre,"sb\credits\lower-p.png",192.95,445 S,0,18180,,0.35 MY,1,18180,18615,445,179.75 R,1,18180,21631,0.1011133,0.09927095 MX,0,18180,21631,192.95,194.95 MY,0,18615,21631,179.75,213.75 F,1,20762,21631,1,0 C,1,20762,21631,160,160,230,160,210,250
Sprite,Foreground,Centre,"sb\credits\lower-s.png",216.05,445 S,0,18193,,0.35 MY,1,18193,18628,445,179.75 R,1,18193,21631,0.01332388,-0.08105581 MX,0,18193,21631,216.05,219.05 MY,0,18628,21631,179.75,213.75 F,1,20762,21631,1,0 C,1,20762,21631,160,160,230,160,210,250
Sprite,Foreground,Centre,"sb\credits\lower-e.png",239.15,445 S,0,18206,,0.35 MY,1,18206,18641,445,179.75 R,1,18206,21631,-0.03422858,0.01012677 MX,0,18206,21631,239.15,242.15 MY,0,18641,21631,179.75,213.75 F,1,20762,21631,1,0 C,1,20762,21631,160,160,230,160,210,250
Sprite,Foreground,Centre,"sb\credits\lower-t.png",262.25,445 S,0,18219,,0.35 MY,1,18219,18654,445,179.75 R,1,18219,21631,-0.02872581,0.08112115 MX,0,18219,21631,262.25,264.25 MY,0,18654,21631,179.75,213.75 F,1,20762,21631,1,0 C,1,20762,21631,160,160,230,160,210,250
Sprite,Foreground,Centre,"sb\credits\lower-b.png",308.45,445 S,0,18245,,0.35 MY,1,18245,18680,445,180.75 R,1,18245,21631,-0.07001067,-0.06107538 MX,0,18245,21631,308.45,307.45 MY,0,18680,21631,180.75,213.75 F,1,20762,21631,1,0 C,1,20762,21631,160,160,230,160,210,250
Sprite,Foreground,Centre,"sb\credits\lower-y.png",331.55,445 S,0,18258,,0.35 MY,1,18258,18693,445,180.75 R,1,18258,21631,0.05646292,-0.08280794 MX,0,18258,21631,331.55 MY,0,18693,21631,180.75,213.75 F,1,20762,21631,1,0 C,1,20762,21631,160,160,230,160,210,250
Sprite,Foreground,Centre,"sb\credits\upper-e.png",377.75,445 S,0,18284,,0.35 MY,1,18284,18719,445,180.75 R,1,18284,21631,0.1395048,-0.06774934 MX,0,18284,21631,377.75,374.75 MY,0,18719,21631,180.75,213.75 F,1,20762,21631,1,0 C,1,20762,21631,160,160,230,160,210,250
Sprite,Foreground,Centre,"sb\credits\lower-n.png",400.85,445 S,0,18297,,0.35 MY,1,18297,18732,445,180.75 R,1,18297,21631,0.00161561,-0.1154423 MX,0,18297,21631,400.85,401.85 MY,0,18732,21631,180.75,213.75 F,1,20762,21631,1,0 C,1,20762,21631,160,160,230,160,210,250
Sprite,Foreground,Centre,"sb\credits\lower-v.png",423.95,445 S,0,18310,,0.35 MY,1,18310,18745,445,180.75 R,1,18310,21631,0.04079632,-0.1289763 MX,0,18310,21631,423.95,424.95 MY,0,18745,21631,180.75,213.75 F,1,20762,21631,1,0 C,1,20762,21631,160,160,230,160,210,250
Sprite,Foreground,Centre,"sb\credits\lower-o.png",447.05,445 S,0,18323,,0.35 MY,1,18323,18758,445,180.75 R,1,18323,21631,0.02670339,-0.03915958 MX,0,18323,21631,447.05 MY,0,18758,21631,180.75,213.75 F,1,20762,21631,1,0 C,1,20762,21631,160,160,230,160,210,250
Sprite,Foreground,Centre,"sb\credits\lower-r.png",470.15,445 S,0,18336,,0.35 MY,1,18336,18771,445,181.75 R,1,18336,21631,-0.001855907,-0.03025388 MX,0,18336,21631,470.15,467.15 MY,0,18771,21631,181.75,213.75 F,1,20762,21631,1,0 C,1,20762,21631,160,160,230,160,210,250
Sprite,Foreground,Centre,"sb\credits\lower-y.png",493.25,445 S,0,18349,,0.35 MY,1,18349,18784,445,181.75 R,1,18349,21631,0.007213183,0.05997602 MX,0,18349,21631,493.25,495.25 MY,0,18784,21631,181.75,213.75 F,1,20762,21631,1,0 C,1,20762,21631,160,160,230,160,210,250
//Storyboard Layer 4 (Overlay)
//Storyboard Sound Samples
Sample,18589,0,"soft-hitclap.wav",0
Sample,19023,0,"soft-hitwhistle.wav",0
Sample,19458,0,"soft-hitclap.wav",0
Sample,19893,0,"soft-hitwhistle.wav",0
Sample,20328,0,"soft-hitclap.wav",0
Sample,20762,0,"soft-hitwhistle.wav",0
Sample,20762,0,"cling.wav",65
Sample,21197,0,"soft-hitclap.wav",0
Sample,21632,0,"soft-hitwhistle.wav",0
Sample,22067,0,"soft-hitclap.wav",0
Sample,22502,0,"soft-hitwhistle.wav",0
Sample,22936,0,"soft-hitclap.wav",0
Sample,23371,0,"soft-hitwhistle.wav",0
Sample,23806,0,"soft-hitclap.wav",0
Sample,24241,0,"cling.wav",65
Sample,24676,0,"soft-hitclap.wav",0
Sample,25110,0,"soft-hitwhistle.wav",0
Sample,25110,0,"soft-hitfinish.wav",0
Sample,25980,0,"soft-hitwhistle.wav",0
Sample,26415,0,"soft-hitclap.wav",0
Sample,26849,0,"soft-hitwhistle.wav",0
Sample,27284,0,"soft-hitclap.wav",0
Sample,27719,0,"soft-hitwhistle.wav",0
Sample,27719,0,"cling.wav",65
Sample,28154,0,"soft-hitclap.wav",0
Sample,28589,0,"soft-hitwhistle.wav",0
Sample,29023,0,"soft-hitclap.wav",0
Sample,29458,0,"soft-hitwhistle.wav",0
Sample,29893,0,"soft-hitclap.wav",0
Sample,30328,0,"soft-hitwhistle.wav",0
Sample,30762,0,"soft-hitclap.wav",0
Sample,31197,0,"soft-hitclap.wav",0
Sample,31415,0,"soft-hitwhistle.wav",0
Sample,31632,0,"soft-hitclap.wav",0
Sample,31849,0,"soft-hitwhistle.wav",0
Sample,31958,0,"soft-hitwhistle.wav",0
Sample,32067,0,"soft-hitwhistle.wav",0
Sample,32067,0,"soft-hitfinish.wav",0
Sample,45980,0,"soft-hitwhistle.wav",0
Sample,45980,0,"soft-hitfinish.wav",0
Sample,46197,0,"soft-hitwhistle.wav",0
Sample,46415,0,"soft-hitclap.wav",0
Sample,46632,0,"soft-hitwhistle.wav",0
Sample,47067,0,"soft-hitwhistle.wav",0
Sample,47284,0,"soft-hitclap.wav",0
Sample,47719,0,"soft-hitwhistle.wav",0
Sample,47936,0,"soft-hitwhistle.wav",0
Sample,48154,0,"soft-hitclap.wav",0
Sample,48371,0,"soft-hitwhistle.wav",0
Sample,48806,0,"soft-hitwhistle.wav",0
Sample,49023,0,"soft-hitclap.wav",0
Sample,49241,0,"soft-hitwhistle.wav",0
Sample,49458,0,"soft-hitwhistle.wav",0
Sample,49676,0,"soft-hitwhistle.wav",0
Sample,49893,0,"soft-hitclap.wav",0
Sample,50110,0,"soft-hitwhistle.wav",0
Sample,50545,0,"soft-hitwhistle.wav",0
Sample,50762,0,"soft-hitclap.wav",0
Sample,50980,0,"soft-hitwhistle.wav",0
Sample,51197,0,"soft-hitwhistle.wav",0
Sample,51415,0,"soft-hitwhistle.wav",0
Sample,51632,0,"soft-hitclap.wav",0
Sample,51849,0,"soft-hitwhistle.wav",0
Sample,52284,0,"soft-hitwhistle.wav",0
Sample,52502,0,"soft-hitclap.wav",0
Sample,52719,0,"soft-hitwhistle.wav",0
Sample,52936,0,"soft-hitwhistle.wav",0
Sample,52936,0,"soft-hitfinish.wav",0
Sample,53371,0,"soft-hitclap.wav",0
Sample,53806,0,"soft-hitwhistle.wav",0
Sample,54241,0,"soft-hitclap.wav",0
Sample,54676,0,"soft-hitwhistle.wav",0
Sample,55110,0,"soft-hitclap.wav",0
Sample,55545,0,"soft-hitwhistle.wav",0
Sample,55980,0,"soft-hitclap.wav",0
Sample,56197,0,"soft-hitwhistle.wav",0
Sample,56415,0,"soft-hitwhistle.wav",0
Sample,56415,0,"soft-hitfinish.wav",0
Sample,56741,0,"soft-hitwhistle.wav",0
Sample,56849,0,"soft-hitclap.wav",0
Sample,57067,0,"soft-hitwhistle.wav",0
Sample,57284,0,"soft-hitwhistle.wav",0
Sample,57284,0,"soft-hitfinish.wav",0
Sample,57610,0,"soft-hitwhistle.wav",0
Sample,57719,0,"soft-hitclap.wav",0
Sample,57936,0,"soft-hitwhistle.wav",0
Sample,58154,0,"soft-hitwhistle.wav",0
Sample,58480,0,"soft-hitwhistle.wav",0
Sample,58806,0,"soft-hitwhistle.wav",0
Sample,59023,0,"soft-hitwhistle.wav",0
Sample,61632,0,"soft-hitwhistle.wav",0
Sample,61632,0,"soft-hitfinish.wav",0
Sample,62067,0,"soft-hitclap.wav",0
Sample,62502,0,"soft-hitwhistle.wav",0
Sample,62936,0,"soft-hitclap.wav",0
Sample,63371,0,"soft-hitwhistle.wav",0
Sample,63806,0,"soft-hitclap.wav",0
Sample,64241,0,"soft-hitwhistle.wav",0
Sample,64241,0,"cling.wav",65
Sample,64676,0,"soft-hitclap.wav",0
Sample,65110,0,"soft-hitwhistle.wav",0
Sample,65545,0,"soft-hitclap.wav",0
Sample,65980,0,"soft-hitwhistle.wav",0
Sample,66415,0,"soft-hitclap.wav",0
Sample,66849,0,"soft-hitwhistle.wav",0
Sample,67284,0,"soft-hitclap.wav",0
Sample,67719,0,"cling.wav",65
Sample,68154,0,"soft-hitclap.wav",0
Sample,68589,0,"soft-hitwhistle.wav",0
Sample,69023,0,"soft-hitfinish.wav",0
Sample,69023,0,"soft-hitclap.wav",0
Sample,69458,0,"soft-hitwhistle.wav",0
Sample,69458,0,"soft-hitfinish.wav",0
Sample,69893,0,"soft-hitclap.wav",0
Sample,70328,0,"soft-hitwhistle.wav",0
Sample,70762,0,"soft-hitclap.wav",0
Sample,70762,0,"soft-hitfinish.wav",0
Sample,71197,0,"soft-hitwhistle.wav",0
Sample,71197,0,"soft-hitfinish.wav",0
Sample,71632,0,"soft-hitclap.wav",0
Sample,72067,0,"soft-hitfinish.wav",0
Sample,72067,0,"soft-hitwhistle.wav",0
Sample,72502,0,"soft-hitclap.wav",0
Sample,72936,0,"soft-hitwhistle.wav",0
Sample,73371,0,"soft-hitclap.wav",0
Sample,73806,0,"soft-hitwhistle.wav",0
Sample,73806,0,"soft-hitfinish.wav",0
Sample,74241,0,"soft-hitclap.wav",0
Sample,74567,0,"soft-hitwhistle.wav",0
Sample,74676,0,"soft-hitfinish.wav",0
Sample,74676,0,"soft-hitwhistle.wav",0
Sample,74893,0,"soft-hitwhistle.wav",0
Sample,75110,0,"soft-hitclap.wav",0
Sample,75328,0,"soft-hitwhistle.wav",0
Sample,75436,0,"soft-hitwhistle.wav",0
Sample,75545,0,"soft-hitwhistle.wav",0
Sample,75545,0,"soft-hitfinish.wav",0
Sample,75980,0,"soft-hitclap.wav",0
Sample,76415,0,"soft-hitwhistle.wav",0
Sample,76849,0,"soft-hitclap.wav",0
Sample,77284,0,"soft-hitwhistle.wav",0
Sample,77719,0,"soft-hitclap.wav",0
Sample,78154,0,"soft-hitwhistle.wav",0
Sample,78154,0,"cling.wav",65
Sample,78589,0,"soft-hitclap.wav",0
Sample,79023,0,"soft-hitwhistle.wav",0
Sample,79458,0,"soft-hitclap.wav",0
Sample,79893,0,"soft-hitwhistle.wav",0
Sample,80328,0,"soft-hitclap.wav",0
Sample,80762,0,"soft-hitwhistle.wav",0
Sample,81197,0,"soft-hitclap.wav",0
Sample,81632,0,"soft-hitwhistle.wav",0
Sample,82067,0,"soft-hitclap.wav",0
Sample,82502,0,"soft-hitwhistle.wav",0
Sample,82936,0,"soft-hitclap.wav",0
Sample,82936,0,"soft-hitfinish.wav",0
Sample,83371,0,"soft-hitwhistle.wav",0
Sample,83371,0,"soft-hitfinish.wav",0
Sample,83806,0,"soft-hitclap.wav",0
Sample,84241,0,"soft-hitwhistle.wav",0
Sample,84676,0,"soft-hitclap.wav",0
Sample,84676,0,"soft-hitfinish.wav",0
Sample,85110,0,"soft-hitfinish.wav",0
Sample,85110,0,"soft-hitwhistle.wav",0
Sample,85545,0,"soft-hitclap.wav",0
Sample,85980,0,"soft-hitwhistle.wav",0
Sample,85980,0,"soft-hitfinish.wav",0
Sample,86197,0,"soft-hitwhistle.wav",0
Sample,86415,0,"soft-hitclap.wav",0
Sample,86632,0,"soft-hitwhistle.wav",0
Sample,86741,0,"soft-hitwhistle.wav",0
Sample,86849,0,"soft-hitwhistle.wav",0
Sample,86849,0,"soft-hitfinish.wav",0
Sample,87067,0,"soft-hitwhistle.wav",0
Sample,87284,0,"soft-hitclap.wav",0
Sample,87502,0,"soft-hitwhistle.wav",0
Sample,87610,0,"soft-hitwhistle.wav",0
Sample,87719,0,"soft-hitwhistle.wav",0
Sample,87719,0,"soft-hitfinish.wav",0
Sample,90762,0,"soft-hitwhistle.wav",0
Sample,90980,0,"soft-hitwhistle.wav",0
Sample,91089,0,"soft-hitwhistle.wav",0
Sample,91197,0,"soft-hitwhistle.wav",0
Sample,91197,0,"soft-hitfinish.wav",0
Sample,91632,0,"soft-hitclap.wav",0
Sample,92067,0,"soft-hitwhistle.wav",0
Sample,92502,0,"soft-hitclap.wav",0
Sample,92936,0,"soft-hitwhistle.wav",0
Sample,93371,0,"soft-hitclap.wav",0
Sample,93806,0,"soft-hitwhistle.wav",0
Sample,93806,0,"cling.wav",65
Sample,94241,0,"soft-hitclap.wav",0
Sample,94676,0,"soft-hitwhistle.wav",0
Sample,95110,0,"soft-hitclap.wav",0
Sample,95545,0,"soft-hitwhistle.wav",0
Sample,95980,0,"soft-hitclap.wav",0
Sample,96415,0,"soft-hitwhistle.wav",0
Sample,96849,0,"soft-hitclap.wav",0
Sample,97284,0,"soft-hitwhistle.wav",0
Sample,97719,0,"soft-hitclap.wav",0
Sample,98154,0,"soft-hitwhistle.wav",0
Sample,98154,0,"soft-hitfinish.wav",0
Sample,98589,0,"soft-hitclap.wav",0
Sample,99023,0,"soft-hitwhistle.wav",0
Sample,99458,0,"soft-hitclap.wav",0
Sample,99893,0,"soft-hitwhistle.wav",0
Sample,100328,0,"soft-hitclap.wav",0
Sample,100762,0,"soft-hitwhistle.wav",0
Sample,100762,0,"cling.wav",65
Sample,101197,0,"soft-hitclap.wav",0
Sample,101632,0,"soft-hitwhistle.wav",0
Sample,101632,0,"soft-hitfinish.wav",0
Sample,102067,0,"soft-hitclap.wav",0
Sample,102502,0,"soft-hitwhistle.wav",0
Sample,102936,0,"soft-hitclap.wav",0
Sample,103371,0,"soft-hitwhistle.wav",0
Sample,103371,0,"soft-hitfinish.wav",0
Sample,103806,0,"soft-hitclap.wav",0
Sample,104241,0,"soft-hitfinish.wav",0
Sample,104241,0,"soft-hitwhistle.wav",0
Sample,104458,0,"soft-hitwhistle.wav",0
Sample,104676,0,"soft-hitfinish.wav",0
Sample,104676,0,"soft-hitclap.wav",0
Sample,104893,0,"soft-hitwhistle.wav",0
Sample,105002,0,"soft-hitwhistle.wav",0
Sample,105110,0,"soft-hitwhistle.wav",0
Sample,105110,0,"soft-hitfinish.wav",0
Sample,105545,0,"soft-hitclap.wav",0
Sample,105980,0,"soft-hitwhistle.wav",0
Sample,106415,0,"soft-hitclap.wav",0
Sample,106849,0,"soft-hitwhistle.wav",0
Sample,107284,0,"soft-hitclap.wav",0
Sample,107719,0,"soft-hitwhistle.wav",0
Sample,108154,0,"soft-hitclap.wav",0
Sample,108589,0,"soft-hitwhistle.wav",0
Sample,109023,0,"soft-hitclap.wav",0
Sample,109458,0,"soft-hitwhistle.wav",0
Sample,109893,0,"soft-hitclap.wav",0
Sample,110328,0,"soft-hitwhistle.wav",0
Sample,110762,0,"soft-hitclap.wav",0
Sample,111197,0,"soft-hitwhistle.wav",0
Sample,111632,0,"soft-hitclap.wav",0
Sample,112067,0,"soft-hitwhistle.wav",0
Sample,112067,0,"soft-hitfinish.wav",0
Sample,112502,0,"soft-hitclap.wav",0
Sample,112936,0,"soft-hitwhistle.wav",0
Sample,113371,0,"soft-hitclap.wav",0
Sample,113806,0,"soft-hitwhistle.wav",0
Sample,114241,0,"soft-hitclap.wav",0
Sample,114676,0,"soft-hitwhistle.wav",0
Sample,115110,0,"soft-hitclap.wav",0
Sample,115545,0,"soft-hitwhistle.wav",0
Sample,115980,0,"soft-hitclap.wav",0
Sample,116415,0,"soft-hitwhistle.wav",0
Sample,116849,0,"soft-hitclap.wav",0
Sample,117284,0,"soft-hitwhistle.wav",0
Sample,117719,0,"soft-hitclap.wav",0
Sample,118154,0,"soft-hitwhistle.wav",0
Sample,118371,0,"soft-hitwhistle.wav",0
Sample,118589,0,"soft-hitclap.wav",0
Sample,118806,0,"soft-hitwhistle.wav",0
Sample,118915,0,"soft-hitwhistle.wav",0
Sample,119023,0,"soft-hitwhistle.wav",0
Sample,119023,0,"soft-hitfinish.wav",0
Sample,119458,0,"soft-hitclap.wav",0
Sample,119893,0,"soft-hitwhistle.wav",0
Sample,120328,0,"soft-hitclap.wav",0
Sample,120762,0,"soft-hitwhistle.wav",0
Sample,121197,0,"soft-hitclap.wav",0
Sample,121632,0,"soft-hitwhistle.wav",0
Sample,122067,0,"soft-hitclap.wav",0
Sample,122502,0,"soft-hitwhistle.wav",0
Sample,122936,0,"soft-hitclap.wav",0
Sample,123371,0,"soft-hitwhistle.wav",0
Sample,123806,0,"soft-hitclap.wav",0
Sample,124241,0,"soft-hitwhistle.wav",0
Sample,124676,0,"soft-hitclap.wav",0
Sample,125110,0,"soft-hitwhistle.wav",0
Sample,125328,0,"soft-hitwhistle.wav",0
Sample,125545,0,"soft-hitclap.wav",0
Sample,125762,0,"soft-hitwhistle.wav",0
Sample,125980,0,"soft-hitwhistle.wav",0
Sample,125980,0,"soft-hitfinish.wav",0
Sample,126415,0,"soft-hitclap.wav",0
Sample,126849,0,"soft-hitwhistle.wav",0
Sample,127284,0,"soft-hitclap.wav",0
Sample,127719,0,"soft-hitwhistle.wav",0
Sample,128154,0,"soft-hitclap.wav",0
Sample,128589,0,"soft-hitwhistle.wav",0
Sample,128589,0,"cling.wav",65
Sample,129023,0,"soft-hitclap.wav",0
Sample,129241,0,"soft-hitwhistle.wav",0
Sample,129458,0,"soft-hitwhistle.wav",0
Sample,129458,0,"soft-hitfinish.wav",0
Sample,129784,0,"soft-hitwhistle.wav",0
Sample,129893,0,"soft-hitclap.wav",0
Sample,130110,0,"soft-hitwhistle.wav",0
Sample,130328,0,"soft-hitwhistle.wav",0
Sample,130328,0,"soft-hitfinish.wav",0
Sample,130654,0,"soft-hitwhistle.wav",0
Sample,130762,0,"soft-hitclap.wav",0
Sample,130980,0,"soft-hitwhistle.wav",0
Sample,131197,0,"soft-hitwhistle.wav",0
Sample,131523,0,"soft-hitwhistle.wav",0
Sample,131849,0,"soft-hitwhistle.wav",0
Sample,132067,0,"soft-hitwhistle.wav",0
Sample,132936,0,"soft-hitwhistle.wav",0
Sample,132936,0,"soft-hitfinish.wav",0
Sample,133371,0,"soft-hitclap.wav",0
Sample,133806,0,"soft-hitwhistle.wav",0
Sample,134241,0,"soft-hitclap.wav",0
Sample,134676,0,"soft-hitwhistle.wav",0
Sample,135110,0,"soft-hitclap.wav",0
Sample,135545,0,"soft-hitwhistle.wav",0
Sample,135545,0,"cling.wav",65
Sample,135980,0,"soft-hitclap.wav",0
Sample,136415,0,"soft-hitwhistle.wav",0
Sample,136849,0,"soft-hitclap.wav",0
Sample,137284,0,"soft-hitwhistle.wav",0
Sample,137719,0,"soft-hitclap.wav",0
Sample,138154,0,"soft-hitwhistle.wav",0
Sample,138589,0,"soft-hitclap.wav",0
Sample,139023,0,"soft-hitwhistle.wav",0
Sample,139023,0,"cling.wav",65
Sample,139458,0,"soft-hitclap.wav",0
Sample,139893,0,"soft-hitwhistle.wav",0
Sample,140328,0,"soft-hitfinish.wav",0
Sample,140328,0,"soft-hitclap.wav",0
Sample,140762,0,"soft-hitwhistle.wav",0
Sample,140762,0,"soft-hitfinish.wav",0
Sample,141197,0,"soft-hitclap.wav",0
Sample,141632,0,"soft-hitwhistle.wav",0
Sample,142067,0,"soft-hitclap.wav",0
Sample,142067,0,"soft-hitfinish.wav",0
Sample,142502,0,"soft-hitwhistle.wav",0
Sample,142502,0,"soft-hitfinish.wav",0
Sample,142936,0,"soft-hitclap.wav",0
Sample,143371,0,"soft-hitfinish.wav",0
Sample,143371,0,"soft-hitwhistle.wav",0
Sample,143806,0,"soft-hitclap.wav",0
Sample,144241,0,"soft-hitwhistle.wav",0
Sample,144676,0,"soft-hitclap.wav",0
Sample,145110,0,"soft-hitwhistle.wav",0
Sample,145110,0,"soft-hitfinish.wav",0
Sample,145545,0,"soft-hitclap.wav",0
Sample,145871,0,"soft-hitwhistle.wav",0
Sample,145980,0,"soft-hitwhistle.wav",0
Sample,146197,0,"soft-hitwhistle.wav",0
Sample,146415,0,"soft-hitclap.wav",0
Sample,146632,0,"soft-hitwhistle.wav",0
Sample,146741,0,"soft-hitwhistle.wav",0
Sample,146849,0,"soft-hitwhistle.wav",0
Sample,146849,0,"soft-hitfinish.wav",0
Sample,147284,0,"soft-hitclap.wav",0
Sample,147719,0,"soft-hitwhistle.wav",0
Sample,148154,0,"soft-hitclap.wav",0
Sample,148589,0,"soft-hitwhistle.wav",0
Sample,149023,0,"soft-hitclap.wav",0
Sample,149458,0,"soft-hitwhistle.wav",0
Sample,149458,0,"cling.wav",65
Sample,149893,0,"soft-hitclap.wav",0
Sample,150328,0,"soft-hitwhistle.wav",0
Sample,150762,0,"soft-hitclap.wav",0
Sample,151197,0,"soft-hitwhistle.wav",0
Sample,151632,0,"soft-hitclap.wav",0
Sample,152067,0,"soft-hitwhistle.wav",0
Sample,152502,0,"soft-hitclap.wav",0
Sample,152936,0,"soft-hitwhistle.wav",0
Sample,152936,0,"cling.wav",65
Sample,153371,0,"soft-hitclap.wav",0
Sample,153806,0,"soft-hitwhistle.wav",0
Sample,154241,0,"soft-hitclap.wav",0
Sample,154241,0,"soft-hitfinish.wav",0
Sample,154676,0,"soft-hitwhistle.wav",0
Sample,154676,0,"soft-hitfinish.wav",0
Sample,155110,0,"soft-hitclap.wav",0
Sample,155545,0,"soft-hitwhistle.wav",0
Sample,155980,0,"soft-hitclap.wav",0
Sample,155980,0,"soft-hitfinish.wav",0
Sample,156415,0,"soft-hitfinish.wav",0
Sample,156415,0,"soft-hitwhistle.wav",0
Sample,156849,0,"soft-hitclap.wav",0
Sample,157284,0,"soft-hitwhistle.wav",0
Sample,157284,0,"soft-hitfinish.wav",0
Sample,157502,0,"soft-hitwhistle.wav",0
Sample,157719,0,"soft-hitclap.wav",0
Sample,157936,0,"soft-hitwhistle.wav",0
Sample,158045,0,"soft-hitwhistle.wav",0
Sample,158154,0,"soft-hitwhistle.wav",0
Sample,158154,0,"soft-hitfinish.wav",0
Sample,158371,0,"soft-hitwhistle.wav",0
Sample,158589,0,"soft-hitclap.wav",0
Sample,158806,0,"soft-hitwhistle.wav",0
Sample,158915,0,"soft-hitwhistle.wav",0
Sample,159023,0,"soft-hitwhistle.wav",0
Sample,159023,0,"soft-hitfinish.wav",0
Sample,164349,0,"soft-hitwhistle.wav",0
Sample,164458,0,"soft-hitwhistle.wav",0
Sample,164676,0,"soft-hitwhistle.wav",0
Sample,164893,0,"soft-hitwhistle.wav",0
Sample,165002,0,"soft-hitwhistle.wav",0
Sample,165219,0,"soft-hitwhistle.wav",0
Sample,165328,0,"soft-hitwhistle.wav",0
Sample,165436,0,"soft-hitwhistle.wav",0
Sample,165545,0,"soft-hitwhistle.wav",0
Sample,165599,0,"soft-hitwhistle.wav",0
Sample,165654,0,"soft-hitwhistle.wav",0
Sample,165708,0,"soft-hitwhistle.wav",0
Sample,165762,0,"soft-hitwhistle.wav",0
Sample,165871,0,"soft-hitwhistle.wav",0
Sample,165980,0,"soft-hitwhistle.wav",0
Sample,165980,0,"soft-hitfinish.wav",0
Sample,166415,0,"soft-hitclap.wav",0
Sample,166849,0,"soft-hitwhistle.wav",0
Sample,167284,0,"soft-hitclap.wav",0
Sample,167719,0,"soft-hitwhistle.wav",0
Sample,168154,0,"soft-hitclap.wav",0
Sample,168589,0,"soft-hitwhistle.wav",0
Sample,168589,0,"cling.wav",65
Sample,169023,0,"soft-hitclap.wav",0
Sample,169458,0,"soft-hitwhistle.wav",0
Sample,169893,0,"soft-hitclap.wav",0
Sample,170328,0,"soft-hitwhistle.wav",0
Sample,170762,0,"soft-hitclap.wav",0
Sample,171197,0,"soft-hitwhistle.wav",0
Sample,171632,0,"soft-hitclap.wav",0
Sample,172067,0,"soft-hitwhistle.wav",0
Sample,172067,0,"cling.wav",65
Sample,172502,0,"soft-hitclap.wav",0
Sample,172936,0,"soft-hitwhistle.wav",0
Sample,173371,0,"soft-hitclap.wav",0
Sample,173371,0,"soft-hitfinish.wav",0
Sample,173806,0,"soft-hitwhistle.wav",0
Sample,173806,0,"soft-hitfinish.wav",0
Sample,174241,0,"soft-hitclap.wav",0
Sample,174676,0,"soft-hitwhistle.wav",0
Sample,175110,0,"soft-hitclap.wav",0
Sample,175110,0,"soft-hitfinish.wav",0
Sample,175545,0,"soft-hitwhistle.wav",0
Sample,175545,0,"soft-hitfinish.wav",0
Sample,175980,0,"soft-hitclap.wav",0
Sample,176415,0,"soft-hitwhistle.wav",0
Sample,176415,0,"soft-hitfinish.wav",0
Sample,176632,0,"soft-hitwhistle.wav",0
Sample,176849,0,"soft-hitclap.wav",0
Sample,177067,0,"soft-hitwhistle.wav",0
Sample,177176,0,"soft-hitwhistle.wav",0
Sample,177284,0,"soft-hitwhistle.wav",0
Sample,177284,0,"soft-hitfinish.wav",0
Sample,177502,0,"soft-hitwhistle.wav",0
Sample,177719,0,"soft-hitclap.wav",0
Sample,177936,0,"soft-hitwhistle.wav",0
Sample,178154,0,"soft-hitwhistle.wav",0
Sample,178154,0,"soft-hitfinish.wav",0
Sample,178154,0,"soft-hitwhistle.wav",0
Sample,178371,0,"soft-hitwhistle.wav",0
Sample,178589,0,"soft-hitwhistle.wav",0
Sample,178697,0,"soft-hitwhistle.wav",0
Sample,178806,0,"soft-hitwhistle.wav",0
Sample,178860,0,"soft-hitwhistle.wav",0
Sample,178915,0,"soft-hitwhistle.wav",0
Sample,178969,0,"soft-hitwhistle.wav",0
Sample,179023,0,"soft-hitwhistle.wav",0
Sample,179023,0,"soft-hitfinish.wav",0
Sample,179132,0,"soft-hitwhistle.wav",0
Sample,179241,0,"soft-hitwhistle.wav",0
Sample,179349,0,"soft-hitwhistle.wav",0
Sample,179458,0,"soft-hitwhistle.wav",0
Sample,179567,0,"soft-hitwhistle.wav",0
Sample,179676,0,"soft-hitwhistle.wav",0
Sample,179784,0,"soft-hitwhistle.wav",0
Sample,179893,0,"soft-hitwhistle.wav",0
Sample,183806,0,"soft-hitfinish.wav",0
Sample,183806,0,"soft-hitclap.wav",0
Sample,184241,0,"soft-hitwhistle.wav",0
Sample,184676,0,"soft-hitclap.wav",0
Sample,185110,0,"soft-hitwhistle.wav",0
Sample,185545,0,"soft-hitclap.wav",0
Sample,185980,0,"soft-hitwhistle.wav",0
Sample,185980,0,"cling.wav",65
Sample,186415,0,"soft-hitclap.wav",0
Sample,186849,0,"soft-hitwhistle.wav",0
Sample,187284,0,"soft-hitclap.wav",0
Sample,187719,0,"soft-hitwhistle.wav",0
Sample,188154,0,"soft-hitclap.wav",0
Sample,188589,0,"soft-hitwhistle.wav",0
Sample,189023,0,"soft-hitclap.wav",0
Sample,189458,0,"soft-hitwhistle.wav",0
Sample,189458,0,"cling.wav",65
Sample,189893,0,"soft-hitclap.wav",0
Sample,190328,0,"soft-hitwhistle.wav",0
Sample,190762,0,"soft-hitclap.wav",0
Sample,190762,0,"soft-hitfinish.wav",0
Sample,191197,0,"soft-hitfinish.wav",0
Sample,191197,0,"soft-hitwhistle.wav",0
Sample,191632,0,"soft-hitclap.wav",0
Sample,192067,0,"soft-hitwhistle.wav",0
Sample,192502,0,"soft-hitfinish.wav",0
Sample,192502,0,"soft-hitclap.wav",0
Sample,192936,0,"soft-hitfinish.wav",0
Sample,192936,0,"soft-hitwhistle.wav",0
Sample,193371,0,"soft-hitclap.wav",0
Sample,193806,0,"soft-hitfinish.wav",0
Sample,193806,0,"soft-hitwhistle.wav",0
Sample,194241,0,"soft-hitclap.wav",0
Sample,194676,0,"soft-hitwhistle.wav",0
Sample,195110,0,"soft-hitclap.wav",0
Sample,195545,0,"soft-hitfinish.wav",0
Sample,195545,0,"soft-hitwhistle.wav",0
Sample,195980,0,"soft-hitclap.wav",0
Sample,196306,0,"soft-hitwhistle.wav",0
Sample,196415,0,"soft-hitwhistle.wav",0
Sample,196632,0,"soft-hitwhistle.wav",0
Sample,196849,0,"soft-hitclap.wav",0
Sample,197067,0,"soft-hitwhistle.wav",0
Sample,197176,0,"soft-hitwhistle.wav",0
Sample,197284,0,"soft-hitwhistle.wav",0
Sample,197284,0,"soft-hitfinish.wav",0
Sample,197719,0,"soft-hitclap.wav",0
Sample,198154,0,"soft-hitwhistle.wav",0
Sample,198589,0,"soft-hitclap.wav",0
Sample,199023,0,"soft-hitwhistle.wav",0
Sample,199458,0,"soft-hitclap.wav",0
Sample,199893,0,"soft-hitwhistle.wav",0
Sample,199893,0,"cling.wav",65
Sample,200328,0,"soft-hitclap.wav",0
Sample,200762,0,"soft-hitwhistle.wav",0
Sample,201197,0,"soft-hitclap.wav",0
Sample,201632,0,"soft-hitwhistle.wav",0
Sample,202067,0,"soft-hitclap.wav",0
Sample,202502,0,"soft-hitwhistle.wav",0
Sample,202936,0,"soft-hitclap.wav",0
Sample,203371,0,"soft-hitwhistle.wav",0
Sample,203371,0,"cling.wav",65
Sample,203806,0,"soft-hitclap.wav",0
Sample,204241,0,"soft-hitwhistle.wav",0
Sample,204676,0,"soft-hitfinish.wav",0
Sample,204676,0,"soft-hitclap.wav",0
Sample,205110,0,"soft-hitfinish.wav",0
Sample,205110,0,"soft-hitwhistle.wav",0
Sample,205545,0,"soft-hitclap.wav",0
Sample,205980,0,"soft-hitwhistle.wav",0
Sample,206415,0,"soft-hitfinish.wav",0
Sample,206415,0,"soft-hitclap.wav",0
Sample,206849,0,"soft-hitwhistle.wav",0
Sample,206849,0,"soft-hitfinish.wav",0
Sample,207284,0,"soft-hitclap.wav",0
Sample,207719,0,"soft-hitfinish.wav",0
Sample,207719,0,"soft-hitwhistle.wav",0
Sample,208045,0,"soft-hitwhistle.wav",0
Sample,208154,0,"soft-hitclap.wav",0
Sample,208371,0,"soft-hitwhistle.wav",0
Sample,208589,0,"soft-hitwhistle.wav",0
Sample,208589,0,"soft-hitfinish.wav",0
Sample,208915,0,"soft-hitwhistle.wav",0
Sample,209023,0,"soft-hitclap.wav",0
Sample,209241,0,"soft-hitwhistle.wav",0
Sample,209458,0,"soft-hitfinish.wav",0
Sample,209458,0,"soft-hitwhistle.wav",0

[TimingPoints]
763,434.782608695652,4,2,1,65,1,0
59023,-125.0,4,2,1,65,0,0
61632,-100.0,4,2,1,65,0,1
87719,-100.0,4,2,1,65,0,0
132936,-100.0,4,2,1,65,0,1
159023,-125.0,4,2,1,65,0,0
162502,-111.111111111111,4,2,1,65,0,0
164241,-100.0,4,2,1,65,0,0
165980,-100.0,4,2,1,65,0,1
179893,-100.0,4,2,1,65,0,0
183806,-100.0,4,2,1,65,0,1
209458,-100.0,4,2,1,65,0,0

[HitObjects]
192,192,1632,128,0,1849:0:0:0:0:
64,192,1849,128,0,2067:0:0:0:0:
192,192,2067,1,0,0:0:0:0:
448,192,2067,128,0,3154:0:0:0:0:
320,192,2284,1,0,0:0:0:0:
192,192,2502,1,0,0:0:0:0:
64,192,2719,1,0,0:0:0:0:
320,192,2936,1,0,0:0:0:0:
64,192,3154,128,0,3371:0:0:0:0:
320,192,3371,128,0,3589:0:0:0:0:
192,192,3589,128,0,3806:0:0:0:0:
448,192,3806,128,0,4458:0:0:0:0:
64,192,4023,1,0,0:0:0:0:
192,192,4241,1,0,0:0:0:0:
320,192,4458,128,0,5545:0:0:0:0:
192,192,4893,128,0,5110:0:0:0:0:
448,192,5110,128,0,5328:0:0:0:0:
64,192,5328,128,0,5545:0:0:0:0:
448,192,5545,128,0,6415:0:0:0:0:
192,192,5762,1,0,0:0:0:0:
320,192,5980,1,0,0:0:0:0:
192,192,6415,1,0,0:0:0:0:
320,192,6415,128,0,6632:0:0:0:0:
64,192,6632,128,0,6849:0:0:0:0:
192,192,6849,128,0,7067:0:0:0:0:
320,192,7067,128,0,7284:0:0:0:0:
448,192,7284,1,0,0:0:0:0:
192,192,7502,1,0,0:0:0:0:
320,192,7719,1,0,0:0:0:0:
192,192,7936,128,0,8371:0:0:0:0:
448,192,7936,1,0,0:0:0:0:
64,192,8371,1,0,0:0:0:0:
448,192,8371,128,0,8589:0:0:0:0:
192,192,8589,128,0,8806:0:0:0:0:
320,192,8806,128,0,9023:0:0:0:0:
64,192,9023,128,0,9893:0:0:0:0:
448,192,9023,1,0,0:0:0:0:
192,192,9241,1,0,0:0:0:0:
448,192,9458,1,0,0:0:0:0:
320,192,9676,1,0,0:0:0:0:
192,192,9893,128,0,10110:0:0:0:0:
448,192,10110,128,0,10328:0:0:0:0:
320,192,10328,128,0,10545:0:0:0:0:
192,192,10545,128,0,10762:0:0:0:0:
64,192,10762,128,0,11632:0:0:0:0:
448,192,10762,1,0,0:0:0:0:
192,192,10980,1,0,0:0:0:0:
320,192,11197,1,0,0:0:0:0:
192,192,11415,1,0,0:0:0:0:
320,192,11632,128,0,11849:0:0:0:0:
448,192,11849,128,0,12067:0:0:0:0:
64,192,12067,128,0,12284:0:0:0:0:
192,192,12284,128,0,12502:0:0:0:0:
320,192,12502,128,0,13371:0:0:0:0:
448,192,12502,1,0,0:0:0:0:
64,192,12936,1,0,0:0:0:0:
192,192,13154,128,0,13371:0:0:0:0:
448,192,13371,128,0,14241:0:0:0:0:
320,192,13806,1,0,0:0:0:0:
192,192,14023,1,0,0:0:0:0:
64,192,14241,128,0,17719:0:0:0:0:
192,192,14458,1,0,0:0:0:0:
448,192,14676,1,0,0:0:0:0:
192,192,14893,1,0,0:0:0:0:
448,192,15328,1,0,0:0:0:0:
320,192,15545,1,0,0:0:0:0:
192,192,15762,1,0,0:0:0:0:
448,192,15980,128,0,17719:0:0:0:0:
64,192,18154,1,2,0:0:0:0:
192,192,18154,1,4,0:0:0:0:
448,192,18154,1,0,0:0:0:0:
320,192,18371,1,0,0:0:0:0:
64,192,18589,1,8,0:0:0:0:
448,192,18589,1,0,0:0:0:0:
192,192,18806,1,0,0:0:0:0:
64,192,19023,1,2,0:0:0:0:
320,192,19023,1,0,0:0:0:0:
192,192,19241,1,0,0:0:0:0:
320,192,19458,1,8,0:0:0:0:
448,192,19458,1,0,0:0:0:0:
64,192,19676,1,0,0:0:0:0:
192,192,19893,1,2,0:0:0:0:
320,192,19893,1,0,0:0:0:0:
448,192,20110,1,0,0:0:0:0:
64,192,20328,1,8,0:0:0:0:
192,192,20328,1,0,0:0:0:0:
320,192,20545,1,0,0:0:0:0:
64,192,20762,128,2,21197:0:0:0:0:
448,192,20762,1,0,0:0:0:65:cling.wav
192,192,20980,1,0,0:0:0:0:
320,192,21197,1,8,0:0:0:0:
448,192,21197,1,0,0:0:0:0:
192,192,21415,1,0,0:0:0:0:
64,192,21632,1,2,0:0:0:0:
448,192,21632,1,0,0:0:0:0:
320,192,21849,1,0,0:0:0:0:
64,192,22067,1,8,0:0:0:0:
192,192,22067,1,0,0:0:0:0:
448,192,22284,1,0,0:0:0:0:
64,192,22502,1,2,0:0:0:0:
320,192,22502,1,0,0:0:0:0:
192,192,22719,1,0,0:0:0:0:
64,192,22936,1,8,0:0:0:0:
448,192,22936,1,0,0:0:0:0:
320,192,23154,1,0,0:0:0:0:
192,192,23371,1,2,0:0:0:0:
448,192,23371,1,0,0:0:0:0:
64,192,23589,1,0,0:0:0:0:
192,192,23806,1,8,0:0:0:0:
320,192,23806,1,0,0:0:0:0:
448,192,24023,1,0,0:0:0:0:
64,192,24241,128,2,24676:0:0:0:0:
320,192,24241,1,0,0:0:0:65:cling.wav
192,192,24458,1,0,0:0:0:0:
320,192,24676,1,8,0:0:0:0:
448,192,24676,128,0,25110:0:0:0:0:
64,192,24893,1,0,0:0:0:0:
64,192,25110,1,2,0:0:0:0:
192,192,25110,1,4,0:0:0:0:
320,192,25110,1,0,0:0:0:0:
448,192,25328,1,0,0:0:0:0:
64,192,25545,1,8,0:0:0:0:
320,192,25545,1,0,0:0:0:0:
192,192,25762,1,0,0:0:0:0:
320,192,25980,1,2,0:0:0:0:
448,192,25980,1,0,0:0:0:0:
64,192,26197,1,0,0:0:0:0:
192,192,26415,1,8,0:0:0:0:
448,192,26415,1,0,0:0:0:0:
320,192,26632,1,0,0:0:0:0:
64,192,26849,1,2,0:0:0:0:
448,192,26849,1,0,0:0:0:0:
192,192,27067,1,0,0:0:0:0:
64,192,27284,1,8,0:0:0:0:
320,192,27284,1,0,0:0:0:0:
448,192,27502,1,0,0:0:0:0:
64,192,27719,1,2,0:0:0:0:
192,192,27719,1,0,0:0:0:65:cling.wav
320,192,27936,1,0,0:0:0:0:
64,192,28154,1,8,0:0:0:0:
448,192,28154,1,0,0:0:0:0:
192,192,28371,1,0,0:0:0:0:
64,192,28589,1,2,0:0:0:0:
320,192,28589,1,0,0:0:0:0:
448,192,28806,1,0,0:0:0:0:
192,192,29023,1,8,0:0:0:0:
320,192,29023,1,0,0:0:0:0:
64,192,29241,1,0,0:0:0:0:
192,192,29458,1,2,0:0:0:0:
448,192,29458,1,0,0:0:0:0:
320,192,29676,1,0,0:0:0:0:
64,192,29893,1,8,0:0:0:0:
448,192,29893,1,0,0:0:0:0:
192,192,30110,1,0,0:0:0:0:
64,192,30328,1,2,0:0:0:0:
448,192,30328,1,0,0:0:0:0:
320,192,30436,1,0,0:0:0:0:
192,192,30545,1,0,0:0:0:0:
320,192,30654,1,0,0:0:0:0:
64,192,30762,1,8,0:0:0:0:
448,192,30762,1,0,0:0:0:0:
192,192,30871,1,0,0:0:0:0:
320,192,30980,1,0,0:0:0:0:
192,192,31089,1,8,0:0:0:0:
64,192,31197,1,2,0:0:0:0:
448,192,31197,1,0,0:0:0:0:
192,192,31415,1,2,0:0:0:0:
320,192,31415,1,0,0:0:0:0:
64,192,31632,1,8,0:0:0:0:
320,192,31632,1,0,0:0:0:0:
448,192,31632,1,0,0:0:0:0:
192,192,31849,1,2,0:0:0:0:
448,192,31849,1,0,0:0:0:0:
320,192,31958,1,2,0:0:0:0:
64,192,32067,1,2,0:0:0:0:
448,192,32067,128,4,32719:0:0:0:0:
64,192,32719,128,0,32936:0:0:0:0:
320,192,32719,1,0,0:0:0:0:
192,192,32936,128,0,33262:0:0:0:0:
320,192,33262,128,0,33589:0:0:0:0:
64,192,33589,128,0,33806:0:0:0:0:
192,192,33806,1,0,0:0:0:0:
448,192,33806,128,0,34458:0:0:0:0:
64,192,34458,1,0,0:0:0:0:
320,192,34676,128,0,35002:0:0:0:0:
448,192,34893,1,0,0:0:0:0:
192,192,35002,128,0,35328:0:0:0:0:
64,192,35110,1,0,0:0:0:0:
320,192,35328,128,0,35545:0:0:0:0:
64,192,35545,1,0,0:0:0:0:
448,192,35545,128,0,37719:0:0:0:0:
192,192,36197,128,0,36632:0:0:0:0:
64,192,36632,1,0,0:0:0:0:
320,192,36849,128,0,37284:0:0:0:0:
64,192,37284,1,0,0:0:0:0:
192,192,37284,1,0,0:0:0:0:
64,192,37719,1,0,0:0:0:0:
192,192,37936,128,0,38154:0:0:0:0:
320,192,37936,1,0,0:0:0:0:
64,192,38154,128,0,38589:0:0:0:0:
320,192,38371,1,0,0:0:0:0:
192,192,38589,128,0,39023:0:0:0:0:
64,192,39023,1,0,0:0:0:0:
448,192,39023,128,0,39893:0:0:0:0:
320,192,39241,1,0,0:0:0:0:
192,192,39458,1,0,0:0:0:0:
64,192,39676,1,0,0:0:0:0:
320,192,39893,128,0,40219:0:0:0:0:
192,192,40110,1,0,0:0:0:0:
64,192,40219,128,0,40545:0:0:0:0:
448,192,40328,1,0,0:0:0:0:
320,192,40545,128,0,40762:0:0:0:0:
64,192,40762,128,0,41415:0:0:0:0:
448,192,40762,1,0,0:0:0:0:
192,192,40980,1,0,0:0:0:0:
320,192,41197,1,0,0:0:0:0:
192,192,41415,1,0,0:0:0:0:
448,192,41632,128,0,41958:0:0:0:0:
320,192,41849,1,0,0:0:0:0:
192,192,41958,128,0,42284:0:0:0:0:
320,192,42067,1,0,0:0:0:0:
64,192,42284,128,0,42502:0:0:0:0:
320,192,42502,1,0,0:0:0:0:
448,192,42502,128,0,42936:0:0:0:0:
320,192,42936,128,0,43371:0:0:0:0:
192,192,43154,1,0,0:0:0:0:
64,192,43371,128,0,43806:0:0:0:0:
448,192,43589,1,0,0:0:0:0:
192,192,43806,128,0,44241:0:0:0:0:
448,192,44241,128,0,45980:0:0:0:0:
320,192,44676,1,0,0:0:0:0:
192,192,44893,128,0,45110:0:0:0:0:
320,192,45110,128,0,45980:0:0:0:0:
64,192,45980,1,2,0:0:0:0:
192,192,45980,1,4,0:0:0:0:
192,192,46197,1,2,0:0:0:0:
64,192,46415,1,0,0:0:0:65:LR_Snare Hat.wav
448,192,46415,1,0,0:0:0:0:
320,192,46632,1,2,0:0:0:0:
320,192,47067,1,2,0:0:0:0:
64,192,47284,1,0,0:0:0:65:LR_Snare Hat.wav
192,192,47284,1,0,0:0:0:0:
448,192,47502,1,0,0:0:0:40:LR_Snare Hat.wav
320,192,47719,1,2,0:0:0:0:
320,192,47936,1,2,0:0:0:0:
64,192,48154,1,0,0:0:0:65:LR_Snare Hat.wav
448,192,48154,1,0,0:0:0:0:
192,192,48371,1,2,0:0:0:0:
320,192,48806,1,2,0:0:0:0:
192,192,49023,1,0,0:0:0:65:LR_Snare Hat.wav
448,192,49023,1,0,0:0:0:0:
64,192,49241,1,2,0:0:0:0:
64,192,49458,1,2,0:0:0:0:
320,192,49676,1,2,0:0:0:0:
192,192,49893,1,0,0:0:0:65:LR_Snare Hat.wav
448,192,49893,1,0,0:0:0:0:
64,192,50110,1,2,0:0:0:0:
64,192,50545,1,2,0:0:0:0:
320,192,50762,1,0,0:0:0:65:LR_Snare Hat.wav
448,192,50762,1,0,0:0:0:0:
192,192,50980,1,0,0:0:0:40:LR_Snare Hat.wav
320,192,51197,1,2,0:0:0:0:
320,192,51415,1,2,0:0:0:0:
64,192,51632,1,0,0:0:0:65:LR_Snare Hat.wav
448,192,51632,1,0,0:0:0:0:
192,192,51849,1,2,0:0:0:0:
320,192,52067,1,0,0:0:0:0:
64,192,52284,1,2,0:0:0:0:
320,192,52502,1,0,0:0:0:65:LR_Snare Hat.wav
448,192,52502,128,0,52936:0:0:0:0:
64,192,52719,1,2,0:0:0:0:
64,192,52936,1,2,0:0:0:0:
192,192,52936,1,4,0:0:0:0:
320,192,52936,1,0,0:0:0:0:
448,192,53154,1,0,0:0:0:0:
64,192,53371,1,8,0:0:0:0:
320,192,53371,1,0,0:0:0:0:
448,192,53371,1,0,0:0:0:0:
192,192,53589,1,0,0:0:0:0:
64,192,53806,1,2,0:0:0:0:
448,192,53806,1,0,0:0:0:0:
192,192,54023,1,0,0:0:0:0:
192,192,54241,1,8,0:0:0:0:
320,192,54241,1,0,0:0:0:0:
448,192,54241,1,0,0:0:0:0:
64,192,54458,1,0,0:0:0:0:
192,192,54676,1,2,0:0:0:0:
448,192,54676,1,0,0:0:0:0:
320,192,54893,1,0,0:0:0:0:
64,192,55110,1,8,0:0:0:0:
192,192,55110,1,0,0:0:0:0:
448,192,55110,1,0,0:0:0:0:
192,192,55328,1,0,0:0:0:0:
320,192,55545,1,2,0:0:0:0:
448,192,55545,1,0,0:0:0:0:
192,192,55762,1,0,0:0:0:0:
64,192,55980,1,8,0:0:0:0:
320,192,55980,1,0,0:0:0:0:
448,192,55980,1,0,0:0:0:0:
192,192,56197,1,2,0:0:0:0:
320,192,56197,1,0,0:0:0:0:
64,192,56415,1,2,0:0:0:0:
192,192,56415,1,4,0:0:0:0:
448,192,56415,1,0,0:0:0:0:
64,192,56741,1,2,0:0:0:0:
192,192,56741,1,0,0:0:0:0:
320,192,56849,1,8,0:0:0:0:
448,192,56849,1,0,0:0:0:0:
64,192,57067,1,2,0:0:0:0:
448,192,57067,1,0,0:0:0:0:
64,192,57284,1,2,0:0:0:0:
192,192,57284,1,4,0:0:0:0:
320,192,57284,1,0,0:0:0:0:
64,192,57610,1,2,0:0:0:0:
448,192,57610,1,0,0:0:0:0:
192,192,57719,1,8,0:0:0:0:
320,192,57719,1,0,0:0:0:0:
192,192,57936,1,2,0:0:0:0:
448,192,57936,1,0,0:0:0:0:
64,192,58154,1,8,0:0:0:0:
320,192,58154,1,0,0:0:0:0:
448,192,58154,1,0,0:0:0:0:
64,192,58480,1,2,0:0:0:0:
192,192,58480,1,0,0:0:0:0:
320,192,58806,1,2,0:0:0:0:
448,192,58806,1,0,0:0:0:0:
64,192,59023,1,2,0:0:0:0:
320,192,59023,1,0,0:0:0:0:
448,192,59023,1,0,0:0:0:0:
448,192,59893,128,0,60110:0:0:0:0:
64,192,60328,128,0,61197:0:0:0:0:
448,192,60762,128,0,61197:0:0:0:0:
64,192,61632,1,2,0:0:0:0:
192,192,61632,1,4,0:0:0:0:
448,192,61632,1,0,0:0:0:0:
320,192,61849,1,0,0:0:0:0:
64,192,62067,1,8,0:0:0:0:
192,192,62067,1,0,0:0:0:0:
320,192,62067,1,0,0:0:0:0:
448,192,62284,1,0,0:0:0:0:
64,192,62502,1,2,0:0:0:0:
448,192,62502,1,0,0:0:0:0:
192,192,62719,128,0,62936:0:0:0:0:
64,192,62936,1,8,0:0:0:0:
320,192,62936,128,0,63154:0:0:0:0:
448,192,62936,1,0,0:0:0:0:
192,192,63154,128,0,63371:0:0:0:0:
64,192,63371,1,2,0:0:0:0:
448,192,63371,1,0,0:0:0:0:
320,192,63589,1,0,0:0:0:0:
64,192,63806,1,8,0:0:0:0:
192,192,63806,1,0,0:0:0:0:
448,192,63806,1,0,0:0:0:0:
192,192,64023,1,0,0:0:0:0:
64,192,64241,1,2,0:0:0:0:
320,192,64241,1,0,0:0:0:65:cling.wav
448,192,64241,128,0,64676:0:0:0:0:
192,192,64458,1,0,0:0:0:0:
64,192,64676,1,8,0:0:0:0:
192,192,64676,128,0,64893:0:0:0:0:
320,192,64676,1,0,0:0:0:0:
320,192,64893,128,0,65110:0:0:0:0:
64,192,65110,1,2,0:0:0:0:
448,192,65110,1,0,0:0:0:0:
192,192,65328,1,0,0:0:0:0:
64,192,65545,1,8,0:0:0:0:
320,192,65545,1,0,0:0:0:0:
448,192,65545,1,0,0:0:0:0:
320,192,65762,1,0,0:0:0:0:
64,192,65980,1,2,0:0:0:0:
192,192,65980,128,0,66197:0:0:0:0:
320,192,66197,128,0,66415:0:0:0:0:
64,192,66415,1,8,0:0:0:0:
192,192,66415,1,0,0:0:0:0:
448,192,66415,128,0,66632:0:0:0:0:
192,192,66632,128,0,66849:0:0:0:0:
64,192,66849,1,2,0:0:0:0:
448,192,66849,1,0,0:0:0:0:
320,192,67067,1,0,0:0:0:0:
64,192,67284,1,8,0:0:0:0:
192,192,67284,1,0,0:0:0:0:
448,192,67284,1,0,0:0:0:0:
320,192,67502,1,0,0:0:0:0:
64,192,67719,1,2,0:0:0:0:
192,192,67719,128,0,67936:0:0:0:65:cling.wav
448,192,67719,1,0,0:0:0:0:
320,192,67936,128,0,68154:0:0:0:0:
64,192,68154,1,8,0:0:0:0:
192,192,68154,128,0,68371:0:0:0:0:
448,192,68154,1,0,0:0:0:0:
448,192,68371,128,0,68589:0:0:0:0:
64,192,68589,1,2,0:0:0:0:
192,192,68589,1,0,0:0:0:0:
320,192,68806,1,0,0:0:0:0:
64,192,69023,1,8,0:0:0:0:
192,192,69023,1,4,0:0:0:0:
448,192,69023,128,0,69458:0:0:0:0:
64,192,69458,1,2,0:0:0:0:
192,192,69458,1,4,0:0:0:0:
320,192,69458,1,0,0:0:0:0:
64,192,69676,128,0,69893:0:0:0:0:
192,192,69893,1,8,0:0:0:0:
320,192,69893,1,0,0:0:0:0:
448,192,69893,128,0,70110:0:0:0:0:
64,192,70110,128,0,70328:0:0:0:0:
192,192,70328,1,2,0:0:0:0:
320,192,70328,1,0,0:0:0:0:
448,192,70545,1,0,0:0:0:0:
64,192,70762,128,8,71197:0:0:0:0:
192,192,70762,1,4,0:0:0:0:
320,192,70762,1,0,0:0:0:0:
192,192,71197,1,2,0:0:0:0:
320,192,71197,1,4,0:0:0:0:
448,192,71197,1,0,0:0:0:0:
192,192,71415,1,0,0:0:0:0:
64,192,71632,1,8,0:0:0:0:
320,192,71632,128,0,71849:0:0:0:0:
448,192,71632,1,0,0:0:0:0:
192,192,71849,128,0,72067:0:0:0:0:
64,192,72067,1,4,0:0:0:0:
320,192,72067,1,2,0:0:0:0:
448,192,72067,1,0,0:0:0:0:
320,192,72284,1,0,0:0:0:0:
64,192,72502,1,8,0:0:0:0:
192,192,72502,1,0,0:0:0:0:
448,192,72502,1,0,0:0:0:0:
320,192,72719,1,0,0:0:0:0:
64,192,72936,1,2,0:0:0:0:
448,192,72936,128,0,73154:0:0:0:0:
320,192,73154,128,0,73371:0:0:0:0:
64,192,73371,1,8,0:0:0:0:
192,192,73371,128,0,73589:0:0:0:0:
448,192,73371,1,0,0:0:0:0:
64,192,73589,128,0,73806:0:0:0:0:
192,192,73806,1,2,0:0:0:0:
320,192,73806,1,4,0:0:0:0:
448,192,73806,1,0,0:0:0:0:
192,192,74023,1,0,0:0:0:0:
64,192,74241,1,8,0:0:0:0:
320,192,74241,1,0,0:0:0:0:
448,192,74241,1,0,0:0:0:0:
64,192,74567,1,2,0:0:0:0:
192,192,74567,1,0,0:0:0:0:
320,192,74676,1,2,0:0:0:0:
448,192,74676,1,4,0:0:0:0:
192,192,74893,1,2,0:0:0:0:
448,192,74893,1,0,0:0:0:0:
64,192,75110,1,8,0:0:0:0:
320,192,75110,1,4,0:0:0:0:
448,192,75110,1,0,0:0:0:0:
64,192,75328,1,2,0:0:0:0:
192,192,75328,1,0,0:0:0:0:
320,192,75436,1,2,0:0:0:0:
64,192,75545,1,4,0:0:0:0:
448,192,75545,1,2,0:0:0:0:
320,192,75762,1,0,0:0:0:0:
64,192,75980,1,8,0:0:0:0:
192,192,75980,1,0,0:0:0:0:
448,192,75980,1,0,0:0:0:0:
320,192,76197,1,0,0:0:0:0:
192,192,76415,1,2,0:0:0:0:
448,192,76415,128,0,76632:0:0:0:0:
192,192,76632,128,0,76849:0:0:0:0:
64,192,76849,1,8,0:0:0:0:
320,192,76849,128,0,77067:0:0:0:0:
448,192,76849,1,0,0:0:0:0:
64,192,77067,128,0,77284:0:0:0:0:
192,192,77284,1,2,0:0:0:0:
448,192,77284,1,0,0:0:0:0:
320,192,77502,1,0,0:0:0:0:
64,192,77719,1,8,0:0:0:0:
192,192,77719,1,0,0:0:0:0:
448,192,77719,1,0,0:0:0:0:
448,192,77936,1,0,0:0:0:0:
64,192,78154,128,2,78589:0:0:0:0:
192,192,78154,1,0,0:0:0:65:cling.wav
320,192,78154,1,0,0:0:0:0:
448,192,78371,1,0,0:0:0:0:
192,192,78589,1,8,0:0:0:0:
320,192,78589,128,0,78806:0:0:0:0:
448,192,78589,1,0,0:0:0:0:
448,192,78806,128,0,79023:0:0:0:0:
64,192,79023,1,2,0:0:0:0:
192,192,79023,1,0,0:0:0:0:
320,192,79241,1,0,0:0:0:0:
64,192,79458,1,8,0:0:0:0:
320,192,79458,1,0,0:0:0:0:
448,192,79458,1,0,0:0:0:0:
192,192,79676,1,0,0:0:0:0:
320,192,79893,1,2,0:0:0:0:
448,192,79893,128,0,80110:0:0:0:0:
192,192,80110,128,0,80328:0:0:0:0:
64,192,80328,1,8,0:0:0:0:
320,192,80328,128,0,80545:0:0:0:0:
448,192,80328,1,0,0:0:0:0:
64,192,80545,128,0,80762:0:0:0:0:
192,192,80762,1,2,0:0:0:0:
448,192,80762,1,0,0:0:0:0:
448,192,80980,1,0,0:0:0:0:
64,192,81197,1,8,0:0:0:0:
192,192,81197,1,0,0:0:0:0:
320,192,81197,1,0,0:0:0:0:
192,192,81415,1,0,0:0:0:0:
64,192,81632,1,2,0:0:0:0:
448,192,81632,1,0,0:0:0:0:
192,192,81849,128,0,82067:0:0:0:0:
64,192,82067,1,8,0:0:0:0:
320,192,82067,128,0,82284:0:0:0:0:
448,192,82067,1,0,0:0:0:0:
448,192,82284,128,0,82502:0:0:0:0:
64,192,82502,1,2,0:0:0:0:
320,192,82502,1,0,0:0:0:0:
192,192,82719,1,0,0:0:0:0:
64,192,82936,1,8,0:0:0:0:
320,192,82936,128,4,83371:0:0:0:0:
448,192,82936,1,0,0:0:0:0:
64,192,83371,1,2,0:0:0:0:
192,192,83371,1,4,0:0:0:0:
448,192,83371,1,0,0:0:0:0:
448,192,83589,128,0,83806:0:0:0:0:
64,192,83806,1,8,0:0:0:0:
192,192,83806,1,0,0:0:0:0:
320,192,83806,128,0,84023:0:0:0:0:
192,192,84023,128,0,84241:0:0:0:0:
64,192,84241,1,2,0:0:0:0:
448,192,84241,1,0,0:0:0:0:
320,192,84458,1,0,0:0:0:0:
64,192,84676,1,8,0:0:0:0:
192,192,84676,128,4,85110:0:0:0:0:
448,192,84676,1,0,0:0:0:0:
64,192,85110,1,2,0:0:0:0:
320,192,85110,1,4,0:0:0:0:
448,192,85110,1,0,0:0:0:0:
448,192,85328,1,0,0:0:0:0:
64,192,85545,1,8,0:0:0:0:
320,192,85545,1,0,0:0:0:0:
448,192,85545,1,0,0:0:0:0:
64,192,85762,1,0,0:0:0:0:
192,192,85980,1,2,0:0:0:0:
320,192,85980,1,4,0:0:0:0:
448,192,85980,1,0,0:0:0:0:
64,192,86197,1,2,0:0:0:0:
448,192,86197,1,0,0:0:0:0:
64,192,86415,1,8,0:0:0:0:
192,192,86415,1,0,0:0:0:0:
320,192,86415,1,0,0:0:0:0:
192,192,86632,1,2,0:0:0:0:
448,192,86632,1,0,0:0:0:0:
320,192,86741,1,2,0:0:0:0:
64,192,86849,1,2,0:0:0:0:
192,192,86849,1,4,0:0:0:0:
448,192,86849,1,0,0:0:0:0:
64,192,87067,1,2,0:0:0:0:
320,192,87067,1,0,0:0:0:0:
192,192,87284,1,8,0:0:0:0:
320,192,87284,1,0,0:0:0:0:
448,192,87284,1,0,0:0:0:0:
64,192,87502,1,2,0:0:0:0:
448,192,87502,1,0,0:0:0:0:
320,192,87610,1,2,0:0:0:0:
64,192,87719,1,2,0:0:0:0:
192,192,87719,1,4,0:0:0:0:
448,192,87719,1,0,0:0:0:0:
320,192,87936,1,0,0:0:0:0:
64,192,88154,1,0,0:0:0:50:Clap.wav
192,192,88154,1,0,0:0:0:0:
192,192,88371,1,0,0:0:0:0:
448,192,88589,1,0,0:0:0:0:
64,192,88806,1,0,0:0:0:0:
192,192,89023,1,0,0:0:0:50:Clap.wav
320,192,89023,1,0,0:0:0:0:
320,192,89241,1,0,0:0:0:0:
64,192,89458,1,0,0:0:0:0:
448,192,89676,1,0,0:0:0:0:
192,192,89893,1,0,0:0:0:50:Clap.wav
320,192,89893,1,0,0:0:0:0:
192,192,90110,1,0,0:0:0:0:
448,192,90328,128,0,90545:0:0:0:0:
192,192,90545,128,0,90762:0:0:0:0:
64,192,90762,128,2,90980:0:0:0:0:
448,192,90762,1,0,0:0:0:0:
192,192,90980,1,2,0:0:0:0:
320,192,90980,1,0,0:0:0:0:
448,192,91089,1,2,0:0:0:0:
64,192,91197,1,2,0:0:0:0:
192,192,91197,1,4,0:0:0:0:
320,192,91197,1,0,0:0:0:0:
192,192,91415,1,0,0:0:0:0:
64,192,91632,1,8,0:0:0:0:
448,192,91632,1,0,0:0:0:0:
448,192,91849,1,0,0:0:0:0:
192,192,92067,1,2,0:0:0:0:
320,192,92067,1,0,0:0:0:0:
64,192,92284,1,0,0:0:0:0:
192,192,92502,1,8,0:0:0:0:
448,192,92502,1,0,0:0:0:0:
320,192,92719,1,0,0:0:0:0:
64,192,92936,1,2,0:0:0:0:
448,192,92936,1,0,0:0:0:0:
320,192,93154,1,0,0:0:0:0:
64,192,93371,1,8,0:0:0:0:
192,192,93371,1,0,0:0:0:0:
448,192,93589,1,0,0:0:0:0:
64,192,93806,128,2,94241:0:0:0:0:
320,192,93806,1,0,0:0:0:65:cling.wav
320,192,94241,1,8,0:0:0:0:
448,192,94241,1,0,0:0:0:0:
192,192,94458,1,0,0:0:0:0:
64,192,94676,1,2,0:0:0:0:
448,192,94676,1,0,0:0:0:0:
320,192,94893,1,0,0:0:0:0:
64,192,95110,1,8,0:0:0:0:
192,192,95110,1,0,0:0:0:0:
320,192,95328,1,0,0:0:0:0:
192,192,95545,1,2,0:0:0:0:
448,192,95545,1,0,0:0:0:0:
64,192,95762,1,0,0:0:0:0:
320,192,95980,1,8,0:0:0:0:
448,192,95980,1,0,0:0:0:0:
64,192,96197,1,0,0:0:0:0:
192,192,96415,1,2,0:0:0:0:
320,192,96415,1,0,0:0:0:0:
64,192,96632,1,0,0:0:0:0:
192,192,96849,1,8,0:0:0:0:
320,192,96849,1,0,0:0:0:0:
448,192,97067,1,0,0:0:0:0:
64,192,97284,128,2,97719:0:0:0:0:
448,192,97284,1,0,0:0:0:65:cling.wav
192,192,97502,1,0,0:0:0:0:
320,192,97719,1,8,0:0:0:0:
448,192,97719,128,0,98154:0:0:0:0:
64,192,98154,1,4,0:0:0:0:
192,192,98154,1,2,0:0:0:0:
320,192,98154,1,0,0:0:0:0:
448,192,98371,1,0,0:0:0:0:
64,192,98589,1,8,0:0:0:0:
448,192,98589,1,0,0:0:0:0:
320,192,98806,1,0,0:0:0:0:
192,192,99023,1,2,0:0:0:0:
448,192,99023,1,0,0:0:0:0:
64,192,99241,1,0,0:0:0:0:
192,192,99458,1,8,0:0:0:0:
320,192,99458,1,0,0:0:0:0:
64,192,99676,1,0,0:0:0:0:
320,192,99893,1,2,0:0:0:0:
448,192,99893,1,0,0:0:0:0:
192,192,100110,1,0,0:0:0:0:
64,192,100328,1,8,0:0:0:0:
320,192,100328,1,0,0:0:0:0:
192,192,100545,1,0,0:0:0:0:
64,192,100762,1,2,0:0:0:0:
448,192,100762,1,0,0:0:0:65:cling.wav
320,192,100980,1,0,0:0:0:0:
64,192,101197,1,8,0:0:0:0:
192,192,101197,1,0,0:0:0:0:
320,192,101415,1,0,0:0:0:0:
64,192,101632,1,2,0:0:0:0:
192,192,101632,1,4,0:0:0:0:
448,192,101632,1,0,0:0:0:0:
320,192,101849,1,0,0:0:0:0:
64,192,102067,1,8,0:0:0:0:
192,192,102067,1,0,0:0:0:0:
320,192,102284,1,0,0:0:0:0:
64,192,102502,1,2,0:0:0:0:
448,192,102502,1,0,0:0:0:0:
320,192,102719,1,0,0:0:0:0:
192,192,102936,1,8,0:0:0:0:
448,192,102936,1,0,0:0:0:0:
320,192,103154,1,0,0:0:0:0:
64,192,103371,1,2,0:0:0:0:
320,192,103371,1,4,0:0:0:0:
448,192,103371,128,0,103589:0:0:0:0:
192,192,103589,128,0,103806:0:0:0:0:
320,192,103806,1,8,0:0:0:0:
448,192,103806,128,0,104023:0:0:0:0:
64,192,104023,128,0,104241:0:0:0:0:
192,192,104241,1,2,0:0:0:0:
320,192,104241,1,4,0:0:0:0:
448,192,104241,1,0,0:0:0:0:
64,192,104458,1,2,0:0:0:0:
448,192,104458,1,0,0:0:0:0:
192,192,104676,1,8,0:0:0:0:
320,192,104676,1,4,0:0:0:0:
448,192,104676,1,0,0:0:0:0:
64,192,104893,1,2,0:0:0:0:
192,192,104893,1,0,0:0:0:0:
320,192,105002,1,2,0:0:0:0:
64,192,105110,1,4,0:0:0:0:
192,192,105110,1,2,0:0:0:0:
448,192,105110,1,0,0:0:0:0:
320,192,105328,1,0,0:0:0:0:
64,192,105545,1,8,0:0:0:0:
448,192,105545,1,0,0:0:0:0:
192,192,105762,1,0,0:0:0:0:
64,192,105980,1,2,0:0:0:0:
320,192,105980,1,0,0:0:0:0:
448,192,106197,1,0,0:0:0:0:
192,192,106415,1,8,0:0:0:0:
320,192,106415,1,0,0:0:0:0:
448,192,106632,1,0,0:0:0:0:
320,192,106741,1,0,0:0:0:0:
64,192,106849,1,2,0:0:0:0:
192,192,106849,1,0,0:0:0:0:
320,192,107067,1,0,0:0:0:0:
64,192,107284,1,8,0:0:0:0:
448,192,107284,1,0,0:0:0:0:
320,192,107502,1,0,0:0:0:0:
64,192,107719,1,2,0:0:0:0:
448,192,107719,1,0,0:0:0:0:
192,192,107936,1,0,0:0:0:0:
320,192,108154,1,8,0:0:0:0:
448,192,108154,1,0,0:0:0:0:
192,192,108371,1,0,0:0:0:0:
320,192,108480,1,0,0:0:0:0:
64,192,108589,1,2,0:0:0:0:
448,192,108589,1,0,0:0:0:0:
192,192,108806,1,0,0:0:0:0:
320,192,109023,1,8,0:0:0:0:
448,192,109023,1,0,0:0:0:0:
64,192,109241,1,0,0:0:0:0:
192,192,109458,1,2,0:0:0:0:
448,192,109458,1,0,0:0:0:0:
320,192,109676,1,0,0:0:0:0:
64,192,109893,1,8,0:0:0:0:
448,192,109893,1,0,0:0:0:0:
192,192,110110,1,0,0:0:0:0:
320,192,110219,1,0,0:0:0:0:
192,192,110328,1,2,0:0:0:0:
448,192,110328,1,0,0:0:0:0:
64,192,110545,1,0,0:0:0:0:
192,192,110762,1,8,0:0:0:0:
448,192,110762,1,0,0:0:0:0:
320,192,110980,1,0,0:0:0:0:
64,192,111197,1,2,0:0:0:0:
192,192,111197,1,0,0:0:0:0:
448,192,111415,1,0,0:0:0:0:
64,192,111632,1,8,0:0:0:0:
192,192,111632,1,0,0:0:0:0:
320,192,111741,1,0,0:0:0:0:
192,192,111849,1,0,0:0:0:0:
320,192,111958,1,0,0:0:0:0:
64,192,112067,1,2,0:0:0:0:
448,192,112067,1,4,0:0:0:0:
320,192,112284,1,0,0:0:0:0:
64,192,112502,1,8,0:0:0:0:
448,192,112502,1,0,0:0:0:0:
192,192,112719,1,0,0:0:0:0:
320,192,112936,1,2,0:0:0:0:
448,192,112936,1,0,0:0:0:0:
192,192,113154,1,0,0:0:0:0:
64,192,113371,1,8,0:0:0:0:
320,192,113371,1,0,0:0:0:0:
448,192,113589,1,0,0:0:0:0:
320,192,113697,1,0,0:0:0:0:
64,192,113806,1,2,0:0:0:0:
448,192,113806,1,0,0:0:0:0:
192,192,114023,1,0,0:0:0:0:
64,192,114241,1,8,0:0:0:0:
320,192,114241,1,0,0:0:0:0:
448,192,114458,1,0,0:0:0:0:
64,192,114676,1,2,0:0:0:0:
192,192,114676,1,0,0:0:0:0:
320,192,114893,1,0,0:0:0:0:
192,192,115110,1,8,0:0:0:0:
448,192,115110,1,0,0:0:0:0:
320,192,115328,1,0,0:0:0:0:
64,192,115436,1,0,0:0:0:0:
320,192,115545,1,2,0:0:0:0:
448,192,115545,1,0,0:0:0:0:
64,192,115762,1,0,0:0:0:0:
192,192,115980,1,8,0:0:0:0:
320,192,115980,1,0,0:0:0:0:
448,192,116197,1,0,0:0:0:0:
64,192,116415,1,2,0:0:0:0:
192,192,116415,1,0,0:0:0:0:
448,192,116632,1,0,0:0:0:0:
64,192,116849,1,8,0:0:0:0:
320,192,116849,1,0,0:0:0:0:
448,192,117067,1,0,0:0:0:0:
192,192,117176,1,0,0:0:0:0:
64,192,117284,1,2,0:0:0:0:
448,192,117284,1,0,0:0:0:0:
320,192,117502,1,0,0:0:0:0:
64,192,117719,1,8,0:0:0:0:
448,192,117719,1,0,0:0:0:0:
192,192,117936,1,0,0:0:0:0:
320,192,118154,1,2,0:0:0:0:
448,192,118154,1,0,0:0:0:0:
64,192,118371,1,2,0:0:0:0:
192,192,118371,1,0,0:0:0:0:
320,192,118589,1,8,0:0:0:0:
448,192,118589,1,0,0:0:0:0:
192,192,118806,1,2,0:0:0:0:
320,192,118915,1,2,0:0:0:0:
64,192,119023,1,4,0:0:0:0:
192,192,119023,1,2,0:0:0:0:
448,192,119023,1,0,0:0:0:0:
320,192,119241,1,0,0:0:0:0:
192,192,119458,1,8,0:0:0:0:
448,192,119458,1,0,0:0:0:0:
64,192,119676,1,0,0:0:0:0:
192,192,119893,1,2,0:0:0:0:
448,192,119893,1,0,0:0:0:0:
320,192,120110,1,0,0:0:0:0:
64,192,120328,1,8,0:0:0:0:
192,192,120328,1,0,0:0:0:0:
448,192,120545,1,0,0:0:0:0:
64,192,120654,1,0,0:0:0:0:
192,192,120762,1,2,0:0:0:0:
320,192,120762,1,0,0:0:0:0:
448,192,120980,1,0,0:0:0:0:
64,192,121197,1,8,0:0:0:0:
320,192,121197,1,0,0:0:0:0:
448,192,121415,1,0,0:0:0:0:
64,192,121632,1,2,0:0:0:0:
320,192,121632,1,0,0:0:0:0:
192,192,121849,1,0,0:0:0:0:
64,192,122067,1,8,0:0:0:0:
448,192,122067,1,0,0:0:0:0:
320,192,122284,1,0,0:0:0:0:
448,192,122393,1,0,0:0:0:0:
64,192,122502,1,2,0:0:0:0:
320,192,122502,1,0,0:0:0:0:
192,192,122719,1,0,0:0:0:0:
64,192,122936,1,8,0:0:0:0:
448,192,122936,1,0,0:0:0:0:
192,192,123154,1,0,0:0:0:0:
320,192,123371,1,2,0:0:0:0:
448,192,123371,1,0,0:0:0:0:
64,192,123589,1,0,0:0:0:0:
192,192,123806,1,8,0:0:0:0:
320,192,123806,1,0,0:0:0:0:
448,192,124023,1,0,0:0:0:0:
320,192,124132,1,0,0:0:0:0:
64,192,124241,1,2,0:0:0:0:
192,192,124241,1,0,0:0:0:0:
448,192,124458,1,0,0:0:0:0:
64,192,124676,1,8,0:0:0:0:
320,192,124676,1,0,0:0:0:0:
192,192,124893,1,0,0:0:0:0:
320,192,125110,1,2,0:0:0:0:
448,192,125110,1,0,0:0:0:0:
320,192,125328,1,2,0:0:0:0:
448,192,125328,1,0,0:0:0:0:
64,192,125545,1,8,0:0:0:0:
192,192,125545,1,0,0:0:0:0:
192,192,125762,1,2,0:0:0:0:
320,192,125762,1,0,0:0:0:0:
64,192,125980,1,4,0:0:0:0:
320,192,125980,1,2,0:0:0:0:
448,192,125980,1,0,0:0:0:0:
192,192,126197,1,0,0:0:0:0:
64,192,126415,1,8,0:0:0:0:
448,192,126415,1,0,0:0:0:0:
320,192,126632,1,0,0:0:0:0:
64,192,126849,1,2,0:0:0:0:
192,192,126849,1,0,0:0:0:0:
320,192,127067,1,0,0:0:0:0:
64,192,127284,1,8,0:0:0:0:
448,192,127284,1,0,0:0:0:0:
320,192,127502,1,0,0:0:0:0:
192,192,127719,1,2,0:0:0:0:
448,192,127719,1,0,0:0:0:0:
320,192,127936,1,0,0:0:0:0:
64,192,128154,1,8,0:0:0:0:
448,192,128154,1,0,0:0:0:0:
192,192,128371,1,0,0:0:0:0:
320,192,128589,1,2,0:0:0:0:
448,192,128589,1,0,0:0:0:65:cling.wav
192,192,128806,1,0,0:0:0:0:
64,192,129023,1,8,0:0:0:0:
320,192,129023,1,0,0:0:0:0:
448,192,129241,1,2,0:0:0:0:
64,192,129458,1,2,0:0:0:0:
320,192,129458,1,4,0:0:0:0:
448,192,129676,1,0,0:0:0:0:
64,192,129784,1,2,0:0:0:0:
192,192,129784,1,0,0:0:0:0:
320,192,129893,1,8,0:0:0:0:
448,192,129893,1,0,0:0:0:0:
192,192,130110,1,2,0:0:0:0:
320,192,130110,1,0,0:0:0:0:
64,192,130328,1,2,0:0:0:0:
192,192,130328,1,4,0:0:0:0:
320,192,130654,1,2,0:0:0:0:
448,192,130654,1,0,0:0:0:0:
64,192,130762,1,8,0:0:0:0:
192,192,130762,1,0,0:0:0:0:
192,192,130980,1,2,0:0:0:0:
320,192,130980,1,0,0:0:0:0:
64,192,131197,1,2,0:0:0:0:
448,192,131197,1,0,0:0:0:0:
64,192,131523,1,2,0:0:0:0:
192,192,131523,1,0,0:0:0:0:
320,192,131632,1,8,0:0:0:0:
448,192,131632,1,0,0:0:0:0:
192,192,131849,1,2,0:0:0:0:
320,192,131849,1,0,0:0:0:0:
64,192,132067,1,2,0:0:0:0:
192,192,132067,1,0,0:0:0:0:
448,192,132502,1,0,0:0:0:65:Clap.wav
320,192,132719,1,0,0:0:0:0:
64,192,132936,1,2,0:0:0:0:
192,192,132936,1,4,0:0:0:0:
320,192,132936,1,0,0:0:0:0:
448,192,133154,1,0,0:0:0:0:
64,192,133371,1,8,0:0:0:0:
320,192,133371,1,0,0:0:0:0:
448,192,133371,1,0,0:0:0:0:
192,192,133589,1,0,0:0:0:0:
64,192,133806,1,2,0:0:0:0:
320,192,133806,1,0,0:0:0:0:
448,192,134023,128,0,134241:0:0:0:0:
64,192,134241,1,8,0:0:0:0:
192,192,134241,128,0,134458:0:0:0:0:
320,192,134241,1,0,0:0:0:0:
448,192,134458,128,0,134676:0:0:0:0:
64,192,134676,1,2,0:0:0:0:
192,192,134676,1,0,0:0:0:0:
448,192,134893,1,0,0:0:0:0:
64,192,135110,1,8,0:0:0:0:
192,192,135110,1,0,0:0:0:0:
320,192,135110,1,0,0:0:0:0:
448,192,135328,1,0,0:0:0:0:
64,192,135545,128,2,135980:0:0:0:0:
192,192,135545,1,0,0:0:0:65:cling.wav
320,192,135545,1,0,0:0:0:0:
448,192,135762,1,0,0:0:0:0:
192,192,135980,128,8,136197:0:0:0:0:
320,192,135980,1,0,0:0:0:0:
448,192,135980,1,0,0:0:0:0:
320,192,136197,128,0,136415:0:0:0:0:
64,192,136415,1,2,0:0:0:0:
448,192,136415,1,0,0:0:0:0:
192,192,136632,1,0,0:0:0:0:
64,192,136849,1,8,0:0:0:0:
320,192,136849,1,0,0:0:0:0:
448,192,136849,1,0,0:0:0:0:
320,192,137067,1,0,0:0:0:0:
64,192,137284,128,2,137502:0:0:0:0:
448,192,137284,1,0,0:0:0:0:
192,192,137502,128,0,137719:0:0:0:0:
64,192,137719,1,8,0:0:0:0:
320,192,137719,1,0,0:0:0:0:
448,192,137719,128,0,137936:0:0:0:0:
320,192,137936,128,0,138154:0:0:0:0:
64,192,138154,1,2,0:0:0:0:
192,192,138154,1,0,0:0:0:0:
448,192,138371,1,0,0:0:0:0:
64,192,138589,1,8,0:0:0:0:
320,192,138589,1,0,0:0:0:0:
448,192,138589,1,0,0:0:0:0:
192,192,138806,1,0,0:0:0:0:
64,192,139023,1,2,0:0:0:0:
320,192,139023,1,0,0:0:0:65:cling.wav
448,192,139023,128,0,139241:0:0:0:0:
192,192,139241,128,0,139458:0:0:0:0:
64,192,139458,1,8,0:0:0:0:
320,192,139458,128,0,139676:0:0:0:0:
448,192,139458,1,0,0:0:0:0:
448,192,139676,128,0,139893:0:0:0:0:
64,192,139893,1,2,0:0:0:0:
320,192,139893,1,0,0:0:0:0:
448,192,140110,1,0,0:0:0:0:
64,192,140328,128,8,140762:0:0:0:0:
192,192,140328,1,4,0:0:0:0:
320,192,140328,1,0,0:0:0:0:
192,192,140762,1,2,0:0:0:0:
320,192,140762,1,4,0:0:0:0:
448,192,140762,1,0,0:0:0:0:
320,192,140980,128,0,141197:0:0:0:0:
64,192,141197,1,8,0:0:0:0:
192,192,141197,128,0,141415:0:0:0:0:
448,192,141197,1,0,0:0:0:0:
64,192,141415,128,0,141632:0:0:0:0:
448,192,141415,1,0,0:0:0:0:
192,192,141632,1,2,0:0:0:0:
320,192,141632,1,0,0:0:0:0:
64,192,141849,1,0,0:0:0:0:
192,192,142067,1,8,0:0:0:0:
320,192,142067,1,4,0:0:0:0:
448,192,142067,128,0,142502:0:0:0:0:
64,192,142502,1,2,0:0:0:0:
192,192,142502,1,4,0:0:0:0:
320,192,142502,1,0,0:0:0:0:
320,192,142719,128,0,142936:0:0:0:0:
64,192,142936,1,8,0:0:0:0:
192,192,142936,1,0,0:0:0:0:
448,192,142936,128,0,143154:0:0:0:0:
64,192,143154,128,0,143371:0:0:0:0:
192,192,143371,1,2,0:0:0:0:
320,192,143371,1,4,0:0:0:0:
448,192,143371,1,0,0:0:0:0:
64,192,143589,1,0,0:0:0:0:
192,192,143806,1,8,0:0:0:0:
320,192,143806,1,0,0:0:0:0:
448,192,143806,1,0,0:0:0:0:
192,192,144023,1,0,0:0:0:0:
64,192,144241,1,2,0:0:0:0:
320,192,144241,128,0,144458:0:0:0:0:
448,192,144458,128,0,144676:0:0:0:0:
64,192,144676,1,8,0:0:0:0:
192,192,144676,128,0,144893:0:0:0:0:
320,192,144676,1,0,0:0:0:0:
320,192,144893,128,0,145110:0:0:0:0:
64,192,145110,1,2,0:0:0:0:
192,192,145110,1,4,0:0:0:0:
448,192,145110,1,0,0:0:0:0:
320,192,145328,1,0,0:0:0:0:
64,192,145545,1,8,0:0:0:0:
320,192,145545,1,0,0:0:0:0:
448,192,145545,1,0,0:0:0:0:
192,192,145762,1,0,0:0:0:0:
320,192,145871,1,2,0:0:0:0:
448,192,145871,1,0,0:0:0:0:
64,192,145980,1,2,0:0:0:0:
192,192,145980,1,4,0:0:0:0:
64,192,146197,1,2,0:0:0:0:
192,192,146197,1,0,0:0:0:0:
192,192,146415,1,8,0:0:0:0:
320,192,146415,1,4,0:0:0:0:
448,192,146415,1,0,0:0:0:0:
320,192,146632,1,2,0:0:0:0:
448,192,146632,1,0,0:0:0:0:
192,192,146741,1,2,0:0:0:0:
64,192,146849,1,4,0:0:0:0:
448,192,146849,1,2,0:0:0:0:
320,192,147067,1,0,0:0:0:0:
64,192,147284,1,8,0:0:0:0:
192,192,147284,1,0,0:0:0:0:
448,192,147284,1,0,0:0:0:0:
320,192,147502,1,0,0:0:0:0:
64,192,147719,1,2,0:0:0:0:
448,192,147719,128,0,147936:0:0:0:0:
64,192,147936,128,0,148154:0:0:0:0:
192,192,148154,128,8,148371:0:0:0:0:
320,192,148154,1,0,0:0:0:0:
448,192,148154,1,0,0:0:0:0:
320,192,148371,128,0,148589:0:0:0:0:
64,192,148589,1,2,0:0:0:0:
448,192,148589,1,0,0:0:0:0:
192,192,148806,1,0,0:0:0:0:
64,192,149023,1,8,0:0:0:0:
320,192,149023,1,0,0:0:0:0:
448,192,149023,1,0,0:0:0:0:
192,192,149241,1,0,0:0:0:0:
192,192,149458,1,2,0:0:0:0:
320,192,149458,128,0,149893:0:0:0:65:cling.wav
448,192,149458,1,0,0:0:0:0:
64,192,149676,1,0,0:0:0:0:
64,192,149893,1,8,0:0:0:0:
192,192,149893,128,0,150110:0:0:0:0:
448,192,149893,1,0,0:0:0:0:
448,192,150110,128,0,150328:0:0:0:0:
64,192,150328,1,2,0:0:0:0:
192,192,150328,128,0,150545:0:0:0:0:
320,192,150545,1,0,0:0:0:0:
64,192,150762,1,8,0:0:0:0:
192,192,150762,1,0,0:0:0:0:
448,192,150762,1,0,0:0:0:0:
320,192,150980,1,0,0:0:0:0:
64,192,151197,128,2,151415:0:0:0:0:
448,192,151197,1,0,0:0:0:0:
192,192,151415,128,0,151632:0:0:0:0:
64,192,151632,1,8,0:0:0:0:
320,192,151632,1,0,0:0:0:0:
448,192,151632,128,0,151849:0:0:0:0:
320,192,151849,128,0,152067:0:0:0:0:
64,192,152067,1,2,0:0:0:0:
192,192,152067,1,0,0:0:0:0:
448,192,152284,1,0,0:0:0:0:
64,192,152502,1,8,0:0:0:0:
192,192,152502,1,0,0:0:0:0:
320,192,152502,1,0,0:0:0:0:
320,192,152719,1,0,0:0:0:0:
64,192,152936,1,2,0:0:0:0:
192,192,152936,1,0,0:0:0:65:cling.wav
448,192,152936,1,0,0:0:0:0:
320,192,153154,128,0,153371:0:0:0:0:
64,192,153371,128,8,153589:0:0:0:0:
192,192,153371,1,0,0:0:0:0:
448,192,153371,1,0,0:0:0:0:
448,192,153589,128,0,153806:0:0:0:0:
192,192,153806,1,2,0:0:0:0:
320,192,153806,1,0,0:0:0:0:
64,192,154023,1,0,0:0:0:0:
192,192,154241,128,8,154676:0:0:0:0:
320,192,154241,1,4,0:0:0:0:
448,192,154241,1,0,0:0:0:0:
64,192,154676,1,2,0:0:0:0:
320,192,154676,1,4,0:0:0:0:
448,192,154676,1,0,0:0:0:0:
320,192,154893,128,0,155110:0:0:0:0:
64,192,155110,1,8,0:0:0:0:
192,192,155110,1,0,0:0:0:0:
448,192,155110,128,0,155328:0:0:0:0:
64,192,155328,128,0,155545:0:0:0:0:
192,192,155545,1,2,0:0:0:0:
320,192,155545,1,0,0:0:0:0:
448,192,155762,1,0,0:0:0:0:
64,192,155980,1,8,0:0:0:0:
192,192,155980,1,4,0:0:0:0:
320,192,155980,128,0,156415:0:0:0:0:
64,192,156415,1,2,0:0:0:0:
192,192,156415,1,4,0:0:0:0:
448,192,156415,1,0,0:0:0:0:
192,192,156632,1,0,0:0:0:0:
64,192,156849,1,8,0:0:0:0:
320,192,156849,1,0,0:0:0:0:
448,192,156849,128,0,157067:0:0:0:0:
320,192,157067,128,0,157284:0:0:0:0:
64,192,157284,1,2,0:0:0:0:
192,192,157284,1,4,0:0:0:0:
192,192,157502,1,2,0:0:0:0:
320,192,157502,1,0,0:0:0:0:
64,192,157719,1,8,0:0:0:0:
448,192,157719,1,0,0:0:0:0:
192,192,157936,1,2,0:0:0:0:
320,192,157936,1,0,0:0:0:0:
448,192,158045,1,2,0:0:0:0:
64,192,158154,1,2,0:0:0:0:
192,192,158154,1,4,0:0:0:0:
320,192,158154,1,0,0:0:0:0:
64,192,158371,1,2,0:0:0:0:
448,192,158371,1,0,0:0:0:0:
192,192,158589,1,8,0:0:0:0:
320,192,158589,1,0,0:0:0:0:
64,192,158806,1,2,0:0:0:0:
448,192,158806,1,0,0:0:0:0:
320,192,158915,1,2,0:0:0:0:
64,192,159023,1,2,0:0:0:0:
192,192,159023,1,4,0:0:0:0:
448,192,159023,1,0,0:0:0:0:
320,192,159241,1,0,0:0:0:0:
192,192,159458,1,0,0:0:0:50:Clap.wav
448,192,159458,1,0,0:0:0:0:
64,192,159676,1,0,0:0:0:0:
448,192,159893,1,0,0:0:0:65:LR_Snare Hat.wav
320,192,160110,1,0,0:0:0:0:
64,192,160328,1,0,0:0:0:50:Clap.wav
448,192,160328,1,0,0:0:0:0:
192,192,160545,1,0,0:0:0:0:
64,192,160762,1,0,0:0:0:65:LR_Snare Hat.wav
320,192,160980,1,0,0:0:0:0:
192,192,161197,1,0,0:0:0:50:Clap.wav
448,192,161197,1,0,0:0:0:0:
320,192,161415,1,0,0:0:0:0:
64,192,161632,1,0,0:0:0:40:LR_Snare Hat.wav
448,192,161741,1,0,0:0:0:65:LR_Snare Hat.wav
320,192,161849,1,0,0:0:0:40:LR_Snare Hat.wav
64,192,162067,1,0,0:0:0:50:Clap.wav
448,192,162067,1,0,0:0:0:0:
192,192,162284,1,0,0:0:0:0:
64,192,162502,1,4,0:0:0:0:
320,192,162502,1,0,0:0:0:65:LR_Snare Hat.wav
192,192,162719,1,0,0:0:0:0:
64,192,162936,1,0,0:0:0:50:Clap.wav
448,192,162936,1,0,0:0:0:0:
320,192,163154,1,0,0:0:0:0:
448,192,163262,1,0,0:0:0:65:LR_Snare Hat.wav
64,192,163371,1,0,0:0:0:40:LR_Snare Hat.wav
320,192,163589,1,0,0:0:0:0:
64,192,163806,1,0,0:0:0:50:Clap.wav
448,192,163806,1,0,0:0:0:0:
320,192,164023,1,0,0:0:0:0:
448,192,164132,1,0,0:0:0:0:
64,192,164241,1,0,0:0:0:65:LR_Snare Hat.wav
192,192,164349,1,2,0:0:0:0:
320,192,164349,1,0,0:0:0:0:
64,192,164458,1,2,0:0:0:0:
448,192,164458,1,4,0:0:0:0:
192,192,164676,1,4,0:0:0:0:
320,192,164676,1,2,0:0:0:0:
320,192,164893,1,2,0:0:0:0:
448,192,164893,1,0,0:0:0:0:
64,192,165002,1,2,0:0:0:0:
192,192,165002,1,0,0:0:0:0:
320,192,165219,1,2,0:0:0:0:
448,192,165219,1,0,0:0:0:0:
64,192,165328,1,2,0:0:0:0:
192,192,165328,1,0,0:0:0:0:
320,192,165436,1,2,0:0:0:0:
448,192,165436,1,0,0:0:0:0:
192,192,165545,1,2,0:0:0:0:
320,192,165654,1,2,0:0:0:0:
64,192,165762,1,2,0:0:0:0:
192,192,165871,1,2,0:0:0:0:
320,192,165980,1,4,0:0:0:0:
448,192,165980,128,2,168371:0:0:0:0:
192,192,166197,1,0,0:0:0:0:
64,192,166415,1,8,0:0:0:0:
320,192,166415,1,0,0:0:0:0:
320,192,166632,1,0,0:0:0:0:
64,192,166849,1,2,0:0:0:0:
192,192,166849,1,0,0:0:0:0:
192,192,167067,1,0,0:0:0:0:
64,192,167284,1,8,0:0:0:0:
320,192,167284,1,0,0:0:0:0:
64,192,167502,1,0,0:0:0:0:
192,192,167719,1,2,0:0:0:0:
320,192,167719,1,0,0:0:0:0:
192,192,167936,1,0,0:0:0:0:
64,192,168154,1,8,0:0:0:0:
320,192,168154,1,0,0:0:0:0:
192,192,168371,128,0,168589:0:0:0:0:
320,192,168589,128,2,169023:0:0:0:0:
448,192,168589,1,0,0:0:0:65:cling.wav
64,192,168806,1,0,0:0:0:0:
192,192,169023,1,8,0:0:0:0:
448,192,169023,128,0,169241:0:0:0:0:
64,192,169241,128,0,169458:0:0:0:0:
192,192,169458,128,2,170328:0:0:0:0:
320,192,169458,1,0,0:0:0:0:
448,192,169676,1,0,0:0:0:0:
64,192,169893,1,8,0:0:0:0:
320,192,169893,1,0,0:0:0:0:
64,192,170110,1,0,0:0:0:0:
320,192,170328,128,2,170545:0:0:0:0:
448,192,170328,1,0,0:0:0:0:
448,192,170545,128,0,170762:0:0:0:0:
64,192,170762,1,8,0:0:0:0:
320,192,170762,128,0,170980:0:0:0:0:
192,192,170980,128,0,171197:0:0:0:0:
64,192,171197,128,2,171632:0:0:0:0:
448,192,171197,1,0,0:0:0:0:
192,192,171415,1,0,0:0:0:0:
320,192,171632,128,8,172067:0:0:0:0:
448,192,171632,1,0,0:0:0:0:
192,192,171849,1,0,0:0:0:0:
64,192,172067,1,2,0:0:0:0:
448,192,172067,128,0,172502:0:0:0:65:cling.wav
320,192,172284,1,0,0:0:0:0:
64,192,172502,1,8,0:0:0:0:
192,192,172502,128,0,172719:0:0:0:0:
320,192,172719,128,0,172936:0:0:0:0:
64,192,172936,128,2,173371:0:0:0:0:
448,192,172936,1,0,0:0:0:0:
320,192,173154,1,0,0:0:0:0:
192,192,173371,128,8,173806:0:0:0:0:
448,192,173371,1,4,0:0:0:0:
320,192,173589,1,0,0:0:0:0:
320,192,173806,1,2,0:0:0:0:
448,192,173806,128,4,174023:0:0:0:0:
192,192,174023,128,0,174132:0:0:0:0:
448,192,174132,128,0,174241:0:0:0:0:
64,192,174241,128,8,174458:0:0:0:0:
320,192,174241,1,0,0:0:0:0:
320,192,174458,128,0,174676:0:0:0:0:
192,192,174676,1,2,0:0:0:0:
448,192,174676,128,0,174893:0:0:0:0:
320,192,174893,128,0,175002:0:0:0:0:
448,192,175002,128,0,175110:0:0:0:0:
64,192,175110,1,8,0:0:0:0:
192,192,175110,128,4,175328:0:0:0:0:
320,192,175328,128,0,175436:0:0:0:0:
192,192,175436,128,0,175545:0:0:0:0:
64,192,175545,1,2,0:0:0:0:
448,192,175545,128,4,175980:0:0:0:0:
320,192,175762,1,0,0:0:0:0:
64,192,175980,128,8,176415:0:0:0:0:
192,192,175980,1,0,0:0:0:0:
320,192,176197,1,0,0:0:0:0:
192,192,176415,1,2,0:0:0:0:
448,192,176415,1,4,0:0:0:0:
64,192,176632,1,2,0:0:0:0:
448,192,176632,1,0,0:0:0:0:
192,192,176849,1,8,0:0:0:0:
320,192,176849,1,0,0:0:0:0:
64,192,177067,1,2,0:0:0:0:
448,192,177067,1,0,0:0:0:0:
320,192,177176,1,2,0:0:0:0:
64,192,177284,1,2,0:0:0:0:
192,192,177284,1,4,0:0:0:0:
448,192,177284,1,0,0:0:0:0:
192,192,177502,1,2,0:0:0:0:
320,192,177502,1,0,0:0:0:0:
320,192,177719,1,8,0:0:0:0:
448,192,177719,1,0,0:0:0:0:
64,192,177936,1,2,0:0:0:0:
192,192,177936,1,0,0:0:0:0:
320,192,178045,1,2,0:0:0:0:
64,192,178154,1,2,0:0:0:0:
192,192,178154,1,4,0:0:0:0:
448,192,178154,1,0,0:0:0:0:
320,192,178371,1,2,0:0:0:0:
448,192,178371,1,0,0:0:0:0:
192,192,178480,1,2,0:0:0:0:
64,192,178589,1,2,0:0:0:0:
448,192,178589,1,0,0:0:0:0:
320,192,178697,1,2,0:0:0:0:
192,192,178806,1,2,0:0:0:0:
320,192,178915,1,2,0:0:0:0:
64,192,179023,1,2,0:0:0:0:
192,192,179023,1,4,0:0:0:0:
448,192,179023,1,0,0:0:0:0:
320,192,179241,1,2,0:0:0:0:
192,192,179458,1,2,0:0:0:0:
64,192,179676,1,2,0:0:0:0:
320,192,179893,1,2,0:0:0:0:
448,192,179893,1,4,0:0:0:0:
64,192,180328,1,0,0:0:0:50:Clap.wav
320,192,180328,1,0,0:0:0:0:
192,192,180762,1,0,0:0:0:65:LR_Snare Hat.wav
64,192,181197,1,0,0:0:0:50:Clap.wav
320,192,181197,1,0,0:0:0:0:
320,192,181632,1,0,0:0:0:65:LR_Snare Hat.wav
64,192,182067,1,0,0:0:0:50:Clap.wav
448,192,182067,1,0,0:0:0:0:
192,192,182502,1,0,0:0:0:65:LR_Snare Hat.wav
448,192,182719,1,0,0:0:0:65:LR_Snare Hat.wav
320,192,182828,1,0,0:0:0:65:LR_Snare Hat.wav
64,192,182936,1,0,0:0:0:50:Clap.wav
448,192,182936,1,0,0:0:0:0:
64,192,183154,1,0,0:0:0:65:LR_Snare Hat.wav
448,192,183371,1,0,0:0:0:0:
64,192,183806,1,8,0:0:0:0:
320,192,183806,1,4,0:0:0:0:
448,192,183806,1,0,0:0:0:0:
192,192,184023,1,0,0:0:0:0:
320,192,184241,1,2,0:0:0:0:
448,192,184241,1,0,0:0:0:0:
192,192,184458,128,0,184676:0:0:0:0:
64,192,184676,1,8,0:0:0:0:
320,192,184676,1,0,0:0:0:0:
448,192,184676,128,0,184893:0:0:0:0:
192,192,184893,128,0,185110:0:0:0:0:
320,192,185110,1,2,0:0:0:0:
448,192,185110,1,0,0:0:0:0:
192,192,185328,1,0,0:0:0:0:
64,192,185545,1,8,0:0:0:0:
320,192,185545,1,0,0:0:0:0:
448,192,185545,1,0,0:0:0:0:
192,192,185762,1,0,0:0:0:0:
64,192,185980,128,2,186415:0:0:0:0:
320,192,185980,1,0,0:0:0:65:cling.wav
448,192,185980,1,0,0:0:0:0:
192,192,186197,1,0,0:0:0:0:
192,192,186415,1,8,0:0:0:0:
320,192,186415,128,0,186632:0:0:0:0:
448,192,186415,1,0,0:0:0:0:
192,192,186632,128,0,186849:0:0:0:0:
64,192,186849,1,2,0:0:0:0:
448,192,186849,1,0,0:0:0:0:
192,192,187067,1,0,0:0:0:0:
64,192,187284,1,8,0:0:0:0:
320,192,187284,1,0,0:0:0:0:
448,192,187284,1,0,0:0:0:0:
192,192,187502,1,0,0:0:0:0:
320,192,187719,1,2,0:0:0:0:
448,192,187719,128,0,187936:0:0:0:0:
64,192,187936,128,0,188154:0:0:0:0:
192,192,188154,1,8,0:0:0:0:
320,192,188154,1,0,0:0:0:0:
448,192,188154,128,0,188371:0:0:0:0:
64,192,188371,128,0,188589:0:0:0:0:
320,192,188589,1,2,0:0:0:0:
448,192,188589,1,0,0:0:0:0:
192,192,188806,1,0,0:0:0:0:
64,192,189023,1,8,0:0:0:0:
320,192,189023,1,0,0:0:0:0:
448,192,189023,1,0,0:0:0:0:
320,192,189241,1,0,0:0:0:0:
64,192,189458,128,2,189676:0:0:0:0:
192,192,189458,1,0,0:0:0:65:cling.wav
448,192,189458,1,0,0:0:0:0:
320,192,189676,128,0,189893:0:0:0:0:
64,192,189893,1,8,0:0:0:0:
192,192,189893,128,0,190110:0:0:0:0:
448,192,189893,1,0,0:0:0:0:
448,192,190110,128,0,190328:0:0:0:0:
192,192,190328,1,2,0:0:0:0:
320,192,190328,1,0,0:0:0:0:
64,192,190545,1,0,0:0:0:0:
192,192,190762,128,8,191197:0:0:0:0:
320,192,190762,1,4,0:0:0:0:
448,192,190762,1,0,0:0:0:0:
64,192,191197,1,2,0:0:0:0:
320,192,191197,1,4,0:0:0:0:
448,192,191197,1,0,0:0:0:0:
320,192,191415,128,0,191632:0:0:0:0:
64,192,191632,1,8,0:0:0:0:
192,192,191632,1,0,0:0:0:0:
448,192,191632,128,0,191849:0:0:0:0:
64,192,191849,128,0,192067:0:0:0:0:
192,192,192067,1,2,0:0:0:0:
320,192,192067,1,0,0:0:0:0:
64,192,192284,1,0,0:0:0:0:
192,192,192502,1,8,0:0:0:0:
320,192,192502,1,4,0:0:0:0:
448,192,192502,128,0,192936:0:0:0:0:
64,192,192936,1,2,0:0:0:0:
192,192,192936,1,4,0:0:0:0:
320,192,192936,1,0,0:0:0:0:
320,192,193154,128,0,193371:0:0:0:0:
64,192,193371,1,8,0:0:0:0:
192,192,193371,128,0,193589:0:0:0:0:
448,192,193371,1,0,0:0:0:0:
64,192,193589,128,0,193806:0:0:0:0:
192,192,193806,1,2,0:0:0:0:
320,192,193806,1,4,0:0:0:0:
448,192,193806,1,0,0:0:0:0:
64,192,194023,1,0,0:0:0:0:
64,192,194241,1,8,0:0:0:0:
192,192,194241,1,0,0:0:0:0:
448,192,194241,1,0,0:0:0:0:
320,192,194458,1,0,0:0:0:0:
64,192,194676,1,2,0:0:0:0:
448,192,194676,128,0,194893:0:0:0:0:
192,192,194893,128,0,195110:0:0:0:0:
64,192,195110,1,8,0:0:0:0:
320,192,195110,128,0,195328:0:0:0:0:
448,192,195110,1,0,0:0:0:0:
64,192,195328,128,0,195545:0:0:0:0:
192,192,195545,1,2,0:0:0:0:
320,192,195545,1,4,0:0:0:0:
448,192,195545,1,0,0:0:0:0:
64,192,195762,1,0,0:0:0:0:
192,192,195980,1,8,0:0:0:0:
320,192,195980,1,0,0:0:0:0:
448,192,196197,1,0,0:0:0:0:
192,192,196306,1,2,0:0:0:0:
320,192,196306,1,0,0:0:0:0:
64,192,196415,1,2,0:0:0:0:
448,192,196415,1,4,0:0:0:0:
192,192,196632,1,2,0:0:0:0:
320,192,196632,1,0,0:0:0:0:
64,192,196849,1,8,0:0:0:0:
320,192,196849,1,4,0:0:0:0:
192,192,197067,1,2,0:0:0:0:
448,192,197067,1,0,0:0:0:0:
320,192,197176,1,2,0:0:0:0:
64,192,197284,1,4,0:0:0:0:
448,192,197284,1,2,0:0:0:0:
64,192,197502,1,0,0:0:0:0:
192,192,197719,1,8,0:0:0:0:
320,192,197719,1,0,0:0:0:0:
448,192,197719,1,0,0:0:0:0:
64,192,197936,1,0,0:0:0:0:
320,192,198154,1,2,0:0:0:0:
448,192,198154,1,0,0:0:0:0:
192,192,198371,128,0,198589:0:0:0:0:
64,192,198589,1,8,0:0:0:0:
320,192,198589,128,0,198806:0:0:0:0:
448,192,198589,1,0,0:0:0:0:
64,192,198806,128,0,199023:0:0:0:0:
192,192,199023,1,2,0:0:0:0:
448,192,199023,1,0,0:0:0:0:
320,192,199241,1,0,0:0:0:0:
64,192,199458,1,8,0:0:0:0:
192,192,199458,1,0,0:0:0:0:
448,192,199458,1,0,0:0:0:0:
448,192,199676,1,0,0:0:0:0:
64,192,199893,128,2,200328:0:0:0:0:
192,192,199893,1,0,0:0:0:65:cling.wav
320,192,199893,1,0,0:0:0:0:
448,192,200110,1,0,0:0:0:0:
192,192,200328,1,8,0:0:0:0:
320,192,200328,128,0,200545:0:0:0:0:
448,192,200545,128,0,200762:0:0:0:0:
64,192,200762,1,2,0:0:0:0:
320,192,200762,1,0,0:0:0:0:
192,192,200980,1,0,0:0:0:0:
64,192,201197,1,8,0:0:0:0:
320,192,201197,1,0,0:0:0:0:
448,192,201197,1,0,0:0:0:0:
448,192,201415,1,0,0:0:0:0:
64,192,201632,128,2,201849:0:0:0:0:
192,192,201632,1,0,0:0:0:0:
448,192,201849,128,0,202067:0:0:0:0:
64,192,202067,128,8,202284:0:0:0:0:
192,192,202067,1,0,0:0:0:0:
320,192,202067,1,0,0:0:0:0:
448,192,202284,128,0,202502:0:0:0:0:
64,192,202502,1,2,0:0:0:0:
192,192,202502,1,0,0:0:0:0:
320,192,202719,1,0,0:0:0:0:
64,192,202936,1,8,0:0:0:0:
320,192,202936,1,0,0:0:0:0:
448,192,202936,1,0,0:0:0:0:
192,192,203154,1,0,0:0:0:0:
64,192,203371,128,2,203589:0:0:0:0:
320,192,203371,1,0,0:0:0:65:cling.wav
448,192,203371,1,0,0:0:0:0:
320,192,203589,128,0,203806:0:0:0:0:
64,192,203806,1,8,0:0:0:0:
192,192,203806,1,0,0:0:0:0:
448,192,203806,128,0,204023:0:0:0:0:
64,192,204023,128,0,204241:0:0:0:0:
192,192,204241,1,2,0:0:0:0:
320,192,204241,1,0,0:0:0:0:
448,192,204458,1,0,0:0:0:0:
64,192,204676,1,8,0:0:0:0:
192,192,204676,128,4,205110:0:0:0:0:
320,192,204676,1,0,0:0:0:0:
64,192,205110,1,2,0:0:0:0:
320,192,205110,1,4,0:0:0:0:
448,192,205110,1,0,0:0:0:0:
64,192,205328,128,0,205545:0:0:0:0:
192,192,205545,1,8,0:0:0:0:
320,192,205545,1,0,0:0:0:0:
448,192,205545,128,0,205762:0:0:0:0:
192,192,205762,128,0,205980:0:0:0:0:
64,192,205980,1,2,0:0:0:0:
448,192,205980,1,0,0:0:0:0:
192,192,206197,1,0,0:0:0:0:
64,192,206415,128,8,206849:0:0:0:0:
320,192,206415,1,4,0:0:0:0:
448,192,206415,1,0,0:0:0:0:
192,192,206849,1,2,0:0:0:0:
320,192,206849,1,4,0:0:0:0:
448,192,206849,1,0,0:0:0:0:
448,192,207067,1,0,0:0:0:0:
64,192,207284,1,8,0:0:0:0:
192,192,207284,1,0,0:0:0:0:
320,192,207284,1,0,0:0:0:0:
64,192,207502,1,0,0:0:0:0:
192,192,207719,1,2,0:0:0:0:
320,192,207719,1,4,0:0:0:0:
64,192,208045,1,2,0:0:0:0:
192,192,208045,1,0,0:0:0:0:
320,192,208154,1,8,0:0:0:0:
448,192,208154,1,0,0:0:0:0:
64,192,208371,1,2,0:0:0:0:
320,192,208371,1,0,0:0:0:0:
64,192,208589,1,2,0:0:0:0:
192,192,208589,1,4,0:0:0:0:
448,192,208589,1,0,0:0:0:0:
64,192,208915,1,2,0:0:0:0:
448,192,208915,1,0,0:0:0:0:
192,192,209023,1,8,0:0:0:0:
320,192,209023,1,0,0:0:0:0:
320,192,209241,1,2,0:0:0:0:
448,192,209241,1,0,0:0:0:0:
64,192,209458,128,2,216415:0:0:0:0:
192,192,209458,1,4,0:0:0:0:
448,192,209458,1,0,0:0:0:0:
448,192,209893,1,0,0:0:0:0:
448,192,215545,128,0,216415:0:0:0:0:
