osu file format v14

[General]
AudioFilename: audio.mp3
AudioLeadIn: 0
PreviewTime: 61198
Countdown: 0
SampleSet: Soft
StackLeniency: 0.7
Mode: 3
LetterboxInBreaks: 0
EpilepsyWarning: 1
SpecialStyle: 0
WidescreenStoryboard: 1

[Editor]
Bookmarks: 129459
DistanceSpacing: 0.6
BeatDivisor: 2
GridSize: 8
TimelineZoom: 2.799999

[Metadata]
Title:Iro wa Nioedo, Chirinuru o
TitleUnicode:色は匂へど 散りぬるを
Artist:senya
ArtistUnicode:senya
Creator:Envory
Version:Easy
Source:東方風神録 ~ Mountain of Faith.
Tags:-ady partyu atian540 yukari_sama ascension_h 4hri touhou fuujinroku stage 3 theme 東方project th10 幽閉サテライト Yuuhei Satellite manpuku jinja Even the Blossoming Flowers Will Eventually Scatter 神々が恋した幻想郷 Gensokyo Gods Loved zun 森永真由美 mayumi morinaga 河城 にとり iceon japanese video game maimai MURASAKI
BeatmapID:1778829
BeatmapSetID:517145

[Difficulty]
HPDrainRate:7
CircleSize:4
OverallDifficulty:6.5
ApproachRate:5
SliderMultiplier:1.4
SliderTickRate:1

[Events]
//Background and Video events
0,0,"bg.jpg",0,0
//Break Periods
//Storyboard Layer 0 (Background)
//Storyboard Layer 1 (Fail)
//Storyboard Layer 2 (Pass)
//Storyboard Layer 3 (Foreground)
Sprite,Foreground,Centre,"sb\credits\upper-m.png",146.75,445 S,0,18154,,0.35 MY,1,18154,18589,445,179.75 R,1,18154,21631,-0.0413808,-0.04630892 MX,0,18154,21631,146.75,143.75 MY,0,18589,21631,179.75,213.75 F,1,20762,21631,1,0 C,1,20762,21631,160,160,230,160,210,250
Sprite,Foreground,Centre,"sb\credits\lower-a.png",169.85,445 S,0,18167,,0.35 MY,1,18167,18602,445,179.75 R,1,18167,21631,-0.06208652,0.1362338 MX,0,18167,21631,169.85 MY,0,18602,21631,179.75,213.75 F,1,20762,21631,1,0 C,1,20762,21631,160,160,230,160,210,250
Sprite,Foreground,Centre,"sb\credits\lower-p.png",192.95,445 S,0,18180,,0.35 MY,1,18180,18615,445,179.75 R,1,18180,21631,0.1011133,0.09927095 MX,0,18180,21631,192.95,194.95 MY,0,18615,21631,179.75,213.75 F,1,20762,21631,1,0 C,1,20762,21631,160,160,230,160,210,250
Sprite,Foreground,Centre,"sb\credits\lower-s.png",216.05,445 S,0,18193,,0.35 MY,1,18193,18628,445,179.75 R,1,18193,21631,0.01332388,-0.08105581 MX,0,18193,21631,216.05,219.05 MY,0,18628,21631,179.75,213.75 F,1,20762,21631,1,0 C,1,20762,21631,160,160,230,160,210,250
Sprite,Foreground,Centre,"sb\credits\lower-e.png",239.15,445 S,0,18206,,0.35 MY,1,18206,18641,445,179.75 R,1,18206,21631,-0.03422858,0.01012677 MX,0,18206,21631,239.15,242.15 MY,0,18641,21631,179.75,213.75 F,1,20762,21631,1,0 C,1,20762,21631,160,160,230,160,210,250
Sprite,Foreground,Centre,"sb\credits\lower-t.png",262.25,445 S,0,18219,,0.35 MY,1,18219,18654,445,179.75 R,1,18219,21631,-0.02872581,0.08112115 MX,0,18219,21631,262.25,264.25 MY,0,18654,21631,179.75,213.75 F,1,20762,21631,1,0 C,1,20762,21631,160,160,230,160,210,250
Sprite,Foreground,Centre,"sb\credits\lower-b.png",308.45,445 S,0,18245,,0.35 MY,1,18245,18680,445,180.75 R,1,18245,21631,-0.07001067,-0.06107538 MX,0,18245,21631,308.45,307.45 MY,0,18680,21631,180.75,213.75 F,1,20762,21631,1,0 C,1,20762,21631,160,160,230,160,210,250
Sprite,Foreground,Centre,"sb\credits\lower-y.png",331.55,445 S,0,18258,,0.35 MY,1,18258,18693,445,180.75 R,1,18258,21631,0.05646292,-0.08280794 MX,0,18258,21631,331.55 MY,0,18693,21631,180.75,213.75 F,1,20762,21631,1,0 C,1,20762,21631,160,160,230,160,210,250
Sprite,Foreground,Centre,"sb\credits\upper-e.png",377.75,445 S,0,18284,,0.35 MY,1,18284,18719,445,180.75 R,1,18284,21631,0.1395048,-0.06774934 MX,0,18284,21631,377.75,374.75 MY,0,18719,21631,180.75,213.75 F,1,20762,21631,1,0 C,1,20762,21631,160,160,230,160,210,250
Sprite,Foreground,Centre,"sb\credits\lower-n.png",400.85,445 S,0,18297,,0.35 MY,1,18297,18732,445,180.75 R,1,18297,21631,0.00161561,-0.1154423 MX,0,18297,21631,400.85,401.85 MY,0,18732,21631,180.75,213.75 F,1,20762,21631,1,0 C,1,20762,21631,160,160,230,160,210,250
Sprite,Foreground,Centre,"sb\credits\lower-v.png",423.95,445 S,0,18310,,0.35 MY,1,18310,18745,445,180.75 R,1,18310,21631,0.04079632,-0.1289763 MX,0,18310,21631,423.95,424.95 MY,0,18745,21631,180.75,213.75 F,1,20762,21631,1,0 C,1,20762,21631,160,160,230,160,210,250
Sprite,Foreground,Centre,"sb\credits\lower-o.png",447.05,445 S,0,18323,,0.35 MY,1,18323,18758,445,180.75 R,1,18323,21631,0.02670339,-0.03915958 MX,0,18323,21631,447.05 MY,0,18758,21631,180.75,213.75 F,1,20762,21631,1,0 C,1,20762,21631,160,160,230,160,210,250
Sprite,Foreground,Centre,"sb\credits\lower-r.png",470.15,445 S,0,18336,,0.35 MY,1,18336,18771,445,181.75 R,1,18336,21631,-0.001855907,-0.03025388 MX,0,18336,21631,470.15,467.15 MY,0,18771,21631,181.75,213.75 F,1,20762,21631,1,0 C,1,20762,21631,160,160,230,160,210,250
Sprite,Foreground,Centre,"sb\credits\lower-y.png",493.25,445 S,0,18349,,0.35 MY,1,18349,18784,445,181.75 R,1,18349,21631,0.007213183,0.05997602 MX,0,18349,21631,493.25,495.25 MY,0,18784,21631,181.75,213.75 F,1,20762,21631,1,0 C,1,20762,21631,160,160,230,160,210,250
//Storyboard Layer 4 (Overlay)
//Storyboard Sound Samples
Sample,18589,0,"soft-hitclap.wav",0
Sample,19023,0,"soft-hitwhistle.wav",0
Sample,19458,0,"soft-hitclap.wav",0
Sample,19893,0,"soft-hitwhistle.wav",0
Sample,20328,0,"soft-hitclap.wav",0
Sample,20762,0,"soft-hitwhistle.wav",0
Sample,20762,0,"cling.wav",65
Sample,21197,0,"soft-hitclap.wav",0
Sample,21632,0,"soft-hitwhistle.wav",0
Sample,22067,0,"soft-hitclap.wav",0
Sample,22502,0,"soft-hitwhistle.wav",0
Sample,22936,0,"soft-hitclap.wav",0
Sample,23371,0,"soft-hitwhistle.wav",0
Sample,23806,0,"soft-hitclap.wav",0
Sample,24241,0,"cling.wav",65
Sample,24676,0,"soft-hitclap.wav",0
Sample,25110,0,"soft-hitwhistle.wav",0
Sample,25110,0,"soft-hitfinish.wav",0
Sample,25980,0,"soft-hitwhistle.wav",0
Sample,26415,0,"soft-hitclap.wav",0
Sample,26849,0,"soft-hitwhistle.wav",0
Sample,27284,0,"soft-hitclap.wav",0
Sample,27719,0,"soft-hitwhistle.wav",0
Sample,27719,0,"cling.wav",65
Sample,28154,0,"soft-hitclap.wav",0
Sample,28589,0,"soft-hitwhistle.wav",0
Sample,29023,0,"soft-hitclap.wav",0
Sample,29458,0,"soft-hitwhistle.wav",0
Sample,29893,0,"soft-hitclap.wav",0
Sample,30328,0,"soft-hitwhistle.wav",0
Sample,30762,0,"soft-hitclap.wav",0
Sample,31197,0,"soft-hitclap.wav",0
Sample,31415,0,"soft-hitwhistle.wav",0
Sample,31632,0,"soft-hitclap.wav",0
Sample,31849,0,"soft-hitwhistle.wav",0
Sample,31958,0,"soft-hitwhistle.wav",0
Sample,32067,0,"soft-hitwhistle.wav",0
Sample,32067,0,"soft-hitfinish.wav",0
Sample,45980,0,"soft-hitwhistle.wav",0
Sample,45980,0,"soft-hitfinish.wav",0
Sample,46197,0,"soft-hitwhistle.wav",0
Sample,46415,0,"soft-hitclap.wav",0
Sample,46632,0,"soft-hitwhistle.wav",0
Sample,47067,0,"soft-hitwhistle.wav",0
Sample,47284,0,"soft-hitclap.wav",0
Sample,47719,0,"soft-hitwhistle.wav",0
Sample,47936,0,"soft-hitwhistle.wav",0
Sample,48154,0,"soft-hitclap.wav",0
Sample,48371,0,"soft-hitwhistle.wav",0
Sample,48806,0,"soft-hitwhistle.wav",0
Sample,49023,0,"soft-hitclap.wav",0
Sample,49241,0,"soft-hitwhistle.wav",0
Sample,49458,0,"soft-hitwhistle.wav",0
Sample,49676,0,"soft-hitwhistle.wav",0
Sample,49893,0,"soft-hitclap.wav",0
Sample,50110,0,"soft-hitwhistle.wav",0
Sample,50545,0,"soft-hitwhistle.wav",0
Sample,50762,0,"soft-hitclap.wav",0
Sample,50980,0,"soft-hitwhistle.wav",0
Sample,51197,0,"soft-hitwhistle.wav",0
Sample,51415,0,"soft-hitwhistle.wav",0
Sample,51632,0,"soft-hitclap.wav",0
Sample,51849,0,"soft-hitwhistle.wav",0
Sample,52284,0,"soft-hitwhistle.wav",0
Sample,52502,0,"soft-hitclap.wav",0
Sample,52719,0,"soft-hitwhistle.wav",0
Sample,52936,0,"soft-hitwhistle.wav",0
Sample,52936,0,"soft-hitfinish.wav",0
Sample,53371,0,"soft-hitclap.wav",0
Sample,53806,0,"soft-hitwhistle.wav",0
Sample,54241,0,"soft-hitclap.wav",0
Sample,54676,0,"soft-hitwhistle.wav",0
Sample,55110,0,"soft-hitclap.wav",0
Sample,55545,0,"soft-hitwhistle.wav",0
Sample,55980,0,"soft-hitclap.wav",0
Sample,56197,0,"soft-hitwhistle.wav",0
Sample,56415,0,"soft-hitwhistle.wav",0
Sample,56415,0,"soft-hitfinish.wav",0
Sample,56741,0,"soft-hitwhistle.wav",0
Sample,56849,0,"soft-hitclap.wav",0
Sample,57067,0,"soft-hitwhistle.wav",0
Sample,57284,0,"soft-hitwhistle.wav",0
Sample,57284,0,"soft-hitfinish.wav",0
Sample,57610,0,"soft-hitwhistle.wav",0
Sample,57719,0,"soft-hitclap.wav",0
Sample,57936,0,"soft-hitwhistle.wav",0
Sample,58154,0,"soft-hitwhistle.wav",0
Sample,58480,0,"soft-hitwhistle.wav",0
Sample,58806,0,"soft-hitwhistle.wav",0
Sample,59023,0,"soft-hitwhistle.wav",0
Sample,61632,0,"soft-hitwhistle.wav",0
Sample,61632,0,"soft-hitfinish.wav",0
Sample,62067,0,"soft-hitclap.wav",0
Sample,62502,0,"soft-hitwhistle.wav",0
Sample,62936,0,"soft-hitclap.wav",0
Sample,63371,0,"soft-hitwhistle.wav",0
Sample,63806,0,"soft-hitclap.wav",0
Sample,64241,0,"soft-hitwhistle.wav",0
Sample,64241,0,"cling.wav",65
Sample,64676,0,"soft-hitclap.wav",0
Sample,65110,0,"soft-hitwhistle.wav",0
Sample,65545,0,"soft-hitclap.wav",0
Sample,65980,0,"soft-hitwhistle.wav",0
Sample,66415,0,"soft-hitclap.wav",0
Sample,66849,0,"soft-hitwhistle.wav",0
Sample,67284,0,"soft-hitclap.wav",0
Sample,67719,0,"cling.wav",65
Sample,68154,0,"soft-hitclap.wav",0
Sample,68589,0,"soft-hitwhistle.wav",0
Sample,69023,0,"soft-hitfinish.wav",0
Sample,69023,0,"soft-hitclap.wav",0
Sample,69458,0,"soft-hitwhistle.wav",0
Sample,69458,0,"soft-hitfinish.wav",0
Sample,69893,0,"soft-hitclap.wav",0
Sample,70328,0,"soft-hitwhistle.wav",0
Sample,70762,0,"soft-hitclap.wav",0
Sample,70762,0,"soft-hitfinish.wav",0
Sample,71197,0,"soft-hitwhistle.wav",0
Sample,71197,0,"soft-hitfinish.wav",0
Sample,71632,0,"soft-hitclap.wav",0
Sample,72067,0,"soft-hitfinish.wav",0
Sample,72067,0,"soft-hitwhistle.wav",0
Sample,72502,0,"soft-hitclap.wav",0
Sample,72936,0,"soft-hitwhistle.wav",0
Sample,73371,0,"soft-hitclap.wav",0
Sample,73806,0,"soft-hitwhistle.wav",0
Sample,73806,0,"soft-hitfinish.wav",0
Sample,74241,0,"soft-hitclap.wav",0
Sample,74567,0,"soft-hitwhistle.wav",0
Sample,74676,0,"soft-hitfinish.wav",0
Sample,74676,0,"soft-hitwhistle.wav",0
Sample,74893,0,"soft-hitwhistle.wav",0
Sample,75110,0,"soft-hitclap.wav",0
Sample,75328,0,"soft-hitwhistle.wav",0
Sample,75436,0,"soft-hitwhistle.wav",0
Sample,75545,0,"soft-hitwhistle.wav",0
Sample,75545,0,"soft-hitfinish.wav",0
Sample,75980,0,"soft-hitclap.wav",0
Sample,76415,0,"soft-hitwhistle.wav",0
Sample,76849,0,"soft-hitclap.wav",0
Sample,77284,0,"soft-hitwhistle.wav",0
Sample,77719,0,"soft-hitclap.wav",0
Sample,78154,0,"soft-hitwhistle.wav",0
Sample,78154,0,"cling.wav",65
Sample,78589,0,"soft-hitclap.wav",0
Sample,79023,0,"soft-hitwhistle.wav",0
Sample,79458,0,"soft-hitclap.wav",0
Sample,79893,0,"soft-hitwhistle.wav",0
Sample,80328,0,"soft-hitclap.wav",0
Sample,80762,0,"soft-hitwhistle.wav",0
Sample,81197,0,"soft-hitclap.wav",0
Sample,81632,0,"soft-hitwhistle.wav",0
Sample,82067,0,"soft-hitclap.wav",0
Sample,82502,0,"soft-hitwhistle.wav",0
Sample,82936,0,"soft-hitclap.wav",0
Sample,82936,0,"soft-hitfinish.wav",0
Sample,83371,0,"soft-hitwhistle.wav",0
Sample,83371,0,"soft-hitfinish.wav",0
Sample,83806,0,"soft-hitclap.wav",0
Sample,84241,0,"soft-hitwhistle.wav",0
Sample,84676,0,"soft-hitclap.wav",0
Sample,84676,0,"soft-hitfinish.wav",0
Sample,85110,0,"soft-hitfinish.wav",0
Sample,85110,0,"soft-hitwhistle.wav",0
Sample,85545,0,"soft-hitclap.wav",0
Sample,85980,0,"soft-hitwhistle.wav",0
Sample,85980,0,"soft-hitfinish.wav",0
Sample,86197,0,"soft-hitwhistle.wav",0
Sample,86415,0,"soft-hitclap.wav",0
Sample,86632,0,"soft-hitwhistle.wav",0
Sample,86741,0,"soft-hitwhistle.wav",0
Sample,86849,0,"soft-hitwhistle.wav",0
Sample,86849,0,"soft-hitfinish.wav",0
Sample,87067,0,"soft-hitwhistle.wav",0
Sample,87284,0,"soft-hitclap.wav",0
Sample,87502,0,"soft-hitwhistle.wav",0
Sample,87610,0,"soft-hitwhistle.wav",0
Sample,87719,0,"soft-hitwhistle.wav",0
Sample,87719,0,"soft-hitfinish.wav",0
Sample,90762,0,"soft-hitwhistle.wav",0
Sample,90980,0,"soft-hitwhistle.wav",0
Sample,91089,0,"soft-hitwhistle.wav",0
Sample,91197,0,"soft-hitwhistle.wav",0
Sample,91197,0,"soft-hitfinish.wav",0
Sample,91632,0,"soft-hitclap.wav",0
Sample,92067,0,"soft-hitwhistle.wav",0
Sample,92502,0,"soft-hitclap.wav",0
Sample,92936,0,"soft-hitwhistle.wav",0
Sample,93371,0,"soft-hitclap.wav",0
Sample,93806,0,"soft-hitwhistle.wav",0
Sample,93806,0,"cling.wav",65
Sample,94241,0,"soft-hitclap.wav",0
Sample,94676,0,"soft-hitwhistle.wav",0
Sample,95110,0,"soft-hitclap.wav",0
Sample,95545,0,"soft-hitwhistle.wav",0
Sample,95980,0,"soft-hitclap.wav",0
Sample,96415,0,"soft-hitwhistle.wav",0
Sample,96849,0,"soft-hitclap.wav",0
Sample,97284,0,"soft-hitwhistle.wav",0
Sample,97719,0,"soft-hitclap.wav",0
Sample,98154,0,"soft-hitwhistle.wav",0
Sample,98154,0,"soft-hitfinish.wav",0
Sample,98589,0,"soft-hitclap.wav",0
Sample,99023,0,"soft-hitwhistle.wav",0
Sample,99458,0,"soft-hitclap.wav",0
Sample,99893,0,"soft-hitwhistle.wav",0
Sample,100328,0,"soft-hitclap.wav",0
Sample,100762,0,"soft-hitwhistle.wav",0
Sample,100762,0,"cling.wav",65
Sample,101197,0,"soft-hitclap.wav",0
Sample,101632,0,"soft-hitwhistle.wav",0
Sample,101632,0,"soft-hitfinish.wav",0
Sample,102067,0,"soft-hitclap.wav",0
Sample,102502,0,"soft-hitwhistle.wav",0
Sample,102936,0,"soft-hitclap.wav",0
Sample,103371,0,"soft-hitwhistle.wav",0
Sample,103371,0,"soft-hitfinish.wav",0
Sample,103806,0,"soft-hitclap.wav",0
Sample,104241,0,"soft-hitfinish.wav",0
Sample,104241,0,"soft-hitwhistle.wav",0
Sample,104458,0,"soft-hitwhistle.wav",0
Sample,104676,0,"soft-hitfinish.wav",0
Sample,104676,0,"soft-hitclap.wav",0
Sample,104893,0,"soft-hitwhistle.wav",0
Sample,105002,0,"soft-hitwhistle.wav",0
Sample,105110,0,"soft-hitwhistle.wav",0
Sample,105110,0,"soft-hitfinish.wav",0
Sample,105545,0,"soft-hitclap.wav",0
Sample,105980,0,"soft-hitwhistle.wav",0
Sample,106415,0,"soft-hitclap.wav",0
Sample,106849,0,"soft-hitwhistle.wav",0
Sample,107284,0,"soft-hitclap.wav",0
Sample,107719,0,"soft-hitwhistle.wav",0
Sample,108154,0,"soft-hitclap.wav",0
Sample,108589,0,"soft-hitwhistle.wav",0
Sample,109023,0,"soft-hitclap.wav",0
Sample,109458,0,"soft-hitwhistle.wav",0
Sample,109893,0,"soft-hitclap.wav",0
Sample,110328,0,"soft-hitwhistle.wav",0
Sample,110762,0,"soft-hitclap.wav",0
Sample,111197,0,"soft-hitwhistle.wav",0
Sample,111632,0,"soft-hitclap.wav",0
Sample,112067,0,"soft-hitwhistle.wav",0
Sample,112067,0,"soft-hitfinish.wav",0
Sample,112502,0,"soft-hitclap.wav",0
Sample,112936,0,"soft-hitwhistle.wav",0
Sample,113371,0,"soft-hitclap.wav",0
Sample,113806,0,"soft-hitwhistle.wav",0
Sample,114241,0,"soft-hitclap.wav",0
Sample,114676,0,"soft-hitwhistle.wav",0
Sample,115110,0,"soft-hitclap.wav",0
Sample,115545,0,"soft-hitwhistle.wav",0
Sample,115980,0,"soft-hitclap.wav",0
Sample,116415,0,"soft-hitwhistle.wav",0
Sample,116849,0,"soft-hitclap.wav",0
Sample,117284,0,"soft-hitwhistle.wav",0
Sample,117719,0,"soft-hitclap.wav",0
Sample,118154,0,"soft-hitwhistle.wav",0
Sample,118371,0,"soft-hitwhistle.wav",0
Sample,118589,0,"soft-hitclap.wav",0
Sample,118806,0,"soft-hitwhistle.wav",0
Sample,118915,0,"soft-hitwhistle.wav",0
Sample,119023,0,"soft-hitwhistle.wav",0
Sample,119023,0,"soft-hitfinish.wav",0
Sample,119458,0,"soft-hitclap.wav",0
Sample,119893,0,"soft-hitwhistle.wav",0
Sample,120328,0,"soft-hitclap.wav",0
Sample,120762,0,"soft-hitwhistle.wav",0
Sample,121197,0,"soft-hitclap.wav",0
Sample,121632,0,"soft-hitwhistle.wav",0
Sample,122067,0,"soft-hitclap.wav",0
Sample,122502,0,"soft-hitwhistle.wav",0
Sample,122936,0,"soft-hitclap.wav",0
Sample,123371,0,"soft-hitwhistle.wav",0
Sample,123806,0,"soft-hitclap.wav",0
Sample,124241,0,"soft-hitwhistle.wav",0
Sample,124676,0,"soft-hitclap.wav",0
Sample,125110,0,"soft-hitwhistle.wav",0
Sample,125328,0,"soft-hitwhistle.wav",0
Sample,125545,0,"soft-hitclap.wav",0
Sample,125762,0,"soft-hitwhistle.wav",0
Sample,125980,0,"soft-hitwhistle.wav",0
Sample,125980,0,"soft-hitfinish.wav",0
Sample,126415,0,"soft-hitclap.wav",0
Sample,126849,0,"soft-hitwhistle.wav",0
Sample,127284,0,"soft-hitclap.wav",0
Sample,127719,0,"soft-hitwhistle.wav",0
Sample,128154,0,"soft-hitclap.wav",0
Sample,128589,0,"soft-hitwhistle.wav",0
Sample,128589,0,"cling.wav",65
Sample,129023,0,"soft-hitclap.wav",0
Sample,129241,0,"soft-hitwhistle.wav",0
Sample,129458,0,"soft-hitwhistle.wav",0
Sample,129458,0,"soft-hitfinish.wav",0
Sample,129784,0,"soft-hitwhistle.wav",0
Sample,129893,0,"soft-hitclap.wav",0
Sample,130110,0,"soft-hitwhistle.wav",0
Sample,130328,0,"soft-hitwhistle.wav",0
Sample,130328,0,"soft-hitfinish.wav",0
Sample,130654,0,"soft-hitwhistle.wav",0
Sample,130762,0,"soft-hitclap.wav",0
Sample,130980,0,"soft-hitwhistle.wav",0
Sample,131197,0,"soft-hitwhistle.wav",0
Sample,131523,0,"soft-hitwhistle.wav",0
Sample,131849,0,"soft-hitwhistle.wav",0
Sample,132067,0,"soft-hitwhistle.wav",0
Sample,132936,0,"soft-hitwhistle.wav",0
Sample,132936,0,"soft-hitfinish.wav",0
Sample,133371,0,"soft-hitclap.wav",0
Sample,133806,0,"soft-hitwhistle.wav",0
Sample,134241,0,"soft-hitclap.wav",0
Sample,134676,0,"soft-hitwhistle.wav",0
Sample,135110,0,"soft-hitclap.wav",0
Sample,135545,0,"soft-hitwhistle.wav",0
Sample,135545,0,"cling.wav",65
Sample,135980,0,"soft-hitclap.wav",0
Sample,136415,0,"soft-hitwhistle.wav",0
Sample,136849,0,"soft-hitclap.wav",0
Sample,137284,0,"soft-hitwhistle.wav",0
Sample,137719,0,"soft-hitclap.wav",0
Sample,138154,0,"soft-hitwhistle.wav",0
Sample,138589,0,"soft-hitclap.wav",0
Sample,139023,0,"soft-hitwhistle.wav",0
Sample,139023,0,"cling.wav",65
Sample,139458,0,"soft-hitclap.wav",0
Sample,139893,0,"soft-hitwhistle.wav",0
Sample,140328,0,"soft-hitfinish.wav",0
Sample,140328,0,"soft-hitclap.wav",0
Sample,140762,0,"soft-hitwhistle.wav",0
Sample,140762,0,"soft-hitfinish.wav",0
Sample,141197,0,"soft-hitclap.wav",0
Sample,141632,0,"soft-hitwhistle.wav",0
Sample,142067,0,"soft-hitclap.wav",0
Sample,142067,0,"soft-hitfinish.wav",0
Sample,142502,0,"soft-hitwhistle.wav",0
Sample,142502,0,"soft-hitfinish.wav",0
Sample,142936,0,"soft-hitclap.wav",0
Sample,143371,0,"soft-hitfinish.wav",0
Sample,143371,0,"soft-hitwhistle.wav",0
Sample,143806,0,"soft-hitclap.wav",0
Sample,144241,0,"soft-hitwhistle.wav",0
Sample,144676,0,"soft-hitclap.wav",0
Sample,145110,0,"soft-hitwhistle.wav",0
Sample,145110,0,"soft-hitfinish.wav",0
Sample,145545,0,"soft-hitclap.wav",0
Sample,145871,0,"soft-hitwhistle.wav",0
Sample,145980,0,"soft-hitwhistle.wav",0
Sample,146197,0,"soft-hitwhistle.wav",0
Sample,146415,0,"soft-hitclap.wav",0
Sample,146632,0,"soft-hitwhistle.wav",0
Sample,146741,0,"soft-hitwhistle.wav",0
Sample,146849,0,"soft-hitwhistle.wav",0
Sample,146849,0,"soft-hitfinish.wav",0
Sample,147284,0,"soft-hitclap.wav",0
Sample,147719,0,"soft-hitwhistle.wav",0
Sample,148154,0,"soft-hitclap.wav",0
Sample,148589,0,"soft-hitwhistle.wav",0
Sample,149023,0,"soft-hitclap.wav",0
Sample,149458,0,"soft-hitwhistle.wav",0
Sample,149458,0,"cling.wav",65
Sample,149893,0,"soft-hitclap.wav",0
Sample,150328,0,"soft-hitwhistle.wav",0
Sample,150762,0,"soft-hitclap.wav",0
Sample,151197,0,"soft-hitwhistle.wav",0
Sample,151632,0,"soft-hitclap.wav",0
Sample,152067,0,"soft-hitwhistle.wav",0
Sample,152502,0,"soft-hitclap.wav",0
Sample,152936,0,"soft-hitwhistle.wav",0
Sample,152936,0,"cling.wav",65
Sample,153371,0,"soft-hitclap.wav",0
Sample,153806,0,"soft-hitwhistle.wav",0
Sample,154241,0,"soft-hitclap.wav",0
Sample,154241,0,"soft-hitfinish.wav",0
Sample,154676,0,"soft-hitwhistle.wav",0
Sample,154676,0,"soft-hitfinish.wav",0
Sample,155110,0,"soft-hitclap.wav",0
Sample,155545,0,"soft-hitwhistle.wav",0
Sample,155980,0,"soft-hitclap.wav",0
Sample,155980,0,"soft-hitfinish.wav",0
Sample,156415,0,"soft-hitfinish.wav",0
Sample,156415,0,"soft-hitwhistle.wav",0
Sample,156849,0,"soft-hitclap.wav",0
Sample,157284,0,"soft-hitwhistle.wav",0
Sample,157284,0,"soft-hitfinish.wav",0
Sample,157502,0,"soft-hitwhistle.wav",0
Sample,157719,0,"soft-hitclap.wav",0
Sample,157936,0,"soft-hitwhistle.wav",0
Sample,158045,0,"soft-hitwhistle.wav",0
Sample,158154,0,"soft-hitwhistle.wav",0
Sample,158154,0,"soft-hitfinish.wav",0
Sample,158371,0,"soft-hitwhistle.wav",0
Sample,158589,0,"soft-hitclap.wav",0
Sample,158806,0,"soft-hitwhistle.wav",0
Sample,158915,0,"soft-hitwhistle.wav",0
Sample,159023,0,"soft-hitwhistle.wav",0
Sample,159023,0,"soft-hitfinish.wav",0
Sample,164349,0,"soft-hitwhistle.wav",0
Sample,164458,0,"soft-hitwhistle.wav",0
Sample,164676,0,"soft-hitwhistle.wav",0
Sample,164893,0,"soft-hitwhistle.wav",0
Sample,165002,0,"soft-hitwhistle.wav",0
Sample,165219,0,"soft-hitwhistle.wav",0
Sample,165328,0,"soft-hitwhistle.wav",0
Sample,165436,0,"soft-hitwhistle.wav",0
Sample,165545,0,"soft-hitwhistle.wav",0
Sample,165599,0,"soft-hitwhistle.wav",0
Sample,165654,0,"soft-hitwhistle.wav",0
Sample,165708,0,"soft-hitwhistle.wav",0
Sample,165762,0,"soft-hitwhistle.wav",0
Sample,165871,0,"soft-hitwhistle.wav",0
Sample,165980,0,"soft-hitwhistle.wav",0
Sample,165980,0,"soft-hitfinish.wav",0
Sample,166415,0,"soft-hitclap.wav",0
Sample,166849,0,"soft-hitwhistle.wav",0
Sample,167284,0,"soft-hitclap.wav",0
Sample,167719,0,"soft-hitwhistle.wav",0
Sample,168154,0,"soft-hitclap.wav",0
Sample,168589,0,"soft-hitwhistle.wav",0
Sample,168589,0,"cling.wav",65
Sample,169023,0,"soft-hitclap.wav",0
Sample,169458,0,"soft-hitwhistle.wav",0
Sample,169893,0,"soft-hitclap.wav",0
Sample,170328,0,"soft-hitwhistle.wav",0
Sample,170762,0,"soft-hitclap.wav",0
Sample,171197,0,"soft-hitwhistle.wav",0
Sample,171632,0,"soft-hitclap.wav",0
Sample,172067,0,"soft-hitwhistle.wav",0
Sample,172067,0,"cling.wav",65
Sample,172502,0,"soft-hitclap.wav",0
Sample,172936,0,"soft-hitwhistle.wav",0
Sample,173371,0,"soft-hitclap.wav",0
Sample,173371,0,"soft-hitfinish.wav",0
Sample,173806,0,"soft-hitwhistle.wav",0
Sample,173806,0,"soft-hitfinish.wav",0
Sample,174241,0,"soft-hitclap.wav",0
Sample,174676,0,"soft-hitwhistle.wav",0
Sample,175110,0,"soft-hitclap.wav",0
Sample,175110,0,"soft-hitfinish.wav",0
Sample,175545,0,"soft-hitwhistle.wav",0
Sample,175545,0,"soft-hitfinish.wav",0
Sample,175980,0,"soft-hitclap.wav",0
Sample,176415,0,"soft-hitwhistle.wav",0
Sample,176415,0,"soft-hitfinish.wav",0
Sample,176632,0,"soft-hitwhistle.wav",0
Sample,176849,0,"soft-hitclap.wav",0
Sample,177067,0,"soft-hitwhistle.wav",0
Sample,177176,0,"soft-hitwhistle.wav",0
Sample,177284,0,"soft-hitwhistle.wav",0
Sample,177284,0,"soft-hitfinish.wav",0
Sample,177502,0,"soft-hitwhistle.wav",0
Sample,177719,0,"soft-hitclap.wav",0
Sample,177936,0,"soft-hitwhistle.wav",0
Sample,178154,0,"soft-hitwhistle.wav",0
Sample,178154,0,"soft-hitfinish.wav",0
Sample,178154,0,"soft-hitwhistle.wav",0
Sample,178371,0,"soft-hitwhistle.wav",0
Sample,178589,0,"soft-hitwhistle.wav",0
Sample,178697,0,"soft-hitwhistle.wav",0
Sample,178806,0,"soft-hitwhistle.wav",0
Sample,178860,0,"soft-hitwhistle.wav",0
Sample,178915,0,"soft-hitwhistle.wav",0
Sample,178969,0,"soft-hitwhistle.wav",0
Sample,179023,0,"soft-hitwhistle.wav",0
Sample,179023,0,"soft-hitfinish.wav",0
Sample,179132,0,"soft-hitwhistle.wav",0
Sample,179241,0,"soft-hitwhistle.wav",0
Sample,179349,0,"soft-hitwhistle.wav",0
Sample,179458,0,"soft-hitwhistle.wav",0
Sample,179567,0,"soft-hitwhistle.wav",0
Sample,179676,0,"soft-hitwhistle.wav",0
Sample,179784,0,"soft-hitwhistle.wav",0
Sample,179893,0,"soft-hitwhistle.wav",0
Sample,183806,0,"soft-hitfinish.wav",0
Sample,183806,0,"soft-hitclap.wav",0
Sample,184241,0,"soft-hitwhistle.wav",0
Sample,184676,0,"soft-hitclap.wav",0
Sample,185110,0,"soft-hitwhistle.wav",0
Sample,185545,0,"soft-hitclap.wav",0
Sample,185980,0,"soft-hitwhistle.wav",0
Sample,185980,0,"cling.wav",65
Sample,186415,0,"soft-hitclap.wav",0
Sample,186849,0,"soft-hitwhistle.wav",0
Sample,187284,0,"soft-hitclap.wav",0
Sample,187719,0,"soft-hitwhistle.wav",0
Sample,188154,0,"soft-hitclap.wav",0
Sample,188589,0,"soft-hitwhistle.wav",0
Sample,189023,0,"soft-hitclap.wav",0
Sample,189458,0,"soft-hitwhistle.wav",0
Sample,189458,0,"cling.wav",65
Sample,189893,0,"soft-hitclap.wav",0
Sample,190328,0,"soft-hitwhistle.wav",0
Sample,190762,0,"soft-hitclap.wav",0
Sample,190762,0,"soft-hitfinish.wav",0
Sample,191197,0,"soft-hitfinish.wav",0
Sample,191197,0,"soft-hitwhistle.wav",0
Sample,191632,0,"soft-hitclap.wav",0
Sample,192067,0,"soft-hitwhistle.wav",0
Sample,192502,0,"soft-hitfinish.wav",0
Sample,192502,0,"soft-hitclap.wav",0
Sample,192936,0,"soft-hitfinish.wav",0
Sample,192936,0,"soft-hitwhistle.wav",0
Sample,193371,0,"soft-hitclap.wav",0
Sample,193806,0,"soft-hitfinish.wav",0
Sample,193806,0,"soft-hitwhistle.wav",0
Sample,194241,0,"soft-hitclap.wav",0
Sample,194676,0,"soft-hitwhistle.wav",0
Sample,195110,0,"soft-hitclap.wav",0
Sample,195545,0,"soft-hitfinish.wav",0
Sample,195545,0,"soft-hitwhistle.wav",0
Sample,195980,0,"soft-hitclap.wav",0
Sample,196306,0,"soft-hitwhistle.wav",0
Sample,196415,0,"soft-hitwhistle.wav",0
Sample,196632,0,"soft-hitwhistle.wav",0
Sample,196849,0,"soft-hitclap.wav",0
Sample,197067,0,"soft-hitwhistle.wav",0
Sample,197176,0,"soft-hitwhistle.wav",0
Sample,197284,0,"soft-hitwhistle.wav",0
Sample,197284,0,"soft-hitfinish.wav",0
Sample,197719,0,"soft-hitclap.wav",0
Sample,198154,0,"soft-hitwhistle.wav",0
Sample,198589,0,"soft-hitclap.wav",0
Sample,199023,0,"soft-hitwhistle.wav",0
Sample,199458,0,"soft-hitclap.wav",0
Sample,199893,0,"soft-hitwhistle.wav",0
Sample,199893,0,"cling.wav",65
Sample,200328,0,"soft-hitclap.wav",0
Sample,200762,0,"soft-hitwhistle.wav",0
Sample,201197,0,"soft-hitclap.wav",0
Sample,201632,0,"soft-hitwhistle.wav",0
Sample,202067,0,"soft-hitclap.wav",0
Sample,202502,0,"soft-hitwhistle.wav",0
Sample,202936,0,"soft-hitclap.wav",0
Sample,203371,0,"soft-hitwhistle.wav",0
Sample,203371,0,"cling.wav",65
Sample,203806,0,"soft-hitclap.wav",0
Sample,204241,0,"soft-hitwhistle.wav",0
Sample,204676,0,"soft-hitfinish.wav",0
Sample,204676,0,"soft-hitclap.wav",0
Sample,205110,0,"soft-hitfinish.wav",0
Sample,205110,0,"soft-hitwhistle.wav",0
Sample,205545,0,"soft-hitclap.wav",0
Sample,205980,0,"soft-hitwhistle.wav",0
Sample,206415,0,"soft-hitfinish.wav",0
Sample,206415,0,"soft-hitclap.wav",0
Sample,206849,0,"soft-hitwhistle.wav",0
Sample,206849,0,"soft-hitfinish.wav",0
Sample,207284,0,"soft-hitclap.wav",0
Sample,207719,0,"soft-hitfinish.wav",0
Sample,207719,0,"soft-hitwhistle.wav",0
Sample,208045,0,"soft-hitwhistle.wav",0
Sample,208154,0,"soft-hitclap.wav",0
Sample,208371,0,"soft-hitwhistle.wav",0
Sample,208589,0,"soft-hitwhistle.wav",0
Sample,208589,0,"soft-hitfinish.wav",0
Sample,208915,0,"soft-hitwhistle.wav",0
Sample,209023,0,"soft-hitclap.wav",0
Sample,209241,0,"soft-hitwhistle.wav",0
Sample,209458,0,"soft-hitfinish.wav",0
Sample,209458,0,"soft-hitwhistle.wav",0
Sample,20762,0,"cling.wav",65
Sample,24241,0,"cling.wav",65
Sample,27719,0,"cling.wav",65
Sample,64241,0,"cling.wav",65
Sample,67719,0,"cling.wav",65
Sample,78154,0,"cling.wav",65
Sample,93806,0,"cling.wav",65
Sample,97284,0,"cling.wav",65
Sample,100762,0,"cling.wav",65
Sample,128589,0,"cling.wav",65
Sample,135545,0,"cling.wav",65
Sample,139023,0,"cling.wav",65
Sample,149458,0,"cling.wav",65
Sample,152936,0,"cling.wav",65
Sample,162502,0,"LR_Snare Hat.wav",65
Sample,168589,0,"cling.wav",65
Sample,172067,0,"cling.wav",65
Sample,185980,0,"cling.wav",65
Sample,189458,0,"cling.wav",65
Sample,199893,0,"cling.wav",65
Sample,203371,0,"cling.wav",65

[TimingPoints]
763,434.782608695652,4,2,1,65,1,0
59024,-125.0,4,2,1,65,0,0
61632,-100.0,4,2,1,65,0,1
87719,-100.0,4,2,1,65,0,0
132936,-100.0,4,2,1,65,0,1
159023,-125.0,4,2,1,65,0,0
162502,-111.111111111111,4,2,1,65,0,0
164241,-100.0,4,2,1,65,0,0
165980,-100.0,4,2,1,65,0,1
179893,-100.0,4,2,1,65,0,0
183806,-100.0,4,2,1,65,0,1
209458,-100.0,4,2,1,65,0,0

[HitObjects]
64,192,2067,128,0,3806:0:0:0:0:
448,192,2067,1,0,0:0:0:0:
192,192,3806,128,0,4458:0:0:0:0:
320,192,4458,128,0,4893:0:0:0:0:
192,192,5545,128,0,6415:0:0:0:0:
448,192,6415,128,0,6849:0:0:0:0:
320,192,6849,128,0,7284:0:0:0:0:
64,192,7284,128,0,7936:0:0:0:0:
448,192,7936,128,0,8371:0:0:0:0:
192,192,8371,128,0,8806:0:0:0:0:
320,192,8806,1,0,0:0:0:0:
64,192,9023,128,0,10110:0:0:0:0:
448,192,10110,1,0,0:0:0:0:
320,192,10328,128,0,10762:0:0:0:0:
448,192,10762,128,0,11849:0:0:0:0:
320,192,12067,1,0,0:0:0:0:
64,192,12284,1,0,0:0:0:0:
192,192,12502,128,0,13154:0:0:0:0:
320,192,13154,1,0,0:0:0:0:
448,192,13371,128,0,14241:0:0:0:0:
64,192,14241,128,0,15980:0:0:0:0:
448,192,15980,128,0,17719:0:0:0:0:
64,192,18154,1,2,0:0:0:0:
448,192,18154,1,4,0:0:0:0:
192,192,18589,1,8,0:0:0:0:
64,192,19023,1,2,0:0:0:0:
320,192,19458,1,8,0:0:0:0:
448,192,19893,1,2,0:0:0:0:
192,192,20328,1,8,0:0:0:0:
64,192,20762,1,2,0:0:0:0:
320,192,21197,1,8,0:0:0:0:
64,192,21632,1,2,0:0:0:0:
192,192,22067,1,8,0:0:0:0:
448,192,22502,1,2,0:0:0:0:
64,192,22936,1,8,0:0:0:0:
320,192,23371,1,2,0:0:0:0:
64,192,23806,1,8,0:0:0:0:
192,192,24241,1,2,0:0:0:0:
448,192,24676,1,8,0:0:0:0:
64,192,25110,1,2,0:0:0:0:
320,192,25110,1,4,0:0:0:0:
192,192,25545,1,8,0:0:0:0:
64,192,25980,1,2,0:0:0:0:
320,192,26415,1,8,0:0:0:0:
192,192,26849,1,2,0:0:0:0:
448,192,27284,1,8,0:0:0:0:
64,192,27719,1,2,0:0:0:0:
320,192,28154,1,8,0:0:0:0:
448,192,28589,1,2,0:0:0:0:
64,192,29023,1,8,0:0:0:0:
320,192,29458,1,2,0:0:0:0:
64,192,29893,1,8,0:0:0:0:
448,192,30328,128,2,30762:0:0:0:0:
64,192,30762,128,8,31197:0:0:0:0:
320,192,31197,128,2,31632:0:0:0:0:
448,192,31632,128,8,32067:0:0:0:0:
64,192,32067,1,6,0:0:0:0:
320,192,32719,1,0,0:0:0:0:
448,192,33806,1,0,0:0:0:0:
320,192,34458,1,0,0:0:0:0:
448,192,34893,1,0,0:0:0:0:
64,192,35110,1,0,0:0:0:0:
448,192,35545,1,0,0:0:0:0:
192,192,36197,1,0,0:0:0:0:
320,192,36632,1,0,0:0:0:0:
64,192,36849,1,0,0:0:0:0:
192,192,37284,1,0,0:0:0:0:
320,192,37284,1,0,0:0:0:0:
448,192,37936,1,0,0:0:0:0:
192,192,38371,1,0,0:0:0:0:
64,192,39023,128,0,39676:0:0:0:0:
448,192,39676,1,0,0:0:0:0:
320,192,40110,1,0,0:0:0:0:
448,192,40762,128,0,41415:0:0:0:0:
64,192,41415,1,0,0:0:0:0:
192,192,41849,1,0,0:0:0:0:
320,192,42502,128,0,44241:0:0:0:0:
192,192,44241,128,0,45110:0:0:0:0:
64,192,45110,128,0,45980:0:0:0:0:
448,192,45980,128,6,46197:0:0:0:0:
320,192,46197,128,2,46415:0:0:0:0:
64,192,46415,128,0,46632:0:0:0:65:LR_Snare Hat.wav
320,192,47067,128,2,47284:0:0:0:0:
64,192,47284,128,0,47502:0:0:0:65:LR_Snare Hat.wav
320,192,47502,128,0,47719:0:0:0:40:LR_Snare Hat.wav
192,192,48154,1,0,0:0:0:65:LR_Snare Hat.wav
448,192,48371,1,2,0:0:0:0:
64,192,48806,128,2,49023:0:0:0:0:
320,192,49023,128,0,49241:0:0:0:65:LR_Snare Hat.wav
64,192,49241,128,2,49458:0:0:0:0:
192,192,49893,1,0,0:0:0:65:LR_Snare Hat.wav
320,192,50110,1,2,0:0:0:0:
448,192,50545,128,2,50762:0:0:0:0:
64,192,50762,128,0,50980:0:0:0:65:LR_Snare Hat.wav
448,192,50980,128,0,51197:0:0:0:40:LR_Snare Hat.wav
64,192,51632,1,0,0:0:0:65:LR_Snare Hat.wav
320,192,51849,1,2,0:0:0:0:
192,192,52284,128,2,52502:0:0:0:0:
64,192,52502,128,0,52719:0:0:0:65:LR_Snare Hat.wav
320,192,52719,128,2,52936:0:0:0:0:
448,192,52936,1,6,0:0:0:0:
192,192,53371,1,8,0:0:0:0:
320,192,53806,1,2,0:0:0:0:
64,192,54241,1,8,0:0:0:0:
320,192,54676,1,2,0:0:0:0:
192,192,55110,1,8,0:0:0:0:
64,192,55545,128,2,55871:0:0:0:0:
448,192,55871,128,0,56197:0:0:0:0:
192,192,56197,128,2,56415:0:0:0:0:
320,192,56415,128,6,56741:0:0:0:0:
64,192,56741,128,2,57067:0:0:0:0:
192,192,57067,128,2,57284:0:0:0:0:
448,192,57284,128,6,57610:0:0:0:0:
320,192,57610,128,2,57936:0:0:0:0:
192,192,57936,128,2,58154:0:0:0:0:
64,192,58154,1,8,0:0:0:0:
320,192,58480,1,2,0:0:0:0:
448,192,58806,1,2,0:0:0:0:
192,192,59023,1,2,0:0:0:0:
448,192,59893,1,0,0:0:0:0:
64,192,60328,1,0,0:0:0:0:
320,192,60762,128,0,61197:0:0:0:0:
64,192,61197,1,0,0:0:0:0:
320,192,61415,1,0,0:0:0:0:
64,192,61632,1,2,0:0:0:0:
448,192,61632,1,4,0:0:0:0:
320,192,62067,1,8,0:0:0:0:
192,192,62502,1,2,0:0:0:0:
64,192,62936,128,8,63371:0:0:0:0:
448,192,63371,1,2,0:0:0:0:
64,192,63806,1,8,0:0:0:0:
448,192,64241,128,2,64676:0:0:0:0:
192,192,64676,128,8,65110:0:0:0:0:
64,192,65110,1,2,0:0:0:0:
320,192,65545,1,8,0:0:0:0:
448,192,65980,128,2,66415:0:0:0:0:
320,192,66415,128,8,66849:0:0:0:0:
64,192,66849,128,2,67719:0:0:0:0:
320,192,67719,128,2,68154:0:0:0:0:
448,192,68154,128,8,68589:0:0:0:0:
192,192,68589,1,2,0:0:0:0:
320,192,69023,128,12,69458:0:0:0:0:
64,192,69458,128,6,69893:0:0:0:0:
192,192,69893,128,8,70328:0:0:0:0:
448,192,70328,1,2,0:0:0:0:
320,192,70762,128,12,71197:0:0:0:0:
64,192,71197,1,6,0:0:0:0:
448,192,71632,128,8,72067:0:0:0:0:
192,192,72067,1,6,0:0:0:0:
320,192,72502,1,8,0:0:0:0:
64,192,72936,128,2,73371:0:0:0:0:
448,192,73371,128,8,73806:0:0:0:0:
192,192,73806,1,6,0:0:0:0:
320,192,74241,1,8,0:0:0:0:
64,192,74676,1,6,0:0:0:0:
192,192,74893,1,2,0:0:0:0:
448,192,75110,1,12,0:0:0:0:
192,192,75328,128,2,75545:0:0:0:0:
64,192,75545,1,6,0:0:0:0:
320,192,75980,1,8,0:0:0:0:
448,192,76415,128,2,76849:0:0:0:0:
192,192,76849,128,8,77284:0:0:0:0:
448,192,77284,1,2,0:0:0:0:
320,192,77719,1,8,0:0:0:0:
64,192,78154,1,2,0:0:0:0:
192,192,78589,128,8,79023:0:0:0:0:
448,192,79023,1,2,0:0:0:0:
320,192,79458,1,8,0:0:0:0:
64,192,79893,128,2,80328:0:0:0:0:
448,192,80328,128,8,80762:0:0:0:0:
192,192,80762,128,2,81632:0:0:0:0:
64,192,81632,1,2,0:0:0:0:
448,192,82067,128,8,82502:0:0:0:0:
320,192,82502,1,2,0:0:0:0:
64,192,82936,128,12,83371:0:0:0:0:
448,192,83371,128,6,83806:0:0:0:0:
192,192,83806,128,8,84241:0:0:0:0:
320,192,84241,1,2,0:0:0:0:
448,192,84676,128,12,85110:0:0:0:0:
64,192,85110,1,6,0:0:0:0:
192,192,85545,128,8,85980:0:0:0:0:
448,192,85980,128,6,86632:0:0:0:0:
192,192,86632,128,2,86849:0:0:0:0:
64,192,86849,128,6,87502:0:0:0:0:
320,192,87502,128,2,87719:0:0:0:0:
192,192,87719,1,2,0:0:0:0:
448,192,87719,1,4,0:0:0:0:
320,192,88154,1,0,0:0:0:50:Clap.wav
448,192,89023,1,0,0:0:0:50:Clap.wav
64,192,89893,1,0,0:0:0:50:Clap.wav
320,192,90328,128,0,90762:0:0:0:0:
448,192,90762,128,2,91197:0:0:0:0:
192,192,91197,128,6,92936:0:0:0:0:
64,192,92936,128,2,93806:0:0:0:0:
320,192,93806,128,2,94676:0:0:0:0:
448,192,94676,128,2,95980:0:0:0:0:
64,192,95980,128,8,96415:0:0:0:0:
320,192,96415,128,2,97067:0:0:0:0:
448,192,97067,1,0,0:0:0:0:
64,192,97284,128,2,97719:0:0:0:0:
192,192,97719,128,8,98154:0:0:0:0:
320,192,98154,128,4,99023:0:0:0:0:
448,192,98154,1,2,0:0:0:0:
64,192,99023,128,2,99893:0:0:0:0:
192,192,99893,128,2,100545:0:0:0:0:
448,192,100545,1,0,0:0:0:0:
320,192,100762,1,2,0:0:0:0:
64,192,100980,128,0,101197:0:0:0:0:
448,192,101197,128,8,101632:0:0:0:0:
64,192,101632,1,2,0:0:0:0:
192,192,101632,128,4,103371:0:0:0:0:
64,192,103371,128,2,103806:0:0:0:0:
448,192,103371,1,4,0:0:0:0:
448,192,103806,128,8,104241:0:0:0:0:
192,192,104241,128,6,104676:0:0:0:0:
320,192,104676,128,12,104893:0:0:0:0:
192,192,104893,128,2,105110:0:0:0:0:
64,192,105110,1,4,0:0:0:0:
448,192,105110,128,2,106849:0:0:0:0:
192,192,105545,1,8,0:0:0:0:
64,192,105980,1,2,0:0:0:0:
192,192,106415,1,8,0:0:0:0:
320,192,106849,128,2,108589:0:0:0:0:
192,192,107284,1,8,0:0:0:0:
64,192,107719,1,2,0:0:0:0:
448,192,108154,1,8,0:0:0:0:
64,192,108589,128,2,110328:0:0:0:0:
320,192,109023,1,8,0:0:0:0:
448,192,109458,1,2,0:0:0:0:
320,192,109893,1,8,0:0:0:0:
192,192,110328,128,2,112067:0:0:0:0:
320,192,110762,1,8,0:0:0:0:
64,192,111197,1,2,0:0:0:0:
320,192,111632,1,8,0:0:0:0:
64,192,112067,1,2,0:0:0:0:
448,192,112067,128,4,113806:0:0:0:0:
192,192,112502,1,8,0:0:0:0:
320,192,112936,1,2,0:0:0:0:
192,192,113371,1,8,0:0:0:0:
64,192,113806,128,2,115545:0:0:0:0:
448,192,114241,1,8,0:0:0:0:
192,192,114676,1,2,0:0:0:0:
448,192,115110,1,8,0:0:0:0:
320,192,115545,128,2,117284:0:0:0:0:
64,192,115980,1,8,0:0:0:0:
192,192,116415,1,2,0:0:0:0:
448,192,116849,1,8,0:0:0:0:
192,192,117284,128,2,119023:0:0:0:0:
448,192,117719,1,8,0:0:0:0:
320,192,118154,128,2,119023:0:0:0:0:
64,192,119023,1,4,0:0:0:0:
448,192,119023,1,2,0:0:0:0:
320,192,119458,1,8,0:0:0:0:
192,192,119893,1,2,0:0:0:0:
320,192,120328,1,8,0:0:0:0:
64,192,120762,1,2,0:0:0:0:
320,192,121197,1,8,0:0:0:0:
448,192,121632,1,2,0:0:0:0:
192,192,122067,1,8,0:0:0:0:
64,192,122502,1,2,0:0:0:0:
320,192,122936,1,8,0:0:0:0:
448,192,123371,1,2,0:0:0:0:
320,192,123806,1,8,0:0:0:0:
192,192,124241,1,2,0:0:0:0:
448,192,124676,1,8,0:0:0:0:
64,192,125110,128,2,125545:0:0:0:0:
448,192,125545,128,8,125980:0:0:0:0:
192,192,125980,1,4,0:0:0:0:
320,192,125980,1,2,0:0:0:0:
448,192,126415,1,8,0:0:0:0:
64,192,126849,1,2,0:0:0:0:
448,192,127284,1,8,0:0:0:0:
192,192,127719,1,2,0:0:0:0:
448,192,128154,1,8,0:0:0:0:
320,192,128589,1,2,0:0:0:0:
192,192,129023,128,8,129458:0:0:0:0:
448,192,129458,1,6,0:0:0:0:
192,192,129893,1,8,0:0:0:0:
64,192,130110,1,2,0:0:0:0:
320,192,130328,1,6,0:0:0:0:
192,192,130762,1,8,0:0:0:0:
448,192,130980,1,2,0:0:0:0:
320,192,131197,1,2,0:0:0:0:
320,192,131632,1,8,0:0:0:0:
192,192,131849,1,2,0:0:0:0:
320,192,132067,1,2,0:0:0:0:
192,192,132502,1,0,0:0:0:65:Clap.wav
320,192,132719,1,0,0:0:0:0:
64,192,132936,1,2,0:0:0:0:
448,192,132936,1,4,0:0:0:0:
192,192,133371,1,8,0:0:0:0:
64,192,133806,1,2,0:0:0:0:
448,192,134023,128,0,134676:0:0:0:0:
192,192,134676,1,2,0:0:0:0:
320,192,135110,1,8,0:0:0:0:
64,192,135545,1,2,0:0:0:0:
192,192,135980,128,8,136415:0:0:0:0:
448,192,136415,1,2,0:0:0:0:
64,192,136849,1,8,0:0:0:0:
320,192,137284,128,2,137719:0:0:0:0:
64,192,137719,128,8,138154:0:0:0:0:
448,192,138154,128,2,139023:0:0:0:0:
192,192,139023,128,2,139458:0:0:0:0:
320,192,139458,128,8,139893:0:0:0:0:
448,192,139893,1,2,0:0:0:0:
192,192,140328,128,12,140762:0:0:0:0:
64,192,140762,128,6,141197:0:0:0:0:
448,192,141197,128,8,141632:0:0:0:0:
320,192,141632,1,2,0:0:0:0:
64,192,142067,128,12,142502:0:0:0:0:
320,192,142502,128,6,142936:0:0:0:0:
448,192,142936,128,8,143371:0:0:0:0:
192,192,143371,1,6,0:0:0:0:
320,192,143806,1,8,0:0:0:0:
448,192,144241,128,2,144676:0:0:0:0:
64,192,144676,128,8,145110:0:0:0:0:
448,192,145110,1,6,0:0:0:0:
192,192,145545,1,8,0:0:0:0:
448,192,145762,128,0,145980:0:0:0:0:
320,192,145980,128,6,146415:0:0:0:0:
64,192,146415,1,12,0:0:0:0:
192,192,146632,128,2,146849:0:0:0:0:
448,192,146849,1,6,0:0:0:0:
64,192,147284,1,8,0:0:0:0:
320,192,147719,128,2,148589:0:0:0:0:
192,192,148589,1,2,0:0:0:0:
448,192,149023,1,8,0:0:0:0:
320,192,149458,1,2,0:0:0:0:
64,192,149893,128,8,150328:0:0:0:0:
448,192,150328,1,2,0:0:0:0:
192,192,150762,1,8,0:0:0:0:
64,192,151197,128,2,151632:0:0:0:0:
192,192,151632,128,8,152067:0:0:0:0:
320,192,152067,128,2,152936:0:0:0:0:
448,192,152936,128,2,153371:0:0:0:0:
192,192,153371,128,8,153806:0:0:0:0:
64,192,153806,1,2,0:0:0:0:
320,192,154241,128,12,154676:0:0:0:0:
64,192,154676,128,6,155110:0:0:0:0:
448,192,155110,128,8,155545:0:0:0:0:
192,192,155545,1,2,0:0:0:0:
320,192,155980,128,12,156415:0:0:0:0:
192,192,156415,1,6,0:0:0:0:
64,192,156849,128,8,157067:0:0:0:0:
192,192,157067,128,0,157284:0:0:0:0:
448,192,157284,128,6,157936:0:0:0:0:
192,192,157936,128,2,158154:0:0:0:0:
320,192,158154,128,6,158806:0:0:0:0:
64,192,158806,128,2,159023:0:0:0:0:
448,192,159023,128,6,161415:0:0:0:0:
320,192,162502,1,4,0:0:0:0:
192,192,164241,128,0,165980:0:0:0:65:LR_Snare Hat.wav
64,192,165545,128,2,165980:0:0:0:0:
320,192,165980,128,6,168589:0:0:0:0:
192,192,166415,1,8,0:0:0:0:
64,192,166849,1,2,0:0:0:0:
448,192,167284,1,8,0:0:0:0:
192,192,167719,1,2,0:0:0:0:
64,192,168154,1,8,0:0:0:0:
448,192,168371,1,0,0:0:0:0:
64,192,168589,128,2,169023:0:0:0:0:
448,192,169023,128,8,169458:0:0:0:0:
320,192,169241,1,0,0:0:0:0:
192,192,169458,128,2,170328:0:0:0:0:
64,192,169893,1,8,0:0:0:0:
320,192,170328,128,2,170762:0:0:0:0:
192,192,170762,128,8,171197:0:0:0:0:
64,192,171197,128,2,171632:0:0:0:0:
448,192,171632,128,8,172067:0:0:0:0:
192,192,172067,128,2,172502:0:0:0:0:
320,192,172502,128,8,172936:0:0:0:0:
448,192,172719,1,0,0:0:0:0:
64,192,172936,128,2,173371:0:0:0:0:
192,192,173371,128,8,173806:0:0:0:0:
448,192,173371,1,4,0:0:0:0:
320,192,173806,128,6,174241:0:0:0:0:
64,192,174241,128,8,174676:0:0:0:0:
448,192,174458,1,0,0:0:0:0:
192,192,174676,128,2,175110:0:0:0:0:
320,192,175110,1,8,0:0:0:0:
448,192,175110,128,4,175545:0:0:0:0:
192,192,175328,1,0,0:0:0:0:
64,192,175545,128,6,175980:0:0:0:0:
192,192,175980,128,8,176415:0:0:0:0:
320,192,176415,128,6,177067:0:0:0:0:
448,192,177067,128,2,177284:0:0:0:0:
64,192,177284,128,6,177719:0:0:0:0:
448,192,177719,128,8,178154:0:0:0:0:
64,192,178154,128,6,178589:0:0:0:0:
192,192,178589,128,2,179023:0:0:0:0:
320,192,179023,128,6,179893:0:0:0:0:
192,192,179458,128,2,179893:0:0:0:0:
448,192,179893,128,6,182936:0:0:0:0:
64,192,182719,128,0,182936:0:0:0:65:LR_Snare Hat.wav
192,192,182936,1,0,0:0:0:50:Clap.wav
320,192,183154,1,0,0:0:0:65:LR_Snare Hat.wav
448,192,183371,128,0,183806:0:0:0:0:
64,192,183806,1,12,0:0:0:0:
320,192,184241,128,2,184676:0:0:0:0:
448,192,184676,128,8,185110:0:0:0:0:
192,192,185110,1,2,0:0:0:0:
320,192,185545,1,8,0:0:0:0:
64,192,185980,1,2,0:0:0:0:
448,192,186415,128,8,186849:0:0:0:0:
320,192,186849,1,2,0:0:0:0:
64,192,187284,1,8,0:0:0:0:
448,192,187719,128,2,188154:0:0:0:0:
192,192,188154,128,8,188589:0:0:0:0:
320,192,188589,128,2,189023:0:0:0:0:
64,192,189023,1,8,0:0:0:0:
192,192,189458,128,2,189893:0:0:0:0:
320,192,189893,128,8,190328:0:0:0:0:
448,192,190328,1,2,0:0:0:0:
64,192,190762,128,12,191197:0:0:0:0:
192,192,191197,128,6,191632:0:0:0:0:
448,192,191632,128,8,192067:0:0:0:0:
64,192,192067,1,2,0:0:0:0:
192,192,192502,128,12,192936:0:0:0:0:
448,192,192936,128,6,193371:0:0:0:0:
64,192,193371,128,8,193806:0:0:0:0:
320,192,193806,1,6,0:0:0:0:
448,192,194241,1,8,0:0:0:0:
192,192,194676,128,2,195110:0:0:0:0:
448,192,195110,128,8,195545:0:0:0:0:
64,192,195545,1,6,0:0:0:0:
192,192,195980,1,8,0:0:0:0:
448,192,196415,128,6,196849:0:0:0:0:
192,192,196849,128,12,197284:0:0:0:0:
448,192,197284,1,6,0:0:0:0:
64,192,197719,1,8,0:0:0:0:
192,192,198154,128,2,198589:0:0:0:0:
320,192,198589,128,8,199023:0:0:0:0:
448,192,199023,1,2,0:0:0:0:
192,192,199458,1,8,0:0:0:0:
320,192,199893,1,2,0:0:0:0:
192,192,200328,128,8,200762:0:0:0:0:
448,192,200762,1,2,0:0:0:0:
64,192,201197,1,8,0:0:0:0:
448,192,201632,128,2,202067:0:0:0:0:
64,192,202067,128,8,202502:0:0:0:0:
448,192,202502,128,2,203371:0:0:0:0:
192,192,203371,128,2,203806:0:0:0:0:
320,192,203806,128,8,204241:0:0:0:0:
64,192,204241,1,2,0:0:0:0:
192,192,204676,128,12,205110:0:0:0:0:
320,192,205110,128,6,205545:0:0:0:0:
64,192,205545,128,8,205980:0:0:0:0:
448,192,205980,1,2,0:0:0:0:
320,192,206415,128,12,206849:0:0:0:0:
192,192,206849,1,6,0:0:0:0:
64,192,207284,128,8,207719:0:0:0:0:
448,192,207719,1,6,0:0:0:0:
192,192,208154,1,8,0:0:0:0:
448,192,208371,1,2,0:0:0:0:
192,192,208589,1,6,0:0:0:0:
320,192,209023,1,8,0:0:0:0:
192,192,209241,1,2,0:0:0:0:
64,192,209458,1,2,0:0:0:0:
448,192,209458,128,4,216415:0:0:0:0:
320,192,215545,128,0,216415:0:0:0:0:
