osu file format v14

[General]
AudioFilename: audio.mp3
AudioLeadIn: 0
PreviewTime: 61198
Countdown: 0
SampleSet: None
StackLeniency: 0.7
Mode: 3
LetterboxInBreaks: 0
SpecialStyle: 0
WidescreenStoryboard: 1

[Editor]
Bookmarks: 100328,176415,179894,196849
DistanceSpacing: 0.6
BeatDivisor: 8
GridSize: 8
TimelineZoom: 2.5

[Metadata]
Title:Iro wa Nioedo, Chirinuru o
TitleUnicode:色は匂へど 散りぬるを
Artist:senya
ArtistUnicode:senya
Creator:Envory
Version:CROTSOUND
Source:東方風神録 ~ Mountain of Faith.
Tags:crot
BeatmapID:4196188
BeatmapSetID:517145

[Difficulty]
HPDrainRate:8
CircleSize:6
OverallDifficulty:7.5
ApproachRate:5
SliderMultiplier:1.4
SliderTickRate:1

[Events]
//Background and Video events
0,0,"bg.jpg",0,0
//Break Periods
2,32267,44780
//Storyboard Layer 0 (Background)
//Storyboard Layer 1 (Fail)
//Storyboard Layer 2 (Pass)
//Storyboard Layer 3 (Foreground)
//Storyboard Layer 4 (Overlay)
//Storyboard Sound Samples
Sample,18589,0,"soft-hitclap.wav",0
Sample,19023,0,"soft-hitwhistle.wav",0
Sample,19458,0,"soft-hitclap.wav",0
Sample,19893,0,"soft-hitwhistle.wav",0
Sample,20328,0,"soft-hitclap.wav",0
Sample,20762,0,"cling.wav",65
Sample,20762,0,"soft-hitwhistle.wav",0
Sample,21197,0,"soft-hitclap.wav",0
Sample,21632,0,"soft-hitwhistle.wav",0
Sample,22067,0,"soft-hitclap.wav",0
Sample,22502,0,"soft-hitwhistle.wav",0
Sample,22936,0,"soft-hitclap.wav",0
Sample,23371,0,"soft-hitwhistle.wav",0
Sample,23806,0,"soft-hitclap.wav",0
Sample,24241,0,"cling.wav",65
Sample,24676,0,"soft-hitclap.wav",0
Sample,25110,0,"soft-hitwhistle.wav",0
Sample,25110,0,"soft-hitfinish.wav",0
Sample,25980,0,"soft-hitwhistle.wav",0
Sample,26415,0,"soft-hitclap.wav",0
Sample,26849,0,"soft-hitwhistle.wav",0
Sample,27284,0,"soft-hitclap.wav",0
Sample,27719,0,"soft-hitwhistle.wav",0
Sample,27719,0,"cling.wav",65
Sample,28154,0,"soft-hitclap.wav",0
Sample,28589,0,"soft-hitwhistle.wav",0
Sample,29023,0,"soft-hitclap.wav",0
Sample,29458,0,"soft-hitwhistle.wav",0
Sample,29893,0,"soft-hitclap.wav",0
Sample,30328,0,"soft-hitwhistle.wav",0
Sample,30762,0,"soft-hitclap.wav",0
Sample,31197,0,"soft-hitclap.wav",0
Sample,31415,0,"soft-hitwhistle.wav",0
Sample,31632,0,"soft-hitclap.wav",0
Sample,31849,0,"soft-hitwhistle.wav",0
Sample,31958,0,"soft-hitwhistle.wav",0
Sample,32067,0,"soft-hitwhistle.wav",0
Sample,32067,0,"soft-hitfinish.wav",0
Sample,45980,0,"soft-hitwhistle.wav",0
Sample,45980,0,"soft-hitfinish.wav",0
Sample,46197,0,"soft-hitwhistle.wav",0
Sample,46415,0,"soft-hitclap.wav",0
Sample,46632,0,"soft-hitwhistle.wav",0
Sample,47067,0,"soft-hitwhistle.wav",0
Sample,47284,0,"soft-hitclap.wav",0
Sample,47719,0,"soft-hitwhistle.wav",0
Sample,47936,0,"soft-hitwhistle.wav",0
Sample,48154,0,"soft-hitclap.wav",0
Sample,48371,0,"soft-hitwhistle.wav",0
Sample,48806,0,"soft-hitwhistle.wav",0
Sample,49023,0,"soft-hitclap.wav",0
Sample,49241,0,"soft-hitwhistle.wav",0
Sample,49458,0,"soft-hitwhistle.wav",0
Sample,49676,0,"soft-hitwhistle.wav",0
Sample,49893,0,"soft-hitclap.wav",0
Sample,50110,0,"soft-hitwhistle.wav",0
Sample,50545,0,"soft-hitwhistle.wav",0
Sample,50762,0,"soft-hitclap.wav",0
Sample,50980,0,"soft-hitwhistle.wav",0
Sample,51197,0,"soft-hitwhistle.wav",0
Sample,51415,0,"soft-hitwhistle.wav",0
Sample,51632,0,"soft-hitclap.wav",0
Sample,51849,0,"soft-hitwhistle.wav",0
Sample,52284,0,"soft-hitwhistle.wav",0
Sample,52502,0,"soft-hitclap.wav",0
Sample,52719,0,"soft-hitwhistle.wav",0
Sample,52936,0,"soft-hitwhistle.wav",0
Sample,52936,0,"soft-hitfinish.wav",0
Sample,53371,0,"soft-hitclap.wav",0
Sample,53806,0,"soft-hitwhistle.wav",0
Sample,54241,0,"soft-hitclap.wav",0
Sample,54676,0,"soft-hitwhistle.wav",0
Sample,55110,0,"soft-hitclap.wav",0
Sample,55545,0,"soft-hitwhistle.wav",0
Sample,55980,0,"soft-hitclap.wav",0
Sample,56197,0,"soft-hitwhistle.wav",0
Sample,56415,0,"soft-hitwhistle.wav",0
Sample,56415,0,"soft-hitfinish.wav",0
Sample,56741,0,"soft-hitwhistle.wav",0
Sample,56849,0,"soft-hitclap.wav",0
Sample,57067,0,"soft-hitwhistle.wav",0
Sample,57284,0,"soft-hitfinish.wav",0
Sample,57284,0,"soft-hitwhistle.wav",0
Sample,57610,0,"soft-hitwhistle.wav",0
Sample,57719,0,"soft-hitclap.wav",0
Sample,57936,0,"soft-hitwhistle.wav",0
Sample,58154,0,"soft-hitwhistle.wav",0
Sample,58480,0,"soft-hitwhistle.wav",0
Sample,58806,0,"soft-hitwhistle.wav",0
Sample,59023,0,"soft-hitwhistle.wav",0
Sample,61632,0,"soft-hitwhistle.wav",0
Sample,61632,0,"soft-hitfinish.wav",0
Sample,62067,0,"soft-hitclap.wav",0
Sample,62502,0,"soft-hitwhistle.wav",0
Sample,62936,0,"soft-hitclap.wav",0
Sample,63371,0,"soft-hitwhistle.wav",0
Sample,63806,0,"soft-hitclap.wav",0
Sample,64241,0,"cling.wav",65
Sample,64241,0,"soft-hitwhistle.wav",0
Sample,64676,0,"soft-hitclap.wav",0
Sample,65110,0,"soft-hitwhistle.wav",0
Sample,65545,0,"soft-hitclap.wav",0
Sample,65980,0,"soft-hitwhistle.wav",0
Sample,66415,0,"soft-hitclap.wav",0
Sample,66849,0,"soft-hitwhistle.wav",0
Sample,67284,0,"soft-hitclap.wav",0
Sample,67719,0,"cling.wav",65
Sample,68154,0,"soft-hitclap.wav",0
Sample,68589,0,"soft-hitwhistle.wav",0
Sample,69023,0,"soft-hitclap.wav",0
Sample,69023,0,"soft-hitfinish.wav",0
Sample,69458,0,"soft-hitfinish.wav",0
Sample,69458,0,"soft-hitwhistle.wav",0
Sample,69893,0,"soft-hitclap.wav",0
Sample,70328,0,"soft-hitwhistle.wav",0
Sample,70762,0,"soft-hitfinish.wav",0
Sample,70762,0,"soft-hitclap.wav",0
Sample,71197,0,"soft-hitfinish.wav",0
Sample,71197,0,"soft-hitwhistle.wav",0
Sample,71632,0,"soft-hitclap.wav",0
Sample,72067,0,"soft-hitfinish.wav",0
Sample,72067,0,"soft-hitwhistle.wav",0
Sample,72502,0,"soft-hitclap.wav",0
Sample,72936,0,"soft-hitwhistle.wav",0
Sample,73371,0,"soft-hitclap.wav",0
Sample,73806,0,"soft-hitfinish.wav",0
Sample,73806,0,"soft-hitwhistle.wav",0
Sample,74241,0,"soft-hitclap.wav",0
Sample,74567,0,"soft-hitwhistle.wav",0
Sample,74676,0,"soft-hitwhistle.wav",0
Sample,74676,0,"soft-hitfinish.wav",0
Sample,74893,0,"soft-hitwhistle.wav",0
Sample,75110,0,"soft-hitclap.wav",0
Sample,75328,0,"soft-hitwhistle.wav",0
Sample,75436,0,"soft-hitwhistle.wav",0
Sample,75545,0,"soft-hitfinish.wav",0
Sample,75545,0,"soft-hitwhistle.wav",0
Sample,75980,0,"soft-hitclap.wav",0
Sample,76415,0,"soft-hitwhistle.wav",0
Sample,76849,0,"soft-hitclap.wav",0
Sample,77284,0,"soft-hitwhistle.wav",0
Sample,77719,0,"soft-hitclap.wav",0
Sample,78154,0,"soft-hitwhistle.wav",0
Sample,78154,0,"cling.wav",65
Sample,78589,0,"soft-hitclap.wav",0
Sample,79023,0,"soft-hitwhistle.wav",0
Sample,79458,0,"soft-hitclap.wav",0
Sample,79893,0,"soft-hitwhistle.wav",0
Sample,80328,0,"soft-hitclap.wav",0
Sample,80762,0,"soft-hitwhistle.wav",0
Sample,81197,0,"soft-hitclap.wav",0
Sample,81632,0,"soft-hitwhistle.wav",0
Sample,82067,0,"soft-hitclap.wav",0
Sample,82502,0,"soft-hitwhistle.wav",0
Sample,82936,0,"soft-hitclap.wav",0
Sample,82936,0,"soft-hitfinish.wav",0
Sample,83371,0,"soft-hitwhistle.wav",0
Sample,83371,0,"soft-hitfinish.wav",0
Sample,83806,0,"soft-hitclap.wav",0
Sample,84241,0,"soft-hitwhistle.wav",0
Sample,84676,0,"soft-hitclap.wav",0
Sample,84676,0,"soft-hitfinish.wav",0
Sample,85110,0,"soft-hitfinish.wav",0
Sample,85110,0,"soft-hitwhistle.wav",0
Sample,85545,0,"soft-hitclap.wav",0
Sample,85980,0,"soft-hitfinish.wav",0
Sample,85980,0,"soft-hitwhistle.wav",0
Sample,86197,0,"soft-hitwhistle.wav",0
Sample,86415,0,"soft-hitclap.wav",0
Sample,86632,0,"soft-hitwhistle.wav",0
Sample,86741,0,"soft-hitwhistle.wav",0
Sample,86849,0,"soft-hitfinish.wav",0
Sample,86849,0,"soft-hitwhistle.wav",0
Sample,87067,0,"soft-hitwhistle.wav",0
Sample,87284,0,"soft-hitclap.wav",0
Sample,87502,0,"soft-hitwhistle.wav",0
Sample,87610,0,"soft-hitwhistle.wav",0
Sample,87719,0,"soft-hitfinish.wav",0
Sample,87719,0,"soft-hitwhistle.wav",0
Sample,90762,0,"soft-hitwhistle.wav",0
Sample,90980,0,"soft-hitwhistle.wav",0
Sample,91089,0,"soft-hitwhistle.wav",0
Sample,91197,0,"soft-hitwhistle.wav",0
Sample,91197,0,"soft-hitfinish.wav",0
Sample,91632,0,"soft-hitclap.wav",0
Sample,92067,0,"soft-hitwhistle.wav",0
Sample,92502,0,"soft-hitclap.wav",0
Sample,92936,0,"soft-hitwhistle.wav",0
Sample,93371,0,"soft-hitclap.wav",0
Sample,93806,0,"cling.wav",65
Sample,93806,0,"soft-hitwhistle.wav",0
Sample,94241,0,"soft-hitclap.wav",0
Sample,94676,0,"soft-hitwhistle.wav",0
Sample,95110,0,"soft-hitclap.wav",0
Sample,95545,0,"soft-hitwhistle.wav",0
Sample,95980,0,"soft-hitclap.wav",0
Sample,96415,0,"soft-hitwhistle.wav",0
Sample,96849,0,"soft-hitclap.wav",0
Sample,97284,0,"soft-hitwhistle.wav",0
Sample,97719,0,"soft-hitclap.wav",0
Sample,98154,0,"soft-hitwhistle.wav",0
Sample,98154,0,"soft-hitfinish.wav",0
Sample,98589,0,"soft-hitclap.wav",0
Sample,99023,0,"soft-hitwhistle.wav",0
Sample,99458,0,"soft-hitclap.wav",0
Sample,99893,0,"soft-hitwhistle.wav",0
Sample,100328,0,"soft-hitclap.wav",0
Sample,100762,0,"cling.wav",65
Sample,100762,0,"soft-hitwhistle.wav",0
Sample,101197,0,"soft-hitclap.wav",0
Sample,101632,0,"soft-hitwhistle.wav",0
Sample,101632,0,"soft-hitfinish.wav",0
Sample,102067,0,"soft-hitclap.wav",0
Sample,102502,0,"soft-hitwhistle.wav",0
Sample,102936,0,"soft-hitclap.wav",0
Sample,103371,0,"soft-hitfinish.wav",0
Sample,103371,0,"soft-hitwhistle.wav",0
Sample,103806,0,"soft-hitclap.wav",0
Sample,104241,0,"soft-hitfinish.wav",0
Sample,104241,0,"soft-hitwhistle.wav",0
Sample,104458,0,"soft-hitwhistle.wav",0
Sample,104676,0,"soft-hitclap.wav",0
Sample,104676,0,"soft-hitfinish.wav",0
Sample,104893,0,"soft-hitwhistle.wav",0
Sample,105002,0,"soft-hitwhistle.wav",0
Sample,105110,0,"soft-hitfinish.wav",0
Sample,105110,0,"soft-hitwhistle.wav",0
Sample,105545,0,"soft-hitclap.wav",0
Sample,105980,0,"soft-hitwhistle.wav",0
Sample,106415,0,"soft-hitclap.wav",0
Sample,106849,0,"soft-hitwhistle.wav",0
Sample,107284,0,"soft-hitclap.wav",0
Sample,107719,0,"soft-hitwhistle.wav",0
Sample,108154,0,"soft-hitclap.wav",0
Sample,108589,0,"soft-hitwhistle.wav",0
Sample,109023,0,"soft-hitclap.wav",0
Sample,109458,0,"soft-hitwhistle.wav",0
Sample,109893,0,"soft-hitclap.wav",0
Sample,110328,0,"soft-hitwhistle.wav",0
Sample,110762,0,"soft-hitclap.wav",0
Sample,111197,0,"soft-hitwhistle.wav",0
Sample,111632,0,"soft-hitclap.wav",0
Sample,112067,0,"soft-hitwhistle.wav",0
Sample,112067,0,"soft-hitfinish.wav",0
Sample,112502,0,"soft-hitclap.wav",0
Sample,112936,0,"soft-hitwhistle.wav",0
Sample,113371,0,"soft-hitclap.wav",0
Sample,113806,0,"soft-hitwhistle.wav",0
Sample,114241,0,"soft-hitclap.wav",0
Sample,114676,0,"soft-hitwhistle.wav",0
Sample,115110,0,"soft-hitclap.wav",0
Sample,115545,0,"soft-hitwhistle.wav",0
Sample,115980,0,"soft-hitclap.wav",0
Sample,116415,0,"soft-hitwhistle.wav",0
Sample,116849,0,"soft-hitclap.wav",0
Sample,117284,0,"soft-hitwhistle.wav",0
Sample,117719,0,"soft-hitclap.wav",0
Sample,118154,0,"soft-hitwhistle.wav",0
Sample,118371,0,"soft-hitwhistle.wav",0
Sample,118589,0,"soft-hitclap.wav",0
Sample,118806,0,"soft-hitwhistle.wav",0
Sample,118915,0,"soft-hitwhistle.wav",0
Sample,119023,0,"soft-hitwhistle.wav",0
Sample,119023,0,"soft-hitfinish.wav",0
Sample,119458,0,"soft-hitclap.wav",0
Sample,119893,0,"soft-hitwhistle.wav",0
Sample,120328,0,"soft-hitclap.wav",0
Sample,120762,0,"soft-hitwhistle.wav",0
Sample,121197,0,"soft-hitclap.wav",0
Sample,121632,0,"soft-hitwhistle.wav",0
Sample,122067,0,"soft-hitclap.wav",0
Sample,122502,0,"soft-hitwhistle.wav",0
Sample,122936,0,"soft-hitclap.wav",0
Sample,123371,0,"soft-hitwhistle.wav",0
Sample,123806,0,"soft-hitclap.wav",0
Sample,124241,0,"soft-hitwhistle.wav",0
Sample,124676,0,"soft-hitclap.wav",0
Sample,125110,0,"soft-hitwhistle.wav",0
Sample,125328,0,"soft-hitwhistle.wav",0
Sample,125545,0,"soft-hitclap.wav",0
Sample,125762,0,"soft-hitwhistle.wav",0
Sample,125980,0,"soft-hitfinish.wav",0
Sample,125980,0,"soft-hitwhistle.wav",0
Sample,126415,0,"soft-hitclap.wav",0
Sample,126849,0,"soft-hitwhistle.wav",0
Sample,127284,0,"soft-hitclap.wav",0
Sample,127719,0,"soft-hitwhistle.wav",0
Sample,128154,0,"soft-hitclap.wav",0
Sample,128589,0,"soft-hitwhistle.wav",0
Sample,128589,0,"cling.wav",65
Sample,129023,0,"soft-hitclap.wav",0
Sample,129241,0,"soft-hitwhistle.wav",0
Sample,129458,0,"soft-hitwhistle.wav",0
Sample,129458,0,"soft-hitfinish.wav",0
Sample,129784,0,"soft-hitwhistle.wav",0
Sample,129893,0,"soft-hitclap.wav",0
Sample,130110,0,"soft-hitwhistle.wav",0
Sample,130328,0,"soft-hitfinish.wav",0
Sample,130328,0,"soft-hitwhistle.wav",0
Sample,130654,0,"soft-hitwhistle.wav",0
Sample,130762,0,"soft-hitclap.wav",0
Sample,130980,0,"soft-hitwhistle.wav",0
Sample,131197,0,"soft-hitwhistle.wav",0
Sample,131523,0,"soft-hitwhistle.wav",0
Sample,131849,0,"soft-hitwhistle.wav",0
Sample,132067,0,"soft-hitwhistle.wav",0
Sample,132936,0,"soft-hitwhistle.wav",0
Sample,132936,0,"soft-hitfinish.wav",0
Sample,133371,0,"soft-hitclap.wav",0
Sample,133806,0,"soft-hitwhistle.wav",0
Sample,134241,0,"soft-hitclap.wav",0
Sample,134676,0,"soft-hitwhistle.wav",0
Sample,135110,0,"soft-hitclap.wav",0
Sample,135545,0,"cling.wav",65
Sample,135545,0,"soft-hitwhistle.wav",0
Sample,135980,0,"soft-hitclap.wav",0
Sample,136415,0,"soft-hitwhistle.wav",0
Sample,136849,0,"soft-hitclap.wav",0
Sample,137284,0,"soft-hitwhistle.wav",0
Sample,137719,0,"soft-hitclap.wav",0
Sample,138154,0,"soft-hitwhistle.wav",0
Sample,138589,0,"soft-hitclap.wav",0
Sample,139023,0,"soft-hitwhistle.wav",0
Sample,139023,0,"cling.wav",65
Sample,139458,0,"soft-hitclap.wav",0
Sample,139893,0,"soft-hitwhistle.wav",0
Sample,140328,0,"soft-hitfinish.wav",0
Sample,140328,0,"soft-hitclap.wav",0
Sample,140762,0,"soft-hitwhistle.wav",0
Sample,140762,0,"soft-hitfinish.wav",0
Sample,141197,0,"soft-hitclap.wav",0
Sample,141632,0,"soft-hitwhistle.wav",0
Sample,142067,0,"soft-hitclap.wav",0
Sample,142067,0,"soft-hitfinish.wav",0
Sample,142502,0,"soft-hitwhistle.wav",0
Sample,142502,0,"soft-hitfinish.wav",0
Sample,142936,0,"soft-hitclap.wav",0
Sample,143371,0,"soft-hitwhistle.wav",0
Sample,143371,0,"soft-hitfinish.wav",0
Sample,143806,0,"soft-hitclap.wav",0
Sample,144241,0,"soft-hitwhistle.wav",0
Sample,144676,0,"soft-hitclap.wav",0
Sample,145110,0,"soft-hitwhistle.wav",0
Sample,145110,0,"soft-hitfinish.wav",0
Sample,145545,0,"soft-hitclap.wav",0
Sample,145871,0,"soft-hitwhistle.wav",0
Sample,145980,0,"soft-hitwhistle.wav",0
Sample,146197,0,"soft-hitwhistle.wav",0
Sample,146415,0,"soft-hitclap.wav",0
Sample,146632,0,"soft-hitwhistle.wav",0
Sample,146741,0,"soft-hitwhistle.wav",0
Sample,146849,0,"soft-hitfinish.wav",0
Sample,146849,0,"soft-hitwhistle.wav",0
Sample,147284,0,"soft-hitclap.wav",0
Sample,147719,0,"soft-hitwhistle.wav",0
Sample,148154,0,"soft-hitclap.wav",0
Sample,148589,0,"soft-hitwhistle.wav",0
Sample,149023,0,"soft-hitclap.wav",0
Sample,149458,0,"soft-hitwhistle.wav",0
Sample,149458,0,"cling.wav",65
Sample,149893,0,"soft-hitclap.wav",0
Sample,150328,0,"soft-hitwhistle.wav",0
Sample,150762,0,"soft-hitclap.wav",0
Sample,151197,0,"soft-hitwhistle.wav",0
Sample,151632,0,"soft-hitclap.wav",0
Sample,152067,0,"soft-hitwhistle.wav",0
Sample,152502,0,"soft-hitclap.wav",0
Sample,152936,0,"cling.wav",65
Sample,152936,0,"soft-hitwhistle.wav",0
Sample,153371,0,"soft-hitclap.wav",0
Sample,153806,0,"soft-hitwhistle.wav",0
Sample,154241,0,"soft-hitfinish.wav",0
Sample,154241,0,"soft-hitclap.wav",0
Sample,154676,0,"soft-hitfinish.wav",0
Sample,154676,0,"soft-hitwhistle.wav",0
Sample,155110,0,"soft-hitclap.wav",0
Sample,155545,0,"soft-hitwhistle.wav",0
Sample,155980,0,"soft-hitfinish.wav",0
Sample,155980,0,"soft-hitclap.wav",0
Sample,156415,0,"soft-hitwhistle.wav",0
Sample,156415,0,"soft-hitfinish.wav",0
Sample,156849,0,"soft-hitclap.wav",0
Sample,157284,0,"soft-hitwhistle.wav",0
Sample,157284,0,"soft-hitfinish.wav",0
Sample,157502,0,"soft-hitwhistle.wav",0
Sample,157719,0,"soft-hitclap.wav",0
Sample,157936,0,"soft-hitwhistle.wav",0
Sample,158045,0,"soft-hitwhistle.wav",0
Sample,158154,0,"soft-hitwhistle.wav",0
Sample,158154,0,"soft-hitfinish.wav",0
Sample,158371,0,"soft-hitwhistle.wav",0
Sample,158589,0,"soft-hitclap.wav",0
Sample,158806,0,"soft-hitwhistle.wav",0
Sample,158915,0,"soft-hitwhistle.wav",0
Sample,159023,0,"soft-hitwhistle.wav",0
Sample,159023,0,"soft-hitfinish.wav",0
Sample,164349,0,"soft-hitwhistle.wav",0
Sample,164458,0,"soft-hitwhistle.wav",0
Sample,164676,0,"soft-hitwhistle.wav",0
Sample,164893,0,"soft-hitwhistle.wav",0
Sample,165002,0,"soft-hitwhistle.wav",0
Sample,165219,0,"soft-hitwhistle.wav",0
Sample,165328,0,"soft-hitwhistle.wav",0
Sample,165436,0,"soft-hitwhistle.wav",0
Sample,165545,0,"soft-hitwhistle.wav",0
Sample,165599,0,"soft-hitwhistle.wav",0
Sample,165654,0,"soft-hitwhistle.wav",0
Sample,165708,0,"soft-hitwhistle.wav",0
Sample,165762,0,"soft-hitwhistle.wav",0
Sample,165871,0,"soft-hitwhistle.wav",0
Sample,165980,0,"soft-hitwhistle.wav",0
Sample,165980,0,"soft-hitfinish.wav",0
Sample,166415,0,"soft-hitclap.wav",0
Sample,166849,0,"soft-hitwhistle.wav",0
Sample,167284,0,"soft-hitclap.wav",0
Sample,167719,0,"soft-hitwhistle.wav",0
Sample,168154,0,"soft-hitclap.wav",0
Sample,168589,0,"cling.wav",65
Sample,168589,0,"soft-hitwhistle.wav",0
Sample,169023,0,"soft-hitclap.wav",0
Sample,169458,0,"soft-hitwhistle.wav",0
Sample,169893,0,"soft-hitclap.wav",0
Sample,170328,0,"soft-hitwhistle.wav",0
Sample,170762,0,"soft-hitclap.wav",0
Sample,171197,0,"soft-hitwhistle.wav",0
Sample,171632,0,"soft-hitclap.wav",0
Sample,172067,0,"soft-hitwhistle.wav",0
Sample,172067,0,"cling.wav",65
Sample,172502,0,"soft-hitclap.wav",0
Sample,172936,0,"soft-hitwhistle.wav",0
Sample,173371,0,"soft-hitclap.wav",0
Sample,173371,0,"soft-hitfinish.wav",0
Sample,173806,0,"soft-hitwhistle.wav",0
Sample,173806,0,"soft-hitfinish.wav",0
Sample,174241,0,"soft-hitclap.wav",0
Sample,174676,0,"soft-hitwhistle.wav",0
Sample,175110,0,"soft-hitclap.wav",0
Sample,175110,0,"soft-hitfinish.wav",0
Sample,175545,0,"soft-hitwhistle.wav",0
Sample,175545,0,"soft-hitfinish.wav",0
Sample,175980,0,"soft-hitclap.wav",0
Sample,176415,0,"soft-hitfinish.wav",0
Sample,176415,0,"soft-hitwhistle.wav",0
Sample,176632,0,"soft-hitwhistle.wav",0
Sample,176849,0,"soft-hitclap.wav",0
Sample,177067,0,"soft-hitwhistle.wav",0
Sample,177176,0,"soft-hitwhistle.wav",0
Sample,177284,0,"soft-hitfinish.wav",0
Sample,177284,0,"soft-hitwhistle.wav",0
Sample,177502,0,"soft-hitwhistle.wav",0
Sample,177719,0,"soft-hitclap.wav",0
Sample,177936,0,"soft-hitwhistle.wav",0
Sample,178154,0,"soft-hitwhistle.wav",0
Sample,178154,0,"soft-hitfinish.wav",0
Sample,178154,0,"soft-hitwhistle.wav",0
Sample,178371,0,"soft-hitwhistle.wav",0
Sample,178589,0,"soft-hitwhistle.wav",0
Sample,178697,0,"soft-hitwhistle.wav",0
Sample,178806,0,"soft-hitwhistle.wav",0
Sample,178860,0,"soft-hitwhistle.wav",0
Sample,178915,0,"soft-hitwhistle.wav",0
Sample,178969,0,"soft-hitwhistle.wav",0
Sample,179023,0,"soft-hitwhistle.wav",0
Sample,179023,0,"soft-hitfinish.wav",0
Sample,179132,0,"soft-hitwhistle.wav",0
Sample,179241,0,"soft-hitwhistle.wav",0
Sample,179349,0,"soft-hitwhistle.wav",0
Sample,179458,0,"soft-hitwhistle.wav",0
Sample,179567,0,"soft-hitwhistle.wav",0
Sample,179676,0,"soft-hitwhistle.wav",0
Sample,179784,0,"soft-hitwhistle.wav",0
Sample,179893,0,"soft-hitwhistle.wav",0
Sample,183806,0,"soft-hitfinish.wav",0
Sample,183806,0,"soft-hitclap.wav",0
Sample,184241,0,"soft-hitwhistle.wav",0
Sample,184676,0,"soft-hitclap.wav",0
Sample,185110,0,"soft-hitwhistle.wav",0
Sample,185545,0,"soft-hitclap.wav",0
Sample,185980,0,"soft-hitwhistle.wav",0
Sample,185980,0,"cling.wav",65
Sample,186415,0,"soft-hitclap.wav",0
Sample,186849,0,"soft-hitwhistle.wav",0
Sample,187284,0,"soft-hitclap.wav",0
Sample,187719,0,"soft-hitwhistle.wav",0
Sample,188154,0,"soft-hitclap.wav",0
Sample,188589,0,"soft-hitwhistle.wav",0
Sample,189023,0,"soft-hitclap.wav",0
Sample,189458,0,"cling.wav",65
Sample,189458,0,"soft-hitwhistle.wav",0
Sample,189893,0,"soft-hitclap.wav",0
Sample,190328,0,"soft-hitwhistle.wav",0
Sample,190762,0,"soft-hitfinish.wav",0
Sample,190762,0,"soft-hitclap.wav",0
Sample,191197,0,"soft-hitwhistle.wav",0
Sample,191197,0,"soft-hitfinish.wav",0
Sample,191632,0,"soft-hitclap.wav",0
Sample,192067,0,"soft-hitwhistle.wav",0
Sample,192502,0,"soft-hitclap.wav",0
Sample,192502,0,"soft-hitfinish.wav",0
Sample,192936,0,"soft-hitwhistle.wav",0
Sample,192936,0,"soft-hitfinish.wav",0
Sample,193371,0,"soft-hitclap.wav",0
Sample,193806,0,"soft-hitfinish.wav",0
Sample,193806,0,"soft-hitwhistle.wav",0
Sample,194241,0,"soft-hitclap.wav",0
Sample,194676,0,"soft-hitwhistle.wav",0
Sample,195110,0,"soft-hitclap.wav",0
Sample,195545,0,"soft-hitwhistle.wav",0
Sample,195545,0,"soft-hitfinish.wav",0
Sample,195980,0,"soft-hitclap.wav",0
Sample,196306,0,"soft-hitwhistle.wav",0
Sample,196415,0,"soft-hitwhistle.wav",0
Sample,196632,0,"soft-hitwhistle.wav",0
Sample,196849,0,"soft-hitclap.wav",0
Sample,197067,0,"soft-hitwhistle.wav",0
Sample,197176,0,"soft-hitwhistle.wav",0
Sample,197284,0,"soft-hitwhistle.wav",0
Sample,197284,0,"soft-hitfinish.wav",0
Sample,197719,0,"soft-hitclap.wav",0
Sample,198154,0,"soft-hitwhistle.wav",0
Sample,198589,0,"soft-hitclap.wav",0
Sample,199023,0,"soft-hitwhistle.wav",0
Sample,199458,0,"soft-hitclap.wav",0
Sample,199893,0,"cling.wav",65
Sample,199893,0,"soft-hitwhistle.wav",0
Sample,200328,0,"soft-hitclap.wav",0
Sample,200762,0,"soft-hitwhistle.wav",0
Sample,201197,0,"soft-hitclap.wav",0
Sample,201632,0,"soft-hitwhistle.wav",0
Sample,202067,0,"soft-hitclap.wav",0
Sample,202502,0,"soft-hitwhistle.wav",0
Sample,202936,0,"soft-hitclap.wav",0
Sample,203371,0,"soft-hitwhistle.wav",0
Sample,203371,0,"cling.wav",65
Sample,203806,0,"soft-hitclap.wav",0
Sample,204241,0,"soft-hitwhistle.wav",0
Sample,204676,0,"soft-hitfinish.wav",0
Sample,204676,0,"soft-hitclap.wav",0
Sample,205110,0,"soft-hitfinish.wav",0
Sample,205110,0,"soft-hitwhistle.wav",0
Sample,205545,0,"soft-hitclap.wav",0
Sample,205980,0,"soft-hitwhistle.wav",0
Sample,206415,0,"soft-hitfinish.wav",0
Sample,206415,0,"soft-hitclap.wav",0
Sample,206849,0,"soft-hitwhistle.wav",0
Sample,206849,0,"soft-hitfinish.wav",0
Sample,207284,0,"soft-hitclap.wav",0
Sample,207719,0,"soft-hitwhistle.wav",0
Sample,207719,0,"soft-hitfinish.wav",0
Sample,208045,0,"soft-hitwhistle.wav",0
Sample,208154,0,"soft-hitclap.wav",0
Sample,208371,0,"soft-hitwhistle.wav",0
Sample,208589,0,"soft-hitwhistle.wav",0
Sample,208589,0,"soft-hitfinish.wav",0
Sample,208915,0,"soft-hitwhistle.wav",0
Sample,209023,0,"soft-hitclap.wav",0
Sample,209241,0,"soft-hitwhistle.wav",0
Sample,209458,0,"soft-hitwhistle.wav",0
Sample,209458,0,"soft-hitfinish.wav",0

[TimingPoints]
763,434.782608695652,4,2,1,65,1,0

[HitObjects]
64,192,18154,5,2,0:0:0:0:
469,192,18154,1,4,0:0:0:0:
128,192,18589,1,8,0:0:0:0:
64,192,19023,1,2,0:0:0:0:
128,192,19458,1,8,0:0:0:0:
64,192,19893,1,2,0:0:0:0:
128,192,20328,1,8,0:0:0:0:
64,192,20762,1,2,0:0:0:0:
384,192,20762,1,0,0:0:0:65:cling.wav
128,192,21197,1,8,0:0:0:0:
64,192,21632,5,2,0:0:0:0:
128,192,22067,1,8,0:0:0:0:
64,192,22502,1,2,0:0:0:0:
128,192,22936,1,8,0:0:0:0:
64,192,23371,5,2,0:0:0:0:
128,192,23806,1,8,0:0:0:0:
64,192,24241,1,2,0:0:0:0:
384,192,24241,1,0,0:0:0:65:cling.wav
128,192,24676,1,8,0:0:0:0:
64,192,25110,5,2,0:0:0:0:
469,192,25110,1,4,0:0:0:0:
128,192,25545,1,8,0:0:0:0:
64,192,25980,1,2,0:0:0:0:
128,192,26415,1,8,0:0:0:0:
64,192,26849,5,2,0:0:0:0:
128,192,27284,1,8,0:0:0:0:
64,192,27719,1,2,0:0:0:0:
384,192,27719,1,0,0:0:0:65:cling.wav
128,192,28154,1,8,0:0:0:0:
64,192,28589,1,2,0:0:0:0:
128,192,29023,1,8,0:0:0:0:
64,192,29458,1,2,0:0:0:0:
128,192,29893,1,8,0:0:0:0:
42,192,30328,1,2,0:0:0:0:
128,192,30762,1,8,0:0:0:0:
128,192,31089,1,8,0:0:0:0:
42,192,31197,1,2,0:0:0:0:
42,192,31415,1,2,0:0:0:0:
128,192,31632,1,8,0:0:0:0:
42,192,31849,1,2,0:0:0:0:
42,192,31958,1,2,0:0:0:0:
42,192,32067,1,2,0:0:0:0:
469,192,32067,1,4,0:0:0:0:
42,192,45980,5,2,0:0:0:0:
469,192,45980,1,4,0:0:0:0:
42,192,46197,1,2,0:0:0:0:
213,192,46415,1,0,0:0:0:65:LR_Snare Hat.wav
42,192,46632,1,2,0:0:0:0:
42,192,47067,1,2,0:0:0:0:
213,192,47284,1,0,0:0:0:65:LR_Snare Hat.wav
213,192,47502,1,0,0:0:0:40:LR_Snare Hat.wav
213,192,47610,1,0,0:0:0:65:LR_Snare Hat.wav
42,192,47719,5,2,0:0:0:0:
42,192,47936,1,2,0:0:0:0:
213,192,48154,1,0,0:0:0:65:LR_Snare Hat.wav
42,192,48371,1,2,0:0:0:0:
42,192,48806,1,2,0:0:0:0:
213,192,49023,1,0,0:0:0:65:LR_Snare Hat.wav
42,192,49241,1,2,0:0:0:0:
213,192,49349,1,0,0:0:0:65:LR_Snare Hat.wav
42,192,49458,5,2,0:0:0:0:
42,192,49676,1,2,0:0:0:0:
213,192,49893,1,0,0:0:0:65:LR_Snare Hat.wav
42,192,50110,1,2,0:0:0:0:
42,192,50545,1,2,0:0:0:0:
213,192,50762,1,0,0:0:0:65:LR_Snare Hat.wav
213,192,50980,1,0,0:0:0:40:LR_Snare Hat.wav
213,192,51089,1,0,0:0:0:65:LR_Snare Hat.wav
42,192,51197,1,2,0:0:0:0:
42,192,51415,1,2,0:0:0:0:
213,192,51632,1,0,0:0:0:65:LR_Snare Hat.wav
42,192,51849,1,2,0:0:0:0:
213,192,51958,1,0,0:0:0:65:LR_Snare Hat.wav
213,192,52176,1,0,0:0:0:65:LR_Snare Hat.wav
42,192,52284,1,2,0:0:0:0:
213,192,52502,1,0,0:0:0:65:LR_Snare Hat.wav
42,192,52719,1,2,0:0:0:0:
42,192,52936,1,2,0:0:0:0:
469,192,52936,1,4,0:0:0:0:
128,192,53371,1,8,0:0:0:0:
42,192,53806,1,2,0:0:0:0:
128,192,54241,1,8,0:0:0:0:
42,192,54676,1,2,0:0:0:0:
128,192,55110,1,8,0:0:0:0:
42,192,55545,1,2,0:0:0:0:
128,192,55980,1,8,0:0:0:0:
42,192,56197,1,2,0:0:0:0:
42,192,56415,1,2,0:0:0:0:
469,192,56415,1,4,0:0:0:0:
42,192,56741,1,2,0:0:0:0:
128,192,56849,1,8,0:0:0:0:
42,192,57067,1,2,0:0:0:0:
42,192,57284,1,2,0:0:0:0:
469,192,57284,1,4,0:0:0:0:
42,192,57610,1,2,0:0:0:0:
128,192,57719,1,8,0:0:0:0:
42,192,57936,1,2,0:0:0:0:
128,192,58154,1,8,0:0:0:0:
42,192,58480,1,2,0:0:0:0:
128,192,58589,1,8,0:0:0:0:
42,192,58806,1,2,0:0:0:0:
42,192,59023,1,2,0:0:0:0:
42,192,61632,1,2,0:0:0:0:
469,192,61632,1,4,0:0:0:0:
128,192,62067,1,8,0:0:0:0:
42,192,62502,1,2,0:0:0:0:
128,192,62936,1,8,0:0:0:0:
42,192,63371,1,2,0:0:0:0:
128,192,63806,1,8,0:0:0:0:
42,192,64241,1,2,0:0:0:0:
384,192,64241,1,0,0:0:0:65:cling.wav
128,192,64676,1,8,0:0:0:0:
42,192,65110,1,2,0:0:0:0:
128,192,65545,1,8,0:0:0:0:
42,192,65980,1,2,0:0:0:0:
128,192,66415,1,8,0:0:0:0:
42,192,66849,1,2,0:0:0:0:
128,192,67284,1,8,0:0:0:0:
42,192,67719,1,2,0:0:0:0:
384,192,67719,1,0,0:0:0:65:cling.wav
128,192,68154,1,8,0:0:0:0:
42,192,68589,1,2,0:0:0:0:
128,192,69023,1,8,0:0:0:0:
469,192,69023,1,4,0:0:0:0:
42,192,69458,1,2,0:0:0:0:
469,192,69458,1,4,0:0:0:0:
128,192,69893,1,8,0:0:0:0:
42,192,70328,1,2,0:0:0:0:
128,192,70762,1,8,0:0:0:0:
469,192,70762,1,4,0:0:0:0:
42,192,71197,1,2,0:0:0:0:
469,192,71197,1,4,0:0:0:0:
128,192,71632,1,8,0:0:0:0:
469,192,72067,1,4,0:0:0:0:
42,192,72067,1,2,0:0:0:0:
128,192,72502,1,8,0:0:0:0:
42,192,72936,1,2,0:0:0:0:
128,192,73371,1,8,0:0:0:0:
42,192,73806,1,2,0:0:0:0:
469,192,73806,1,4,0:0:0:0:
128,192,74241,1,8,0:0:0:0:
42,192,74567,1,2,0:0:0:0:
42,192,74676,1,2,0:0:0:0:
469,192,74676,1,4,0:0:0:0:
42,192,74893,1,2,0:0:0:0:
128,192,75110,1,8,0:0:0:0:
469,192,75110,1,4,0:0:0:0:
42,192,75328,1,2,0:0:0:0:
42,192,75436,1,2,0:0:0:0:
469,192,75545,1,4,0:0:0:0:
42,192,75545,1,2,0:0:0:0:
128,192,75980,1,8,0:0:0:0:
42,192,76415,1,2,0:0:0:0:
128,192,76849,1,8,0:0:0:0:
42,192,77284,1,2,0:0:0:0:
128,192,77719,1,8,0:0:0:0:
42,192,78154,1,2,0:0:0:0:
384,192,78154,1,0,0:0:0:65:cling.wav
128,192,78589,1,8,0:0:0:0:
42,192,79023,1,2,0:0:0:0:
128,192,79458,1,8,0:0:0:0:
42,192,79893,1,2,0:0:0:0:
128,192,80328,1,8,0:0:0:0:
42,192,80762,1,2,0:0:0:0:
128,192,81197,1,8,0:0:0:0:
42,192,81632,1,2,0:0:0:0:
128,192,82067,1,8,0:0:0:0:
42,192,82502,1,2,0:0:0:0:
128,192,82936,1,8,0:0:0:0:
469,192,82936,1,4,0:0:0:0:
42,192,83371,1,2,0:0:0:0:
469,192,83371,1,4,0:0:0:0:
128,192,83806,1,8,0:0:0:0:
42,192,84241,1,2,0:0:0:0:
128,192,84676,1,8,0:0:0:0:
469,192,84676,1,4,0:0:0:0:
42,192,85110,1,2,0:0:0:0:
469,192,85110,1,4,0:0:0:0:
128,192,85545,1,8,0:0:0:0:
42,192,85980,1,2,0:0:0:0:
469,192,85980,1,4,0:0:0:0:
42,192,86197,1,2,0:0:0:0:
128,192,86415,1,8,0:0:0:0:
42,192,86632,1,2,0:0:0:0:
42,192,86741,1,2,0:0:0:0:
42,192,86849,1,2,0:0:0:0:
469,192,86849,1,4,0:0:0:0:
42,192,87067,1,2,0:0:0:0:
128,192,87284,1,8,0:0:0:0:
42,192,87502,1,2,0:0:0:0:
42,192,87610,1,2,0:0:0:0:
42,192,87719,1,2,0:0:0:0:
469,192,87719,1,4,0:0:0:0:
298,192,88154,1,0,0:0:0:50:Clap.wav
298,192,89023,1,0,0:0:0:50:Clap.wav
298,192,89893,1,0,0:0:0:50:Clap.wav
42,192,90762,1,2,0:0:0:0:
42,192,90980,1,2,0:0:0:0:
42,192,91089,1,2,0:0:0:0:
42,192,91197,1,2,0:0:0:0:
469,192,91197,1,4,0:0:0:0:
128,192,91632,1,8,0:0:0:0:
42,192,92067,1,2,0:0:0:0:
128,192,92502,1,8,0:0:0:0:
42,192,92936,1,2,0:0:0:0:
128,192,93371,1,8,0:0:0:0:
42,192,93806,1,2,0:0:0:0:
384,192,93806,1,0,0:0:0:65:cling.wav
128,192,94241,1,8,0:0:0:0:
42,192,94676,1,2,0:0:0:0:
128,192,95110,1,8,0:0:0:0:
42,192,95545,1,2,0:0:0:0:
128,192,95980,1,8,0:0:0:0:
42,192,96415,1,2,0:0:0:0:
128,192,96849,1,8,0:0:0:0:
42,192,97284,1,2,0:0:0:0:
384,192,97284,1,0,0:0:0:65:cling.wav
128,192,97719,1,8,0:0:0:0:
469,192,98154,1,4,0:0:0:0:
42,192,98154,1,2,0:0:0:0:
128,192,98589,1,8,0:0:0:0:
42,192,99023,1,2,0:0:0:0:
128,192,99458,1,8,0:0:0:0:
42,192,99893,1,2,0:0:0:0:
128,192,100328,1,8,0:0:0:0:
42,192,100762,1,2,0:0:0:0:
384,192,100762,1,0,0:0:0:65:cling.wav
128,192,101197,1,8,0:0:0:0:
42,192,101632,1,2,0:0:0:0:
469,192,101632,1,4,0:0:0:0:
128,192,102067,1,8,0:0:0:0:
42,192,102502,1,2,0:0:0:0:
128,192,102936,1,8,0:0:0:0:
42,192,103371,1,2,0:0:0:0:
469,192,103371,1,4,0:0:0:0:
128,192,103806,1,8,0:0:0:0:
42,192,104241,1,2,0:0:0:0:
469,192,104241,1,4,0:0:0:0:
42,192,104458,1,2,0:0:0:0:
128,192,104676,1,8,0:0:0:0:
469,192,104676,1,4,0:0:0:0:
42,192,104893,1,2,0:0:0:0:
42,192,105002,1,2,0:0:0:0:
469,192,105110,1,4,0:0:0:0:
42,192,105110,1,2,0:0:0:0:
128,192,105545,1,8,0:0:0:0:
42,192,105980,1,2,0:0:0:0:
128,192,106415,1,8,0:0:0:0:
42,192,106849,1,2,0:0:0:0:
128,192,107284,1,8,0:0:0:0:
42,192,107719,1,2,0:0:0:0:
128,192,108154,1,8,0:0:0:0:
42,192,108589,1,2,0:0:0:0:
128,192,109023,1,8,0:0:0:0:
42,192,109458,1,2,0:0:0:0:
128,192,109893,1,8,0:0:0:0:
42,192,110328,1,2,0:0:0:0:
128,192,110762,1,8,0:0:0:0:
42,192,111197,1,2,0:0:0:0:
128,192,111632,1,8,0:0:0:0:
42,192,112067,1,2,0:0:0:0:
469,192,112067,1,4,0:0:0:0:
128,192,112502,1,8,0:0:0:0:
42,192,112936,1,2,0:0:0:0:
128,192,113371,1,8,0:0:0:0:
42,192,113806,1,2,0:0:0:0:
128,192,114241,1,8,0:0:0:0:
42,192,114676,1,2,0:0:0:0:
128,192,115110,1,8,0:0:0:0:
42,192,115545,1,2,0:0:0:0:
128,192,115980,1,8,0:0:0:0:
42,192,116415,1,2,0:0:0:0:
128,192,116849,1,8,0:0:0:0:
42,192,117284,1,2,0:0:0:0:
128,192,117719,1,8,0:0:0:0:
42,192,118154,1,2,0:0:0:0:
42,192,118371,1,2,0:0:0:0:
128,192,118589,1,8,0:0:0:0:
42,192,118806,1,2,0:0:0:0:
42,192,118915,1,2,0:0:0:0:
469,192,119023,1,4,0:0:0:0:
42,192,119023,1,2,0:0:0:0:
128,192,119458,1,8,0:0:0:0:
42,192,119893,1,2,0:0:0:0:
128,192,120328,1,8,0:0:0:0:
42,192,120762,1,2,0:0:0:0:
128,192,121197,1,8,0:0:0:0:
42,192,121632,1,2,0:0:0:0:
128,192,122067,1,8,0:0:0:0:
42,192,122502,1,2,0:0:0:0:
128,192,122936,1,8,0:0:0:0:
42,192,123371,1,2,0:0:0:0:
128,192,123806,1,8,0:0:0:0:
42,192,124241,1,2,0:0:0:0:
128,192,124676,1,8,0:0:0:0:
42,192,125110,1,2,0:0:0:0:
42,192,125328,1,2,0:0:0:0:
128,192,125545,1,8,0:0:0:0:
42,192,125762,1,2,0:0:0:0:
469,192,125980,1,4,0:0:0:0:
42,192,125980,1,2,0:0:0:0:
128,192,126415,1,8,0:0:0:0:
42,192,126849,1,2,0:0:0:0:
128,192,127284,1,8,0:0:0:0:
42,192,127719,1,2,0:0:0:0:
128,192,128154,1,8,0:0:0:0:
42,192,128589,1,2,0:0:0:0:
384,192,128589,1,0,0:0:0:65:cling.wav
128,192,129023,1,8,0:0:0:0:
42,192,129241,1,2,0:0:0:0:
42,192,129458,1,2,0:0:0:0:
469,192,129458,1,4,0:0:0:0:
42,192,129784,1,2,0:0:0:0:
128,192,129893,1,8,0:0:0:0:
42,192,130110,1,2,0:0:0:0:
42,192,130328,1,2,0:0:0:0:
469,192,130328,1,4,0:0:0:0:
42,192,130654,1,2,0:0:0:0:
128,192,130762,1,8,0:0:0:0:
42,192,130980,1,2,0:0:0:0:
42,192,131197,1,2,0:0:0:0:
42,192,131523,1,2,0:0:0:0:
128,192,131632,1,8,0:0:0:0:
42,192,131849,1,2,0:0:0:0:
42,192,132067,1,2,0:0:0:0:
298,192,132502,1,0,0:0:0:65:Clap.wav
42,192,132936,1,2,0:0:0:0:
469,192,132936,1,4,0:0:0:0:
128,192,133371,1,8,0:0:0:0:
42,192,133806,1,2,0:0:0:0:
128,192,134241,1,8,0:0:0:0:
42,192,134676,1,2,0:0:0:0:
128,192,135110,1,8,0:0:0:0:
42,192,135545,1,2,0:0:0:0:
384,192,135545,1,0,0:0:0:65:cling.wav
128,192,135980,1,8,0:0:0:0:
42,192,136415,1,2,0:0:0:0:
128,192,136849,1,8,0:0:0:0:
42,192,137284,1,2,0:0:0:0:
128,192,137719,1,8,0:0:0:0:
42,192,138154,1,2,0:0:0:0:
128,192,138589,1,8,0:0:0:0:
42,192,139023,1,2,0:0:0:0:
384,192,139023,1,0,0:0:0:65:cling.wav
128,192,139458,1,8,0:0:0:0:
42,192,139893,1,2,0:0:0:0:
128,192,140328,1,8,0:0:0:0:
469,192,140328,1,4,0:0:0:0:
42,192,140762,1,2,0:0:0:0:
469,192,140762,1,4,0:0:0:0:
128,192,141197,1,8,0:0:0:0:
42,192,141632,1,2,0:0:0:0:
128,192,142067,1,8,0:0:0:0:
469,192,142067,1,4,0:0:0:0:
42,192,142502,1,2,0:0:0:0:
469,192,142502,1,4,0:0:0:0:
128,192,142936,1,8,0:0:0:0:
42,192,143371,1,2,0:0:0:0:
469,192,143371,1,4,0:0:0:0:
128,192,143806,1,8,0:0:0:0:
42,192,144241,1,2,0:0:0:0:
128,192,144676,1,8,0:0:0:0:
42,192,145110,1,2,0:0:0:0:
469,192,145110,1,4,0:0:0:0:
128,192,145545,1,8,0:0:0:0:
42,192,145871,1,2,0:0:0:0:
42,192,145980,1,2,0:0:0:0:
469,192,145980,1,4,0:0:0:0:
42,192,146197,1,2,0:0:0:0:
128,192,146415,1,8,0:0:0:0:
469,192,146415,1,4,0:0:0:0:
42,192,146632,1,2,0:0:0:0:
42,192,146741,1,2,0:0:0:0:
469,192,146849,1,4,0:0:0:0:
42,192,146849,1,2,0:0:0:0:
128,192,147284,1,8,0:0:0:0:
42,192,147719,1,2,0:0:0:0:
128,192,148154,1,8,0:0:0:0:
42,192,148589,1,2,0:0:0:0:
128,192,149023,1,8,0:0:0:0:
42,192,149458,1,2,0:0:0:0:
384,192,149458,1,0,0:0:0:65:cling.wav
128,192,149893,1,8,0:0:0:0:
42,192,150328,1,2,0:0:0:0:
128,192,150762,1,8,0:0:0:0:
42,192,151197,1,2,0:0:0:0:
128,192,151632,1,8,0:0:0:0:
42,192,152067,1,2,0:0:0:0:
128,192,152502,1,8,0:0:0:0:
42,192,152936,1,2,0:0:0:0:
384,192,152936,1,0,0:0:0:65:cling.wav
128,192,153371,1,8,0:0:0:0:
42,192,153806,1,2,0:0:0:0:
128,192,154241,1,8,0:0:0:0:
469,192,154241,1,4,0:0:0:0:
42,192,154676,1,2,0:0:0:0:
469,192,154676,1,4,0:0:0:0:
128,192,155110,1,8,0:0:0:0:
42,192,155545,1,2,0:0:0:0:
128,192,155980,1,8,0:0:0:0:
469,192,155980,1,4,0:0:0:0:
42,192,156415,1,2,0:0:0:0:
469,192,156415,1,4,0:0:0:0:
128,192,156849,1,8,0:0:0:0:
42,192,157284,1,2,0:0:0:0:
469,192,157284,1,4,0:0:0:0:
42,192,157502,1,2,0:0:0:0:
128,192,157719,1,8,0:0:0:0:
42,192,157936,1,2,0:0:0:0:
42,192,158045,1,2,0:0:0:0:
42,192,158154,1,2,0:0:0:0:
469,192,158154,1,4,0:0:0:0:
42,192,158371,1,2,0:0:0:0:
128,192,158589,1,8,0:0:0:0:
42,192,158806,1,2,0:0:0:0:
42,192,158915,1,2,0:0:0:0:
42,192,159023,1,2,0:0:0:0:
469,192,159023,1,4,0:0:0:0:
298,192,159458,1,0,0:0:0:50:Clap.wav
213,192,159893,1,0,0:0:0:65:LR_Snare Hat.wav
298,192,160328,1,0,0:0:0:50:Clap.wav
213,192,160762,1,0,0:0:0:65:LR_Snare Hat.wav
298,192,161197,1,0,0:0:0:50:Clap.wav
213,192,161632,1,0,0:0:0:40:LR_Snare Hat.wav
213,192,161741,1,0,0:0:0:65:LR_Snare Hat.wav
213,192,161849,1,0,0:0:0:40:LR_Snare Hat.wav
298,192,162067,1,0,0:0:0:50:Clap.wav
213,192,162502,1,0,0:0:0:65:LR_Snare Hat.wav
469,192,162502,1,4,0:0:0:0:
298,192,162936,1,0,0:0:0:50:Clap.wav
213,192,163262,1,0,0:0:0:65:LR_Snare Hat.wav
213,192,163371,1,0,0:0:0:40:LR_Snare Hat.wav
298,192,163806,1,0,0:0:0:50:Clap.wav
213,192,164241,1,0,0:0:0:65:LR_Snare Hat.wav
42,192,164349,1,2,0:0:0:0:
42,192,164458,1,2,0:0:0:0:
469,192,164458,1,4,0:0:0:0:
469,192,164676,1,4,0:0:0:0:
42,192,164676,1,2,0:0:0:0:
42,192,164893,1,2,0:0:0:0:
42,192,165002,1,2,0:0:0:0:
42,192,165219,1,2,0:0:0:0:
42,192,165328,1,2,0:0:0:0:
42,192,165436,1,2,0:0:0:0:
42,192,165545,1,2,0:0:0:0:
42,192,165599,1,2,0:0:0:0:
42,192,165654,1,2,0:0:0:0:
42,192,165708,1,2,0:0:0:0:
42,192,165762,1,2,0:0:0:0:
42,192,165871,1,2,0:0:0:0:
469,192,165980,1,4,0:0:0:0:
42,192,165980,1,2,0:0:0:0:
128,192,166415,1,8,0:0:0:0:
42,192,166849,1,2,0:0:0:0:
128,192,167284,1,8,0:0:0:0:
42,192,167719,1,2,0:0:0:0:
128,192,168154,1,8,0:0:0:0:
42,192,168589,1,2,0:0:0:0:
384,192,168589,1,0,0:0:0:65:cling.wav
128,192,169023,1,8,0:0:0:0:
42,192,169458,1,2,0:0:0:0:
128,192,169893,1,8,0:0:0:0:
42,192,170328,1,2,0:0:0:0:
128,192,170762,1,8,0:0:0:0:
42,192,171197,1,2,0:0:0:0:
128,192,171632,1,8,0:0:0:0:
42,192,172067,1,2,0:0:0:0:
384,192,172067,1,0,0:0:0:65:cling.wav
128,192,172502,1,8,0:0:0:0:
42,192,172936,1,2,0:0:0:0:
128,192,173371,1,8,0:0:0:0:
469,192,173371,1,4,0:0:0:0:
42,192,173806,1,2,0:0:0:0:
469,192,173806,1,4,0:0:0:0:
128,192,174241,1,8,0:0:0:0:
42,192,174676,1,2,0:0:0:0:
128,192,175110,1,8,0:0:0:0:
469,192,175110,1,4,0:0:0:0:
42,192,175545,1,2,0:0:0:0:
469,192,175545,1,4,0:0:0:0:
128,192,175980,1,8,0:0:0:0:
42,192,176415,1,2,0:0:0:0:
469,192,176415,1,4,0:0:0:0:
42,192,176632,1,2,0:0:0:0:
128,192,176849,1,8,0:0:0:0:
42,192,177067,1,2,0:0:0:0:
42,192,177176,1,2,0:0:0:0:
42,192,177284,1,2,0:0:0:0:
469,192,177284,1,4,0:0:0:0:
42,192,177502,1,2,0:0:0:0:
128,192,177719,1,8,0:0:0:0:
42,192,177936,1,2,0:0:0:0:
42,192,178045,1,2,0:0:0:0:
42,192,178154,1,2,0:0:0:0:
469,192,178154,1,4,0:0:0:0:
42,192,178371,1,2,0:0:0:0:
42,192,178480,1,2,0:0:0:0:
42,192,178589,1,2,0:0:0:0:
42,192,178697,1,2,0:0:0:0:
42,192,178752,1,2,0:0:0:0:
42,192,178806,1,2,0:0:0:0:
42,192,178860,1,2,0:0:0:0:
42,192,178915,1,2,0:0:0:0:
42,192,178969,1,2,0:0:0:0:
42,192,179023,1,2,0:0:0:0:
469,192,179023,1,4,0:0:0:0:
42,192,179132,1,2,0:0:0:0:
42,192,179241,1,2,0:0:0:0:
42,192,179349,1,2,0:0:0:0:
42,192,179458,1,2,0:0:0:0:
42,192,179567,1,2,0:0:0:0:
42,192,179676,1,2,0:0:0:0:
42,192,179784,1,2,0:0:0:0:
42,192,179893,1,2,0:0:0:0:
469,192,179893,1,4,0:0:0:0:
298,192,180328,1,0,0:0:0:50:Clap.wav
213,192,180762,1,0,0:0:0:65:LR_Snare Hat.wav
298,192,181197,1,0,0:0:0:50:Clap.wav
213,192,181632,1,0,0:0:0:65:LR_Snare Hat.wav
298,192,182067,1,0,0:0:0:50:Clap.wav
213,192,182502,1,0,0:0:0:65:LR_Snare Hat.wav
213,192,182719,1,0,0:0:0:65:LR_Snare Hat.wav
213,192,182773,1,0,0:0:0:65:LR_Snare Hat.wav
213,192,182828,1,0,0:0:0:65:LR_Snare Hat.wav
213,192,182882,1,0,0:0:0:65:LR_Snare Hat.wav
298,192,182936,1,0,0:0:0:50:Clap.wav
213,192,183154,1,0,0:0:0:65:LR_Snare Hat.wav
128,192,183806,1,8,0:0:0:0:
469,192,183806,1,4,0:0:0:0:
42,192,184241,1,2,0:0:0:0:
128,192,184676,1,8,0:0:0:0:
42,192,185110,1,2,0:0:0:0:
128,192,185545,1,8,0:0:0:0:
42,192,185980,1,2,0:0:0:0:
384,192,185980,1,0,0:0:0:65:cling.wav
128,192,186415,1,8,0:0:0:0:
42,192,186849,1,2,0:0:0:0:
128,192,187284,1,8,0:0:0:0:
42,192,187719,1,2,0:0:0:0:
128,192,188154,1,8,0:0:0:0:
42,192,188589,1,2,0:0:0:0:
128,192,189023,1,8,0:0:0:0:
42,192,189458,1,2,0:0:0:0:
384,192,189458,1,0,0:0:0:65:cling.wav
128,192,189893,1,8,0:0:0:0:
42,192,190328,1,2,0:0:0:0:
128,192,190762,1,8,0:0:0:0:
469,192,190762,1,4,0:0:0:0:
42,192,191197,1,2,0:0:0:0:
469,192,191197,1,4,0:0:0:0:
128,192,191632,1,8,0:0:0:0:
42,192,192067,1,2,0:0:0:0:
128,192,192502,1,8,0:0:0:0:
469,192,192502,1,4,0:0:0:0:
42,192,192936,1,2,0:0:0:0:
469,192,192936,1,4,0:0:0:0:
128,192,193371,1,8,0:0:0:0:
42,192,193806,1,2,0:0:0:0:
469,192,193806,1,4,0:0:0:0:
128,192,194241,1,8,0:0:0:0:
42,192,194676,1,2,0:0:0:0:
128,192,195110,1,8,0:0:0:0:
42,192,195545,1,2,0:0:0:0:
469,192,195545,1,4,0:0:0:0:
128,192,195980,1,8,0:0:0:0:
42,192,196306,1,2,0:0:0:0:
42,192,196415,1,2,0:0:0:0:
469,192,196415,1,4,0:0:0:0:
42,192,196632,1,2,0:0:0:0:
128,192,196849,1,8,0:0:0:0:
469,192,196849,1,4,0:0:0:0:
42,192,197067,1,2,0:0:0:0:
42,192,197176,1,2,0:0:0:0:
469,192,197284,1,4,0:0:0:0:
42,192,197284,1,2,0:0:0:0:
128,192,197719,1,8,0:0:0:0:
42,192,198154,1,2,0:0:0:0:
128,192,198589,1,8,0:0:0:0:
42,192,199023,1,2,0:0:0:0:
128,192,199458,1,8,0:0:0:0:
42,192,199893,1,2,0:0:0:0:
384,192,199893,1,0,0:0:0:65:cling.wav
128,192,200328,1,8,0:0:0:0:
42,192,200762,1,2,0:0:0:0:
128,192,201197,1,8,0:0:0:0:
42,192,201632,1,2,0:0:0:0:
128,192,202067,1,8,0:0:0:0:
42,192,202502,1,2,0:0:0:0:
128,192,202936,1,8,0:0:0:0:
42,192,203371,1,2,0:0:0:0:
384,192,203371,1,0,0:0:0:65:cling.wav
128,192,203806,1,8,0:0:0:0:
42,192,204241,1,2,0:0:0:0:
128,192,204676,1,8,0:0:0:0:
469,192,204676,1,4,0:0:0:0:
42,192,205110,1,2,0:0:0:0:
469,192,205110,1,4,0:0:0:0:
128,192,205545,1,8,0:0:0:0:
42,192,205980,1,2,0:0:0:0:
128,192,206415,1,8,0:0:0:0:
469,192,206415,1,4,0:0:0:0:
42,192,206849,1,2,0:0:0:0:
469,192,206849,1,4,0:0:0:0:
128,192,207284,1,8,0:0:0:0:
42,192,207719,1,2,0:0:0:0:
469,192,207719,1,4,0:0:0:0:
42,192,208045,1,2,0:0:0:0:
128,192,208154,1,8,0:0:0:0:
42,192,208371,1,2,0:0:0:0:
42,192,208589,1,2,0:0:0:0:
469,192,208589,1,4,0:0:0:0:
42,192,208915,1,2,0:0:0:0:
128,192,209023,1,8,0:0:0:0:
42,192,209241,1,2,0:0:0:0:
42,192,209458,1,2,0:0:0:0:
469,192,209458,1,4,0:0:0:0:
