osu file format v14

[General]
AudioFilename: touhou.mp3
AudioLeadIn: 0
PreviewTime: 61007
Countdown: 0
SampleSet: Normal
StackLeniency: 0.4
Mode: 0
LetterboxInBreaks: 0
EpilepsyWarning: 1
WidescreenStoryboard: 1

[Editor]
Bookmarks: 32855,53616
DistanceSpacing: 1.1
BeatDivisor: 4
GridSize: 8
TimelineZoom: 1

[Metadata]
Title:Iro wa Nioedo Chirinuru o(TV Size)
TitleUnicode:色は匂へど 散りぬるを(TV Size)
Artist:senya
ArtistUnicode:senya
Creator:Suissie
Version:Normal
Source:東方Project
Tags:
BeatmapID:1280012
BeatmapSetID:588894

[Difficulty]
HPDrainRate:2
CircleSize:3
OverallDifficulty:2
ApproachRate:3
SliderMultiplier:1.2
SliderTickRate:1

[Events]
//Background and Video events
0,0,"BG.png",0,0
//Break Periods
//Storyboard Layer 0 (Background)
//Storyboard Layer 1 (Fail)
//Storyboard Layer 2 (Pass)
//Storyboard Layer 3 (Foreground)
//Storyboard Sound Samples

[TimingPoints]
138,434.782608695652,4,1,0,30,1,0
138,-133.333333333333,4,1,0,30,0,0
17964,434.782608695652,4,1,0,30,1,0
17964,-83.3333333333333,4,1,0,30,0,0
31877,-111.111111111111,4,1,0,30,0,0
45790,-100,4,1,0,30,0,0
61442,-76.9230769230769,4,1,0,30,0,1
87529,-76.9230769230769,4,1,0,30,0,0

[Colours]
Combo1 : 128,0,0
Combo2 : 0,128,0
Combo3 : 0,128,128

[HitObjects]
56,256,1877,6,0,B|184:192|184:320|328:256,1,270.000010299683
488,216,3616,2,0,P|416:240|520:320,1,270.000010299683
328,344,5355,6,0,P|296:344|144:280,1,180.000006866455
120,176,6659,1,0,3:0:0:0:
224,224,7094,2,0,P|321:254|401:231,1,180.000006866455
376,128,8398,1,0,0:0:0:0:
272,104,8833,6,0,L|88:72,1,180.000006866455
120,168,10137,1,0,0:0:0:0:
216,192,10572,2,0,L|400:224,1,180.000006866455
360,120,11877,1,0,0:0:0:0:
248,88,12311,6,0,P|128:112|120:248,1,270.000010299683
256,192,14051,12,0,17529,0:0:0:0:
72,264,17964,6,0,L|224:272,1,143.999995605469
424,208,18833,2,0,L|272:200,1,143.999995605469
88,104,19703,6,0,B|159:109|159:109|240:51,1,143.999995605469
432,80,20572,2,0,B|361:75|361:75|280:133,1,143.999995605469
256,256,21442,5,0,0:0:0:0:
376,176,21877,1,0,0:0:0:0:
472,288,22311,1,0,0:0:0:0:
344,352,22746,6,0,L|240:344,1,71.9999978027344
216,296,23181,2,0,L|56:280,1,143.999995605469
24,224,23833,2,0,L|32:144,1,71.9999978027344
208,32,24485,2,0,L|200:112,1,71.9999978027344
192,176,24920,6,0,P|240:168|264:72,1,143.999995605469
384,192,25790,2,0,P|336:200|312:296,1,143.999995605469
120,360,26659,2,0,L|232:248,1,143.999995605469
320,152,27529,1,0,0:0:0:0:
416,40,27963,2,0,L|312:40,1,71.9999978027344
272,48,28398,6,0,B|208:80|208:80|168:176,1,143.999995605469
136,280,29268,1,0,0:0:0:0:
272,320,29703,1,0,0:0:0:0:
328,184,30137,6,0,L|424:152,2,71.9999978027344
115,161,31007,2,0,L|184:184,2,71.9999978027344
256,56,31877,6,0,B|288:120|376:104|376:104|416:176,1,215.999993408203
384,296,33181,1,0,0:0:0:0:
256,328,33616,2,0,B|224:264|136:280|136:280|99:213,1,215.999993408203
80,96,34920,1,0,0:0:0:0:
208,48,35355,6,0,P|272:104|352:96,1,161.999995056153
464,40,36442,1,0,0:0:0:0:
424,168,37094,2,0,B|384:240|448:248|408:344,1,161.999995056153
328,336,37963,2,0,P|280:328|208:232,1,161.999995056153
160,112,38833,6,0,P|208:96|312:208,1,215.999993408203
304,320,40137,1,0,0:0:0:0:
190,284,40572,2,0,P|138:246|161:110,1,215.999993408203
264,160,41877,1,0,0:0:0:0:
384,128,42311,6,0,L|480:72,2,107.999996704102
288,192,43616,1,0,0:0:0:0:
397,240,44050,6,0,P|369:289|253:304,1,161.999995056153
192,280,44920,2,0,B|156:250|144:192|144:192|112:217|72:219,1,161.999995056153
82,127,45790,6,0,P|114:103|230:173,1,180
280,256,46659,2,0,P|343:313|424:284,1,180
504,200,47529,2,0,B|424:136|400:232|336:144,1,180
304,64,48398,1,0,0:0:0:0:
160,80,48833,1,0,0:0:0:0:
104,216,49268,6,0,L|80:344,2,120
192,152,50572,1,0,0:0:0:0:
272,224,51007,2,0,L|296:352,2,120
192,152,52311,1,0,0:0:0:0:
320,96,52746,6,0,P|368:96|440:152,1,120
440,184,53398,1,0,0:0:0:0:
400,216,53616,2,0,P|340:212|292:178,1,120
296,128,54268,1,0,0:0:0:0:
296,72,54485,2,0,P|240:24|136:32,1,180
87,96,55355,6,0,P|126:114|175:104,2,90
112,168,56224,2,0,P|68:175|27:157,2,90
64,232,57094,2,0,P|104:250|148:242,2,90
104,312,57963,2,0,P|160:328|240:312,2,120
256,192,58942,12,0,60790,0:0:0:0:
192,152,61007,5,0,0:0:0:0:
283,152,61442,2,0,P|261:92|111:194,1,311.999985717774
168,288,62746,1,0,0:0:0:0:
312,272,63181,2,0,L|472:248,2,155.999992858887
168,288,64485,1,0,0:0:0:0:
72,200,64920,6,0,P|56:160|104:64,1,155.999992858887
232,48,65790,2,0,L|320:40,3,77.9999964294435
392,32,66659,1,0,0:0:0:0:
472,184,67094,1,0,0:0:0:0:
376,328,67529,1,0,0:0:0:0:
208,288,67963,1,0,0:0:0:0:
112,144,68398,6,0,P|160:128|264:128,1,155.999992858887
432,176,69268,2,0,L|272:224,1,155.999992858887
112,248,70137,2,0,P|168:272|240:336,1,155.999992858887
402,320,71007,2,0,L|258:200,1,155.999992858887
152,104,71877,5,0,0:0:0:0:
320,80,72311,1,0,0:0:0:0:
448,192,72746,2,0,L|472:288,2,77.9999964294435
424,112,73398,1,0,0:0:0:0:
392,32,73616,6,0,P|344:88|368:176,1,155.999992858887
288,320,74485,2,0,L|192:256,1,77.9999964294435
136,272,74920,2,0,L|120:176,1,77.9999964294435
47,154,75355,6,0,P|86:115|194:149,1,155.999992858887
336,208,76224,2,0,L|296:136,1,77.9999964294435
360,80,76659,2,0,L|400:152,1,77.9999964294435
430,228,77094,2,0,P|390:284|278:284,1,155.999992858887
216,152,77963,2,0,L|144:296,1,155.999992858887
120,120,78833,6,0,P|164:64|272:72,1,155.999992858887
320,96,79485,1,0,0:0:0:0:
392,136,79703,2,0,L|392:240,2,77.9999964294435
472,176,80355,1,0,0:0:0:0:
462,277,80572,6,0,P|398:309|307:256,1,155.999992858887
200,160,81442,1,0,0:0:0:0:
80,280,81877,1,0,0:0:0:0:
117,112,82311,6,0,P|177:65|269:88,1,155.999992858887
424,40,83181,2,0,L|336:176,1,155.999992858887
216,288,84050,2,0,P|120:296|64:232,1,155.999992858887
232,184,84920,2,0,L|288:240,1,77.9999964294435
384,216,85355,2,0,L|328:160,1,77.9999964294435
268,100,85790,6,0,L|212:44,2,77.9999964294435
328,39,86442,2,0,L|383:94,2,77.9999964294435
212,44,87094,1,0,0:0:0:0:
168,120,87311,1,0,0:0:0:0:
176,208,87529,1,0,0:0:0:0:
256,192,87746,12,0,93616,0:0:0:0:
