osu file format v14

[General]
AudioFilename: touhou.mp3
AudioLeadIn: 0
PreviewTime: 61007
Countdown: 0
SampleSet: Soft
StackLeniency: 0.7
Mode: 0
LetterboxInBreaks: 0
EpilepsyWarning: 1
WidescreenStoryboard: 1

[Editor]
DistanceSpacing: 1
BeatDivisor: 8
GridSize: 8
TimelineZoom: 1

[Metadata]
Title:Iro wa Nioedo Chirinuru o(OPver.)
TitleUnicode:色は匂へど 散りぬるを(OPver.)
Artist:senya
ArtistUnicode:senya
Creator:Left
Version:Hard
Source:東方Project
Tags:Down Touhou Yuuhei Satellite manpuku jinja reitaisai zun kamasetora iceon fantasy kaleidoscope memories phantasm 幽閉サテライト Mayumi Morinaga 森永真由美 神々が恋した幻想郷 The Gensokyo the Gods Loved 河城にとり kawashiro nitori
BeatmapID:854598
BeatmapSetID:392495

[Difficulty]
HPDrainRate:5
CircleSize:3.7
OverallDifficulty:6.5
ApproachRate:7
SliderMultiplier:1.4
SliderTickRate:1

[Events]
//Background and Video events
0,0,"bginsane.png",0,0
//Break Periods
2,59032,60107
//Storyboard Layer 0 (Background)
//Storyboard Layer 1 (Fail)
//Storyboard Layer 2 (Pass)
//Storyboard Layer 3 (Foreground)
//Storyboard Sound Samples

[TimingPoints]
1878,434.782608695652,4,2,2,30,1,0
13943,-142.857142857143,4,2,2,30,0,0
17964,434.782608695652,4,1,2,50,1,0
17964,-83.3333333333333,4,1,2,50,0,0
31877,-125,4,2,2,30,0,0
45681,-100,4,1,2,55,0,0
56224,-100,4,1,2,65,0,0
60898,-100,4,2,2,40,0,0
61442,-83.3333333333333,4,1,2,65,0,1
86659,-83.3333333333333,4,1,2,50,0,1
87529,-83.3333333333333,4,1,2,45,0,0
87746,-83.3333333333333,4,2,2,30,0,0

[Colours]
Combo1 : 255,255,142
Combo2 : 255,128,255
Combo3 : 70,163,255

[HitObjects]
111,108,1878,6,0,P|81:181|109:244,1,140,2|0,0:0|0:0,0:0:0:0:
241,175,2747,2,0,L|142:177,1,70
177,255,3182,2,0,L|276:253,1,70
314,212,3617,6,0,P|323:168|300:118,1,70
246,253,4051,1,0,0:0:0:0:
318,289,4269,1,0,0:0:0:0:
318,289,4921,2,0,P|350:297|386:287,1,70
432,351,5356,6,0,P|454:327|464:291,1,70
431,222,5791,2,0,P|439:188|463:163,1,70
467,86,6225,1,2,0:0:0:0:
397,122,6443,1,0,0:0:0:0:
325,96,6660,1,0,0:0:0:0:
306,23,6877,1,0,0:0:0:0:
249,76,7095,6,0,P|246:112|254:152,1,70
291,218,7530,1,0,0:0:0:0:
291,218,7747,1,0,0:0:0:0:
249,76,8182,2,0,P|217:68|181:78,2,70
307,127,8834,6,0,P|339:135|375:125,2,70,2|0|0,0:0|0:0|0:0,0:0:0:0:
320,50,9486,1,0,0:0:0:0:
181,77,9921,1,0,0:0:0:0:
133,140,10138,1,0,0:0:0:0:
131,216,10356,1,0,0:0:0:0:
176,277,10573,6,0,L|232:215,1,70
302,211,11008,1,0,0:0:0:0:
302,211,11225,1,0,0:0:0:0:
426,310,11660,1,0,0:0:0:0:
426,310,11877,2,0,P|391:318|346:310,1,70
372,240,12312,6,0,P|337:77|294:58,1,210
277,132,13182,2,0,P|178:167|69:122,1,210
26,185,14051,6,0,P|159:242|300:210,1,293.999991027832
299,210,15791,1,0,0:0:0:0:
256,192,16008,12,0,17530,0:0:0:0:
170,220,17964,6,0,P|218:234|266:196,1,83.9999974365235,2|0,0:0|0:0,0:0:0:0:
303,157,18398,2,0,P|341:143|380:158,1,83.9999974365235,8|0,0:0|0:0,0:0:0:0:
427,230,18833,2,0,L|454:295,2,41.9999987182618,2|0|0,0:0|0:0|0:0,0:0:0:0:
344,231,19268,1,8,0:0:0:0:
344,231,19485,1,0,0:0:0:0:
303,157,19703,6,0,L|267:71,1,83.9999974365235,2|0,0:0|0:0,0:0:0:0:
187,74,20137,2,0,L|223:160,1,83.9999974365235,8|0,0:0|0:0,0:0:0:0:
158,211,20572,2,0,P|111:146|12:157,1,167.999994873047,2|8,0:0|0:0,0:0:0:0:
9,295,21224,1,0,0:0:0:0:
9,295,21442,6,0,L|71:227,1,83.9999974365235,2|0,0:0|0:0,0:0:0:0:
121,296,21877,2,0,L|183:364,1,83.9999974365235,8|0,0:0|0:0,0:0:0:0:
270,356,22311,1,2,0:0:0:0:
270,356,22420,1,0,0:0:0:0:
270,356,22529,1,0,0:0:0:0:
320,236,22746,2,0,P|262:220|223:232,1,83.9999974365235,8|0,0:0|0:0,0:0:0:0:
187,152,23181,6,0,P|258:98|272:12,1,167.999994873047,2|8,0:0|0:0,0:0:0:0:
347,81,23833,1,0,0:0:0:0:
347,81,24050,2,0,P|339:127|371:177,1,83.9999974365235,2|0,0:0|0:0,0:0:0:0:
428,196,24485,2,0,P|436:150|404:100,1,83.9999974365235,8|0,0:0|0:0,0:0:0:0:
355,254,24920,6,0,L|444:298,1,83.9999974365235,2|0,0:0|0:0,0:0:0:0:
360,338,25355,2,0,L|272:295,1,83.9999974365235,8|0,0:0|0:0,0:0:0:0:
258,204,25790,2,0,P|226:280|143:305,1,167.999994873047,2|8,0:0|0:0,0:0:0:0:
149,305,26442,1,0,0:0:0:0:
97,140,26659,6,0,L|164:213,1,83.9999974365235,2|0,0:0|0:0,0:0:0:0:
187,124,27094,2,0,L|120:51,2,83.9999974365235,0|2|0,0:0|0:0|0:0,0:0:0:0:
272,116,27746,1,8,0:0:0:0:
272,116,27963,2,0,P|293:77|297:34,1,83.9999974365235,8|0,0:0|0:0,0:0:0:0:
362,94,28398,6,0,L|455:124,1,83.9999974365235,2|0,0:0|0:0,0:0:0:0:
473,200,28833,2,0,L|525:182,2,41.9999987182618,8|0|0,0:0|0:0|0:0,0:0:0:0:
395,231,29268,2,0,L|302:261,1,83.9999974365235,2|0,0:0|0:0,0:0:0:0:
261,326,29703,1,8,0:0:0:0:
181,310,29920,1,0,0:0:0:0:
168,226,30137,6,0,L|147:188,3,41.9999987182618,2|0|0|0,0:0|0:0|0:0|0:0,0:0:0:0:
174,162,30572,2,0,L|195:124,3,41.9999987182618,8|0|0|0,0:0|0:0|0:0|0:0,0:0:0:0:
233,132,31007,2,0,L|280:128,3,41.9999987182618,2|0|0|0,0:0|0:0|0:0|0:0,0:0:0:0:
305,105,31442,2,0,L|289:63,3,41.9999987182618,8|0|0|0,0:0|0:0|0:0|0:0,0:0:0:0:
262,39,31877,6,0,P|176:15|90:39,1,168,2|0,0:0|0:0,0:0:0:0:
91,110,32746,2,0,L|2:110,2,84
130,179,33616,6,0,P|210:154|298:190,1,168
290,260,34485,2,0,L|379:260,2,84
214,232,35355,6,0,L|213:114,1,112
213,120,36007,1,0,0:0:0:0:
243,3,36442,2,0,P|275:-2|309:7,2,56
184,55,37094,6,0,P|152:60|118:51,1,56
67,103,37529,1,0,0:0:0:0:
0,146,37746,1,0,0:0:0:0:
21,220,37963,2,0,L|40:291,1,56
112,272,38398,2,0,L|93:201,1,56
180,304,38833,6,0,P|260:324|358:289,1,168,2|0,0:0|0:0,0:0:0:0:
391,234,39703,2,0,P|437:225|487:246,2,84
311,229,40572,6,0,P|289:139|309:63,1,168
224,87,41442,2,0,P|244:32|262:3,2,84
157,132,42311,6,0,P|150:106|130:86,1,56
69,145,42746,2,0,P|89:165|97:192,1,56
165,245,43181,2,0,P|193:198|211:191,1,56
255,253,43616,2,0,P|235:273|228:300,1,56
303,314,44050,6,0,P|330:262|316:209,1,112
400,218,44703,1,0,0:0:0:0:
400,218,44920,2,0,L|465:229,1,56
491,160,45355,2,0,L|426:149,1,56
366,67,45790,6,0,P|416:81|465:65,2,105,2|0|0,0:0|0:0|0:0,0:0:0:0:
318,133,46659,2,0,P|328:183|366:219,2,105,8|0|0,0:0|0:0|0:0,0:0:0:0:
365,66,47529,6,0,L|302:35,1,70,2|0,0:0|0:0,0:0:0:0:
232,76,47963,2,0,L|169:107,1,70,8|0,0:0|0:0,0:0:0:0:
104,159,48398,2,0,P|87:123|91:81,1,70,2|0,0:0|0:0,0:0:0:0:
152,41,48833,2,0,P|169:77|165:119,1,70,8|0,0:0|0:0,0:0:0:0:
182,186,49268,6,0,P|248:205|323:177,1,140,2|8,0:0|0:0,0:0:0:0:
316,106,49920,1,0,0:0:0:0:
316,106,50137,2,0,P|356:161|432:185,1,140,2|8,0:0|0:0,0:0:0:0:
492,131,50790,1,0,0:0:0:0:
492,131,51007,6,0,L|411:99,1,70,2|0,0:0|0:0,0:0:0:0:
410,21,51442,2,0,L|491:53,1,70,8|0,0:0|0:0,0:0:0:0:
356,82,51877,2,0,P|332:43|329:8,1,70,2|0,0:0|0:0,0:0:0:0:
268,89,52311,2,0,P|292:128|295:163,1,70,8|0,0:0|0:0,0:0:0:0:
251,0,52746,6,0,P|203:21|149:0,2,105,2|0|0,0:0|0:0|0:0,0:0:0:0:
328,19,53616,2,0,P|376:-2|430:19,2,105,8|0|0,0:0|0:0|0:0,0:0:0:0:
379,146,54485,6,0,L|377:76,1,70,2|0,0:0|0:0,0:0:0:0:
300,92,54920,2,0,L|302:162,1,70,8|0,0:0|0:0,0:0:0:0:
355,218,55355,2,0,L|396:256,4,35,2|0|0|0|8,0:0|0:0|0:0|0:0|0:0,0:0:0:0:
279,238,56007,1,0,0:0:0:0:
196,152,56224,6,0,P|208:205|192:263,2,105,2|8|2,0:0|0:0|0:0,0:0:0:0:
118,204,57094,2,0,P|106:151|122:93,2,105,2|2|2,0:0|0:0|0:0,0:0:0:0:
138,300,57963,2,0,P|69:313|-12:269,2,140,2|8|2,0:0|0:0|0:0,0:0:0:0:
395,249,61007,6,0,L|394:177,1,70
388,72,61442,6,0,P|346:59|304:77,1,83.9999974365235,6|0,0:0|0:0,0:0:0:0:
263,152,61877,2,0,P|223:165|184:152,1,83.9999974365235,8|0,0:0|0:0,0:0:0:0:
118,85,62311,1,2,0:0:0:0:
97,177,62529,2,0,L|86:228,2,41.9999987182618,0|0|8,0:0|0:0|0:0,0:0:0:0:
25,115,62963,1,0,0:0:0:0:
118,85,63181,6,0,L|219:56,1,83.9999974365235,2|0,0:0|0:0,0:0:0:0:
294,21,63616,2,0,P|304:69|284:116,1,83.9999974365235,8|0,0:0|0:0,0:0:0:0:
221,168,64050,2,0,L|301:191,1,83.9999974365235
400,218,64485,1,8,0:0:0:0:
400,218,64703,1,0,0:0:0:0:
297,282,64920,6,0,P|258:298|212:282,1,83.9999974365235,2|0,0:0|0:0,0:0:0:0:
151,221,65355,2,0,P|112:205|66:221,1,83.9999974365235,8|0,0:0|0:0,0:0:0:0:
134,311,65790,1,2,0:0:0:0:
221,287,66007,1,0,0:0:0:0:
245,198,66224,1,8,0:0:0:0:
178,130,66442,1,0,0:0:0:0:
277,102,66659,6,0,P|316:118|362:102,1,83.9999974365235,2|0,0:0|0:0,0:0:0:0:
398,27,67094,2,0,P|359:11|313:27,1,83.9999974365235,8|0,0:0|0:0,0:0:0:0:
446,106,67529,2,0,L|496:126,2,41.9999987182618,2|0|0,0:0|0:0|0:0,0:0:0:0:
413,202,67963,1,8,0:0:0:0:
379,293,68181,1,0,0:0:0:0:
292,249,68398,6,0,P|243:242|197:259,1,83.9999974365235,2|0,0:0|0:0,0:0:0:0:
160,322,68833,2,0,P|119:331|78:324,1,83.9999974365235,8|0,0:0|0:0,0:0:0:0:
122,247,69268,1,2,0:0:0:0:
122,247,69485,1,0,0:0:0:0:
59,187,69703,1,8,0:0:0:0:
59,187,69920,1,0,0:0:0:0:
142,163,70137,6,0,L|228:162,1,83.9999974365235,2|0,0:0|0:0,0:0:0:0:
192,81,70572,2,0,L|106:82,1,83.9999974365235,8|0,0:0|0:0,0:0:0:0:
276,95,71007,1,2,0:0:0:0:
276,95,71224,1,0,0:0:0:0:
332,31,71442,1,8,0:0:0:0:
332,31,71659,1,0,0:0:0:0:
359,116,71877,6,0,P|402:125|443:113,2,83.9999974365235,2|0|2,0:0|0:0|0:0,0:0:0:0:
276,95,72529,1,0,0:0:0:0:
276,95,72746,2,0,P|279:138|303:174,1,83.9999974365235,2|2,0:0|0:0,0:0:0:0:
379,203,73181,2,0,P|400:238|403:280,1,83.9999974365235,8|2,0:0|0:0,0:0:0:0:
340,336,73616,6,0,L|340:388,3,41.9999987182618,2|0|0|0,0:0|0:0|0:0|0:0,0:0:0:0:
292,333,74050,2,0,L|292:291,3,41.9999987182618,2|0|0|2,0:0|0:0|0:0|0:0,0:0:0:0:
246,338,74485,1,10,0:0:0:0:
203,263,74703,1,2,0:0:0:0:
118,251,74920,1,8,0:0:0:0:
55,310,75137,1,8,0:0:0:0:
107,156,75355,6,0,P|146:143|187:151,1,83.9999974365235,6|0,0:0|0:0,0:0:0:0:
249,223,75790,2,0,P|289:231|329:219,1,83.9999974365235,8|0,0:0|0:0,0:0:0:0:
384,138,76224,1,2,0:0:0:0:
292,128,76442,1,0,0:0:0:0:
329,219,76659,1,8,0:0:0:0:
424,229,76877,1,0,0:0:0:0:
481,152,77094,6,0,L|480:58,1,83.9999974365235,2|0,0:0|0:0,0:0:0:0:
391,52,77529,2,0,L|309:5,1,83.9999974365235,8|0,0:0|0:0,0:0:0:0:
293,101,77963,2,0,L|212:148,1,83.9999974365235,2|0,0:0|0:0,0:0:0:0:
274,219,78398,2,0,L|275:313,1,83.9999974365235,8|0,0:0|0:0,0:0:0:0:
186,227,78833,6,0,P|138:217|99:237,2,83.9999974365235,2|0|8,0:0|0:0|0:0,0:0:0:0:
220,143,79485,1,0,0:0:0:0:
220,143,79594,1,0,0:0:0:0:
220,143,79703,1,2,0:0:0:0:
132,104,79920,1,0,0:0:0:0:
225,61,80137,1,8,0:0:0:0:
132,21,80354,1,0,0:0:0:0:
225,61,80572,6,0,P|266:50|305:60,1,83.9999974365235,2|0,0:0|0:0,0:0:0:0:
368,126,81007,2,0,P|409:137|449:129,1,83.9999974365235,8|0,0:0|0:0,0:0:0:0:
411,39,81442,1,2,0:0:0:0:
305,60,81659,1,0,0:0:0:0:
267,155,81877,1,8,0:0:0:0:
342,232,82094,1,0,0:0:0:0:
239,257,82311,6,0,P|193:232|169:189,1,83.9999974365235,2|0,0:0|0:0,0:0:0:0:
104,158,82746,2,0,L|54:158,2,41.9999987182618,8|0|0,0:0|0:0|0:0,0:0:0:0:
188,124,83181,1,2,0:0:0:0:
188,124,83398,1,0,0:0:0:0:
264,79,83616,1,8,0:0:0:0:
264,79,83833,1,0,0:0:0:0:
352,109,84050,6,0,P|328:149|284:171,1,83.9999974365235,2|0,0:0|0:0,0:0:0:0:
380,213,84485,2,0,L|441:211,2,41.9999987182618,8|0|0,0:0|0:0|0:0,0:0:0:0:
301,262,84920,2,0,L|368:312,1,83.9999974365235,2|0,0:0|0:0,0:0:0:0:
290,362,85355,2,0,L|222:311,1,83.9999974365235,8|0,0:0|0:0,0:0:0:0:
222,216,85790,5,2,0:0:0:0:
155,153,86007,1,2,0:0:0:0:
62,181,86224,1,8,0:0:0:0:
61,276,86442,1,8,0:0:0:0:
61,276,86550,1,8,0:0:0:0:
61,276,86659,5,2,0:0:0:0:
62,181,86877,1,2,0:0:0:0:
71,89,87094,1,8,0:0:0:0:
148,36,87311,1,0,0:0:0:0:
148,36,87420,1,0,0:0:0:0:
148,36,87529,1,6,0:0:0:0:
256,192,87746,12,0,93561,0:0:0:0:
