osu file format v14

[General]
AudioFilename: audio.mp3
AudioLeadIn: 0
PreviewTime: 16854
Countdown: 0
SampleSet: Soft
StackLeniency: 0.7
Mode: 0
LetterboxInBreaks: 0
WidescreenStoryboard: 1

[Editor]
Bookmarks: 100,16723,30752,44665,59883,70317,76839
DistanceSpacing: 1.5
BeatDivisor: 4
GridSize: 4
TimelineZoom: 0.9

[Metadata]
Title:Iro wa Nioedo Chirinuru o(OPver.)
TitleUnicode:色は匂へど 散りぬるを(OPver.)
Artist:senya
ArtistUnicode:senya
Creator:Dziuras
Version:Lunatic
Source:東方風神録 ~ Mountain of Faith
Tags:touhou yuuhei satellite zun fantasy kaleidoscope
BeatmapID:1682142
BeatmapSetID:788693

[Difficulty]
HPDrainRate:6
CircleSize:4.5
OverallDifficulty:6
ApproachRate:8.5
SliderMultiplier:1.4
SliderTickRate:1

[Events]
//Background and Video events
0,0,"touhou-background-8.jpg",0,0
//Break Periods
//Storyboard Layer 0 (Background)
//Storyboard Layer 1 (Fail)
//Storyboard Layer 2 (Pass)
//Storyboard Layer 3 (Foreground)
//Storyboard Sound Samples

[TimingPoints]
768,434.782608695652,4,2,0,50,1,0
16854,-66.6666666666667,4,2,0,50,0,0
17941,-66.6666666666667,4,1,0,50,0,0
29028,-66.6666666666667,4,1,0,50,0,0
30767,-100,4,1,0,50,0,0
31963,-100,4,2,0,50,0,0
44681,-66.6666666666667,4,2,0,50,0,0
45767,-66.6666666666667,4,1,0,50,0,0
56202,-66.6666666666667,4,1,0,50,0,0
58594,-133.333333333333,4,1,0,50,0,0
59898,-66.6666666666667,4,1,0,50,0,1
60985,-66.6666666666667,4,1,0,50,0,1
61420,-66.6666666666667,4,1,0,50,0,1
77289,-66.6666666666667,4,1,0,50,0,1
85767,-66.6666666666667,4,1,0,50,0,1
86420,-200,4,1,0,50,0,0

[Colours]
Combo1 : 255,128,0
Combo2 : 255,0,0
Combo3 : 255,255,255
Combo4 : 255,255,0

[HitObjects]
155,56,333,5,0,0:0:0:0:
253,90,550,1,0,0:0:0:0:
155,130,768,2,0,P|151:186|74:229,2,140
167,46,1854,1,0,0:0:0:0:
76,99,2072,1,0,0:0:0:0:
165,153,2289,1,0,0:0:0:0:
166,65,2507,2,0,P|129:24|56:61,1,140
108,152,3159,1,0,0:0:0:0:
425,235,3811,5,2,0:0:0:0:
354,157,4028,1,0,0:0:0:0:
326,258,4246,2,0,P|265:234|222:172,2,140
415,202,5333,1,0,0:0:0:0:
317,163,5550,1,0,0:0:0:0:
334,266,5767,1,0,0:0:0:0:
415,202,5985,2,0,P|377:84|361:82,1,140
317,163,6637,1,0,0:0:0:0:
93,278,7072,5,0,0:0:0:0:
189,318,7289,1,2,0:0:0:0:
93,278,7507,1,0,0:0:0:0:
194,224,7724,1,0,0:0:0:0:
93,278,7941,5,0,0:0:0:0:
145,153,8159,1,0,0:0:0:0:
93,278,8376,1,0,0:0:0:0:
87,97,8594,1,0,0:0:0:0:
220,90,8811,5,0,0:0:0:0:
154,175,9028,1,0,0:0:0:0:
220,90,9246,1,0,0:0:0:0:
218,227,9463,1,0,0:0:0:0:
220,90,9681,5,0,0:0:0:0:
307,242,9898,1,0,0:0:0:0:
220,90,10115,1,0,0:0:0:0:
399,249,10333,2,0,P|380:203|339:116,1,140,0|2,0:0|0:0,0:0:0:0:
235,221,10985,5,0,0:0:0:0:
174,303,11202,2,4,P|260:323|305:298,1,140,0|0,0:0|0:0,0:0:0:0:
342,203,11854,1,0,0:0:0:0:
339,97,12072,2,0,P|308:65|209:61,1,140,0|0,0:0|0:0,0:0:0:0:
115,84,12724,1,0,0:0:0:0:
47,164,12941,6,0,P|43:222|122:281,2,140,0|0|0,0:0|0:0|0:0,0:0:0:0:
120,100,14028,1,0,0:0:0:0:
216,152,14246,1,0,0:0:0:0:
103,212,14463,1,0,0:0:0:0:
194,51,14681,5,0,0:0:0:0:
256,192,14898,12,0,16420,2:0:0:0:
227,72,16854,5,8,3:0:0:0:
227,72,16963,1,0,3:0:0:0:
227,72,17072,1,0,3:0:0:0:
381,74,17289,2,0,P|421:116|389:196,2,105.000004005432,2|0|8,3:0|3:0|3:0,3:0:0:0:
305,175,17941,1,0,3:0:0:0:
178,177,18159,1,2,3:0:0:0:
178,177,18267,1,0,3:0:0:0:
178,177,18376,1,0,3:0:0:0:
316,198,18594,5,8,3:0:0:0:
263,68,18811,1,0,3:0:0:0:
478,163,19028,1,2,3:0:0:0:
478,163,19137,1,0,3:0:0:0:
478,163,19246,1,0,3:0:0:0:
370,227,19463,1,8,3:0:0:0:
380,86,19681,1,0,3:0:0:0:
252,143,19898,2,0,P|242:68|246:62,2,52.5000020027161,2|0|0,3:0|3:0|3:0,3:0:0:0:
165,101,20333,5,8,3:0:0:0:
289,164,20550,2,0,P|285:236|237:269,2,105.000004005432,0|2|0,3:0|3:0|3:0,3:0:0:0:
148,165,21202,1,8,3:0:0:0:
12,201,21420,1,0,3:0:0:0:
34,73,21637,1,2,3:0:0:0:
121,181,21854,1,0,3:0:0:0:
41,296,22072,5,8,3:0:0:0:
41,296,22181,1,0,3:0:0:0:
41,296,22289,2,0,P|145:288|185:266,1,105.000004005432,0|2,3:0|3:0,3:0:0:0:
291,201,22724,1,0,3:0:0:0:
139,190,22941,1,8,3:0:0:0:
116,51,23159,1,0,3:0:0:0:
55,178,23376,1,2,3:0:0:0:
195,174,23594,1,0,3:0:0:0:
74,102,23811,5,8,3:0:0:0:
74,102,23920,1,0,3:0:0:0:
74,102,24028,1,0,3:0:0:0:
104,238,24246,1,2,3:0:0:0:
150,79,24463,5,0,3:0:0:0:
311,73,24681,2,0,P|393:72|449:203,2,210.000008010865,0|0|0,3:0|3:0|3:0,3:0:0:0:
171,85,25767,1,0,3:0:0:0:
78,190,25985,1,2,3:0:0:0:
148,310,26202,1,0,3:0:0:0:
148,310,26311,1,0,3:0:0:0:
148,310,26420,1,0,3:0:0:0:
316,243,26637,5,0,3:0:0:0:
212,56,26854,1,2,3:0:0:0:
246,334,27072,1,0,3:0:0:0:
309,61,27289,6,0,P|369:91|339:248,3,210.000008010865,8|2|8|0,3:0|3:0|3:0|3:0,3:0:0:0:
220,267,29028,5,8,3:0:0:0:
193,266,29136,1,0,3:0:0:0:
168,260,29245,1,0,3:0:0:0:
144,249,29354,1,0,3:0:0:0:
124,232,29462,5,2,3:0:0:0:
108,212,29571,1,0,3:0:0:0:
96,188,29680,1,0,3:0:0:0:
91,162,29788,1,0,3:0:0:0:
91,136,29897,5,8,3:0:0:0:
96,111,30006,1,0,3:0:0:0:
108,87,30114,1,0,3:0:0:0:
124,67,30223,1,0,3:0:0:0:
144,50,30332,1,2,3:0:0:0:
43,188,30767,6,0,P|67:227|216:211,1,210,0|0,2:0|2:0,2:0:0:0:
169,120,31637,1,0,2:0:0:0:
316,65,31963,2,0,P|373:98|381:147,1,105,0|0,2:0|2:0,2:0:0:0:
372,236,32507,2,0,P|339:283|197:270,1,210,0|0,2:0|2:0,2:0:0:0:
147,183,33376,2,0,P|130:148|85:183,1,105,0|0,2:0|2:0,2:0:0:0:
165,310,34028,1,0,2:0:0:0:
270,314,34246,2,0,P|334:311|412:247,4,140,0|0|0|0|0,2:0|2:0|2:0|2:0|2:0,2:0:0:0:
298,112,36637,5,0,2:0:0:0:
363,193,36854,2,0,P|327:241|247:244,1,140,0|2,2:0|2:0,2:0:0:0:
161,55,37724,2,0,P|123:65|104:177,1,140,0|0,2:0|2:0,2:0:0:0:
195,151,38376,1,0,2:0:0:0:
114,219,38594,1,0,2:0:0:0:
244,307,38920,1,0,2:0:0:0:
393,257,39246,1,0,2:0:0:0:
295,219,39463,2,0,P|195:206|170:247,1,140,0|0,2:0|2:0,2:0:0:0:
363,127,40333,5,0,2:0:0:0:
220,194,40659,1,0,2:0:0:0:
351,239,40985,1,0,2:0:0:0:
359,134,41202,1,0,2:0:0:0:
174,32,41637,2,0,P|105:48|103:122,2,140,0|0|0,2:0|2:0|2:0,2:0:0:0:
383,41,42941,2,2,P|405:103|338:165,1,140,0|0,2:0|2:0,2:0:0:0:
276,217,43594,1,0,2:0:0:0:
171,232,43811,2,2,P|76:197|76:144,1,140,0|2,2:0|2:0,2:0:0:0:
370,270,44681,5,0,3:0:0:0:
248,67,45007,1,0,3:0:0:0:
124,268,45333,1,0,3:0:0:0:
281,263,45550,1,0,3:0:0:0:
155,62,45876,1,0,3:0:0:0:
22,257,46202,1,0,3:0:0:0:
169,199,46420,2,0,B|312:10|471:183|163:245,1,420.000016021729,0|0,3:0|3:0,3:0:0:0:
82,49,47724,6,0,L|82:273,1,210.000008010865,2|8,3:0|3:0,3:0:0:0:
187,74,48594,5,0,3:0:0:0:
258,149,48811,1,0,3:0:0:0:
131,122,49028,1,8,3:0:0:0:
258,149,49246,1,0,3:0:0:0:
129,199,49463,5,2,3:0:0:0:
258,149,49681,1,0,3:0:0:0:
169,269,49898,1,8,3:0:0:0:
258,149,50115,1,0,3:0:0:0:
238,335,50333,5,2,3:0:0:0:
256,91,50550,1,0,3:0:0:0:
58,343,50767,6,0,L|58:19,1,315.000012016297,8|0,3:0|3:0,3:0:0:0:
201,41,51637,5,8,3:0:0:0:
443,107,51963,1,0,3:0:0:0:
204,189,52289,1,0,3:0:0:0:
206,21,52507,2,0,L|402:21,1,157.500006008148,0|0,3:0|3:0,3:0:0:0:
427,192,53159,1,8,3:0:0:0:
432,359,53376,2,0,P|295:328|239:268,1,210.000008010865,8|2,3:0|3:0,3:0:0:0:
157,139,54028,1,0,3:0:0:0:
19,34,54246,5,8,3:0:0:0:
63,281,54572,1,0,3:0:0:0:
90,33,54898,1,0,3:0:0:0:
150,189,55115,2,0,L|361:189,1,210.000008010865,0|8,3:0|3:0,3:0:0:0:
222,91,55767,1,0,3:0:0:0:
82,184,55985,2,0,L|232:184,1,105.000004005432,0|0,3:0|3:0,3:0:0:0:
380,345,56637,5,0,3:0:0:0:
254,338,56854,1,2,3:0:0:0:
368,113,57289,5,0,3:0:0:0:
211,311,57724,2,0,B|210:238|210:238|202:231|210:222|210:222|220:214|211:207|211:207|200:199|211:192|211:192|211:89,1,210.000008010865,0|0,3:0|3:0,3:0:0:0:
276,206,58594,6,0,B|276:170|276:170|291:162|275:153|275:153|290:145|275:137|275:137|276:98,2,105.000004005432,0|0|0,2:0|2:0|2:0,2:0:0:0:
62,59,59898,5,6,0:0:0:0:
219,58,60115,1,0,0:0:0:0:
93,153,60333,2,0,P|174:135|241:153,1,105.000004005432,8|0,0:0|0:0,0:0:0:0:
101,275,60767,2,0,P|165:290|253:275,2,105.000004005432,2|0|8,0:0|0:0|0:0,0:0:0:0:
242,203,61420,1,0,0:0:0:0:
398,188,61637,2,0,P|414:129|398:37,2,105.000004005432,2|0|8,0:0|0:0|0:0,0:0:0:0:
240,191,62289,2,0,B|188:162|93:191|87:191,2,105.000004005432,0|2|0,0:0|0:0|0:0,0:0:0:0:
364,287,62941,1,8,0:0:0:0:
248,179,63159,1,0,0:0:0:0:
74,161,63376,5,2,0:0:0:0:
158,27,63594,1,0,0:0:0:0:
263,143,63811,2,0,P|207:129|122:143,2,105.000004005432,8|0|2,0:0|0:0|0:0,0:0:0:0:
371,258,64463,1,0,0:0:0:0:
226,320,64681,2,0,P|242:247|226:179,1,105.000004005432
226,57,65115,2,0,P|208:101|226:205,1,105.000004005432,2|0,0:0|0:0,0:0:0:0:
317,290,65550,2,0,P|297:219|317:144,1,105.000004005432,8|0,0:0|0:0,0:0:0:0:
226,57,65985,2,0,P|162:39|83:55,2,105.000004005432,2|0|0,0:0|0:0|0:0,0:0:0:0:
339,166,66637,5,0,0:0:0:0:
224,273,66854,1,2,0:0:0:0:
381,256,67072,1,0,0:0:0:0:
363,99,67289,2,0,P|302:83|216:99,2,105.000004005432,8|0|2,0:0|0:0|0:0,0:0:0:0:
271,227,67941,1,0,0:0:0:0:
126,163,68159,6,0,P|143:101|126:22,2,105.000004005432,8|0|0,0:0|0:0|0:0,0:0:0:0:
207,298,68811,1,0,0:0:0:0:
328,198,69028,2,0,P|263:180|178:198,2,105.000004005432,8|0|2,0:0|0:0|0:0,0:0:0:0:
198,107,69681,1,0,0:0:0:0:
41,122,69898,2,0,P|56:176|41:271,2,105.000004005432,8|0|2,0:0|0:0|0:0,0:0:0:0:
108,264,70550,5,0,0:0:0:0:
170,119,70767,1,2,0:0:0:0:
298,211,70985,2,0,P|230:181|162:211,2,105.000004005432
248,61,71637,1,8,0:0:0:0:
137,172,71854,2,0,P|73:201|4:174,1,105.000004005432,2|2,0:0|0:0,0:0:0:0:
32,329,72289,2,0,P|82:295|162:318,1,105.000004005432
393,302,72724,2,2,P|367:232|393:159,1,105.000004005432,0|0,0:0|0:0,0:0:0:0:
225,140,73159,2,2,P|250:192|225:250,1,105.000004005432,0|0,0:0|0:0,0:0:0:0:
252,75,73594,5,0,0:0:0:0:
351,196,73811,1,6,0:0:0:0:
256,321,74028,1,0,0:0:0:0:
314,157,74246,2,0,P|376:157|436:200,1,105.000004005432
255,176,74681,2,0,P|201:215|127:236,1,105.000004005432
131,75,75115,1,0,0:0:0:0:
255,176,75333,1,0,0:0:0:0:
413,176,75550,1,0,0:0:0:0:
334,39,75767,1,0,0:0:0:0:
255,176,75985,2,0,B|186:195|236:106|236:106|329:125|314:213|314:213|212:280|155:183,1,420.000016021729
10,128,77072,1,0,0:0:0:0:
109,244,77289,5,2,0:0:0:0:
146,90,77507,1,0,0:0:0:0:
212,232,77724,2,0,P|184:289|119:353,1,105.000004005432,8|0,0:0|0:0,0:0:0:0:
205,168,78159,1,2,0:0:0:0:
77,259,78376,2,0,P|63:226|68:203,2,52.5000020027161
162,126,78811,2,0,P|181:74|230:30,1,105.000004005432
66,251,79246,1,0,0:0:0:0:
221,227,79463,2,2,P|273:198|345:207,1,105.000004005432,8|0,0:0|0:0,0:0:0:0:
170,177,79898,2,2,P|128:145|32:110,1,105.000004005432,2|0,0:0|0:0,0:0:0:0:
181,244,80333,1,0,0:0:0:0:
46,359,80550,5,0,0:0:0:0:
60,202,80767,1,2,0:0:0:0:
100,354,80985,2,0,P|110:299|162:218,2,105.000004005432
146,203,81637,2,0,P|132:151|91:110,2,105.000004005432
273,295,82289,5,0,0:0:0:0:
170,174,82507,1,0,0:0:0:0:
326,193,82724,1,0,0:0:0:0:
168,109,82941,2,0,P|122:135|69:213,1,105.000004005432,8|0,0:0|0:0,0:0:0:0:
220,56,83376,2,0,P|271:79|308:128,2,105.000004005432
160,95,84028,5,4,0:0:0:0:
331,43,84246,1,6,0:0:0:0:
287,215,84463,1,6,0:0:0:0:
115,162,84681,2,4,P|165:152|268:164,2,105.000004005432
275,241,85333,1,4,0:0:0:0:
115,162,85550,2,4,P|167:175|258:161,2,105.000004005432
277,86,86202,1,4,0:0:0:0:
164,63,86420,6,0,B|-36:47|-4:357|97:405|438:405|536:341|547:48|328:-1|208:64|208:64,1,980,4|0,2:0|2:0,2:0:0:0:
