osu file format v14

[General]
AudioFilename: The Memories of Phantasm.mp3
AudioLeadIn: 0
PreviewTime: 61008
Countdown: 0
SampleSet: Soft
StackLeniency: 0.7
Mode: 0
LetterboxInBreaks: 0
EpilepsyWarning: 1
WidescreenStoryboard: 1

[Editor]
Bookmarks: 24921,52747,56225,68399,70138,71878,74269,74704,74921,75138,75356,82312,84051,85791,86225,87095,87530
DistanceSpacing: 2
BeatDivisor: 4
GridSize: 4
TimelineZoom: 1.5

[Metadata]
Title:Iro wa Nioedo Chirinuru o (OPver.)
TitleUnicode:色は匂へど 散りぬるを (OPver.)
Artist:senya
ArtistUnicode:senya
Creator:walaowey
Version:Lunatic
Source:東方Project
Tags:The memories of phantasm 幽閉サテライト 東方風神録 神々が恋した幻想郷 満福神社 Manpuku Jinja Yuuhei Satellite Iceon かませ虎 Though the Scent Lingers The Flower Scattered Fuujinroku Mountain Faith Gensokyo The Gods Loved kamasetora Even the Blossoming Flowers Will Eventually Scatter Reitaisai SP2 Nitori Kawashiro HappyRocket88 Neoskylove
BeatmapID:1162149
BeatmapSetID:548808

[Difficulty]
HPDrainRate:6
CircleSize:4
OverallDifficulty:8
ApproachRate:8
SliderMultiplier:1.8
SliderTickRate:1

[Events]
//Background and Video events
0,0,"BG_S.jpg",0,0
//Break Periods
//Storyboard Layer 0 (Background)
//Storyboard Layer 1 (Fail)
//Storyboard Layer 2 (Pass)
//Storyboard Layer 3 (Foreground)
Sprite,Foreground,Centre,"SB\BG.jpg",320,240 F,0,17965,18617,1,0 S,1,17965,18617,0.9,1 F,0,24921,25573,1,0 S,1,24921,25573,0.9,1 F,0,61443,61878,1,0 S,1,61443,61878,0.9,1 F,0,61878,62312,1,0 S,1,61878,62312,0.9,1 F,0,62747,63182,1,0 S,1,62747,63182,0.9,1 F,0,63617,64051,1,0 S,1,63617,64051,0.9,1 F,0,64486,64921,1,0 S,1,64486,64921,0.9,1 F,0,65356,65791,1,0 S,1,65356,65791,0.9,1 F,0,66225,66660,1,0 S,1,66225,66660,0.9,1 F,0,67095,67530,1,0 S,1,67095,67530,0.9,1 F,0,67964,68399,1,0 S,1,67964,68399,0.9,1 F,0,68834,69269,1,0 S,1,68834,69269,0.9,1 F,0,69704,70138,1,0 S,1,69704,70138,0.9,1 F,0,70573,71008,1,0 S,1,70573,71008,0.9,1 F,0,71443,71878,1,0 S,1,71443,71878,0.9,1 F,0,72312,72747,1,0 S,1,72312,72747,0.9,1 F,0,73182,73617,1,0 S,1,73182,73617,0.9,1 F,0,74051,74486,1,0 S,1,74051,74486,0.9,1 F,0,75356,75791,1,0 S,1,75356,75791,0.9,1 F,0,75791,76225,1,0 S,1,75791,76225,0.9,1 F,0,76660,77095,1,0 S,1,76660,77095,0.9,1 F,0,77530,77964,1,0 S,1,77530,77964,0.9,1 F,0,78399,78834,1,0 S,1,78399,78834,0.9,1 F,0,79269,79704,1,0 S,1,79269,79704,0.9,1 F,0,80138,80573,1,0 S,1,80138,80573,0.9,1 F,0,81008,81443,1,0 S,1,81008,81443,0.9,1 F,0,81878,82312,1,0 S,1,81878,82312,0.9,1 F,0,82747,83182,1,0 S,1,82747,83182,0.9,1 F,0,83617,84051,1,0 S,1,83617,84051,0.9,1 F,0,84486,84921,1,0 S,1,84486,84921,0.9,1 F,0,85356,85791,1,0 S,1,85356,85791,0.9,1 F,0,86225,86660,1,0 S,1,86225,86660,0.9,1 F,0,87095,87530,1,0 S,1,87095,87530,0.9,1
Sprite,Foreground,Centre,"SB\black.jpg",320,240 F,1,58834,59486,0,1 F,1,61008,61551,1,0 F,1,73617,75356,0,0.9 F,1,75051,87312,0 F,1,86878,93508,0,1 F,2,93508,94051,1,0
Sprite,Foreground,Centre,"SB\wave.png",374,168 F,0,17965,18617,1 F,0,17965,18617,1,0 S,1,17965,18617,0.1,0.7
Sprite,Foreground,Centre,"SB\wave.png",207,224 F,0,24921,25543,1 F,0,24921,25543,1,0 S,1,24921,25543,0.1,0.7
Sprite,Foreground,Centre,"SB\wave.png",380,133 F,0,61443,62095,1 F,0,61443,62095,1,0 S,1,61443,62095,0.1,0.7
Sprite,Foreground,Centre,"SB\wave.png",335,185 F,0,75356,76008,1 F,0,75356,76008,1,0 S,1,75356,76008,0.1,0.8
Sprite,Foreground,Centre,"Lyrics\0.png",320,340 S,0,1443,,0.4 C,0,1443,,255,255,0 P,0,1443,,A F,0,1443,1633,0,0.8 MX,0,1443,8182,316,296 MY,0,1443,8182,360 F,0,7992,8182,0.8,0
Sprite,Foreground,Centre,"Lyrics\1.png",320,340 S,0,8182,,0.4 C,0,8182,,255,255,0 P,0,8182,,A F,0,8182,8372,0,0.8 MX,0,8182,17747,316,296 MY,0,8182,17747,360 F,0,17557,17747,0.8,0
Sprite,Foreground,Centre,"Lyrics\2.png",320,340 S,0,31878,,0.4 C,0,31878,,255,255,0 P,0,31878,,A F,0,31878,32068,0,0.8 MX,0,31878,36660,316,296 MY,0,31878,36660,360 F,0,36470,36660,0.8,0
Sprite,Foreground,Centre,"Lyrics\3.png",320,340 S,0,37964,,0.4 C,0,37964,,255,255,0 P,0,37964,,A F,0,37964,38154,0,0.8 MX,0,37964,45791,316,296 MY,0,37964,45791,360 F,0,45601,45791,0.8,0
Sprite,Foreground,Centre,"Lyrics\4.png",320,340 S,0,45791,,0.4 C,0,45791,,255,255,0 P,0,45791,,A F,0,45791,45981,0,0.8 MX,0,45791,52747,316,296 MY,0,45791,52747,360 F,0,52557,52747,0.8,0
Sprite,Foreground,Centre,"Lyrics\5.png",320,340 S,0,52747,,0.4 C,0,52747,,255,255,0 P,0,52747,,A F,0,52747,52937,0,0.8 MX,0,52747,58834,316,296 MY,0,52747,58834,360 F,0,58644,58834,0.8,0
Sprite,Foreground,Centre,"Lyrics\6.png",320,340 S,0,61008,,0.4 C,0,61008,,255,255,0 P,0,61008,,A F,0,61008,61198,0,0.8 MX,0,61008,67747,316,296 MY,0,61008,67747,360 F,0,67557,67747,0.8,0
Sprite,Foreground,Centre,"Lyrics\7.png",320,340 S,0,67747,,0.4 C,0,67747,,255,255,0 P,0,67747,,A F,0,67747,67937,0,0.8 MX,0,67747,74704,316,296 MY,0,67747,74704,360 F,0,74514,74704,0.8,0
Sprite,Foreground,Centre,"Lyrics\8.png",320,340 S,0,74704,,0.4 C,0,74704,,255,255,0 P,0,74704,,A F,0,74704,74894,0,0.8 MX,0,74704,81660,316,296 MY,0,74704,81660,360 F,0,81470,81660,0.8,0
Sprite,Foreground,Centre,"Lyrics\9.png",320,340 S,0,81660,,0.4 C,0,81660,,255,255,0 P,0,81660,,A F,0,81660,81850,0,0.8 MX,0,81660,91008,316,296 MY,0,81660,91008,360 F,0,90818,91008,0.8,0
Sprite,Foreground,Centre,"Lyrics\10.png",320,340 S,0,59704,,1 C,0,59704,,255,165,0 P,0,59704,,A F,0,59704,60138,0.8,0 F,0,59704,60138,0,0.8 MX,0,59704,60138,316 MY,0,59704,60138,240
Sprite,Foreground,Centre,"Lyrics\11.png",320,340 S,0,60138,,1 C,0,60138,,255,165,0 P,0,60138,,A F,0,60138,60573,0.8,0 F,0,60138,60573,0,0.8 MX,0,60138,60573,316 MY,0,60138,60573,240
Sprite,Foreground,Centre,"Lyrics\12.png",320,340 S,0,60573,,1 C,0,60573,,255,165,0 P,0,60573,,A F,0,60573,61008,0.8,0 F,0,60573,61008,0,0.8 MX,0,60573,61008,316 MY,0,60573,61008,240
Sprite,Foreground,Centre,"SB\menu-snow.png",320,240 S,0,61443,,0.9 P,0,61443,,A M,1,61443,64921,760,-40,253,444 F,1,61443,64921,1,0 R,1,61443,64921,1,2
Sprite,Foreground,Centre,"SB\menu-snow.png",320,240 S,0,61443,,0.55 P,0,61443,,A M,1,61443,64921,760,-40,387,252 F,1,61443,64921,1,0 R,1,61443,64921,1
Sprite,Foreground,Centre,"SB\menu-snow.png",320,240 S,0,61878,,0.52 P,0,61878,,A M,1,61878,65356,760,-40,232,162 F,1,61878,65356,1,0 R,1,61878,65356,1,6
Sprite,Foreground,Centre,"SB\menu-snow.png",320,240 S,0,62312,,0.48 P,0,62312,,A M,1,62312,65791,760,-40,654,84 F,1,62312,65791,1,0 R,1,62312,65791,1
Sprite,Foreground,Centre,"SB\menu-snow.png",320,240 S,0,62747,,0.41 P,0,62747,,A M,1,62747,66225,760,-40,29,109 F,1,62747,66225,1,0 R,1,62747,66225,1,10
Sprite,Foreground,Centre,"SB\menu-snow.png",320,240 S,0,63182,,0.58 P,0,63182,,A M,1,63182,66660,760,-40,690,422 F,1,63182,66660,1,0 R,1,63617,66660,1
Sprite,Foreground,Centre,"SB\menu-snow.png",320,240 S,0,63617,,0.74 P,0,63617,,A M,1,63617,67095,760,-40,2,224 F,1,63617,67095,1,0 R,1,63617,67095,1
Sprite,Foreground,Centre,"SB\menu-snow.png",320,240 S,0,64051,,0.66 P,0,64051,,A M,1,64051,67530,760,-40,652,147 F,1,64051,67530,1,0 R,1,64051,67530,1,9
Sprite,Foreground,Centre,"SB\menu-snow.png",320,240 S,0,64486,,0.41 P,0,64486,,A M,1,64486,67964,760,-40,437,321 F,1,64486,67964,1,0 R,1,64486,67964,1,2
Sprite,Foreground,Centre,"SB\menu-snow.png",320,240 S,0,64921,,0.74 P,0,64921,,A M,1,64921,68399,760,-40,579,182 F,1,64921,68399,1,0 R,1,64921,68399,1
Sprite,Foreground,Centre,"SB\menu-snow.png",320,240 S,0,65356,,0.45 P,0,65356,,A M,1,65356,68834,760,-40,543,77 F,1,65356,68834,1,0 R,1,65356,68834,1,6
Sprite,Foreground,Centre,"SB\menu-snow.png",320,240 S,0,79051,,0.71 P,0,79051,,A M,1,79051,83051,760,-40,143,331 F,1,79051,83051,1,0 R,1,79051,83051,1,2
Sprite,Foreground,Centre,"SB\menu-snow.png",320,240 S,0,79183,,0.91 P,0,79183,,A M,1,79183,82947,760,-40,700,385 F,1,79183,82947,1,0 R,1,79183,82947,1,3
Sprite,Foreground,Centre,"SB\menu-snow.png",320,240 S,0,79394,,0.83 P,0,79394,,A M,1,79394,83158,760,-40,499,85 F,1,79394,83158,1,0 R,1,79394,83158,1,9
Sprite,Foreground,Centre,"SB\menu-snow.png",320,240 S,0,79605,,0.48 P,0,79605,,A M,1,79605,83369,760,-40,619,144 F,1,79605,83369,1,0 R,1,79605,83369,1,4
Sprite,Foreground,Centre,"SB\menu-snow.png",320,240 S,0,79816,,0.49 P,0,79816,,A M,1,79816,83580,760,-40,0,464 F,1,79816,83580,1,0 R,1,79816,83580,1
Sprite,Foreground,Centre,"SB\menu-snow.png",320,240 S,0,80027,,0.68 P,0,80027,,A M,1,80027,83791,760,-40,532,65 F,1,80027,83791,1,0 R,1,80027,83791,1,6
Sprite,Foreground,Centre,"SB\menu-snow.png",320,240 S,0,80238,,0.52 P,0,80238,,A M,1,80238,84002,760,-40,-95,237 F,1,80238,84002,1,0 R,1,80238,84002,1,3
Sprite,Foreground,Centre,"SB\menu-snow.png",320,240 S,0,80449,,0.88 P,0,80449,,A M,1,80449,84213,760,-40,49,402 F,1,80449,84213,1,0 R,1,80449,84213,1,6
Sprite,Foreground,Centre,"SB\menu-snow.png",320,240 S,0,80660,,0.86 P,0,80660,,A M,1,80660,84424,760,-40,169,233 F,1,80660,84424,1,0 R,1,80660,84424,1,3
Sprite,Foreground,Centre,"SB\menu-snow.png",320,240 S,0,80871,,0.67 P,0,80871,,A M,1,80871,84635,760,-40,166,104 F,1,80871,84635,1,0 R,1,80871,84635,1,6
Sprite,Foreground,Centre,"SB\menu-snow.png",320,240 S,0,81082,,0.44 P,0,81082,,A M,1,81082,84846,760,-40,-88,41 F,1,81082,84846,1,0 R,1,81082,84846,1,4
Sprite,Foreground,Centre,"SB\menu-snow.png",320,240 S,0,81293,,0.67 P,0,81293,,A M,1,81293,85057,760,-40,592,1 F,1,81293,85057,1,0 R,1,81293,85057,1,8
Sprite,Foreground,Centre,"SB\menu-snow.png",320,240 S,0,81443,,0.7 P,0,81443,,A M,1,81443,85268,760,-40,-120,424 F,1,81443,85268,1,0 R,1,81443,85268,1,10
Sprite,Foreground,Centre,"SB\menu-snow.png",320,240 S,0,81715,,0.87 P,0,81715,,A M,1,81715,85479,760,-40,4,36 F,1,81715,85479,1,0 R,1,81715,85479,1,8
Sprite,Foreground,Centre,"SB\menu-snow.png",320,240 S,0,81926,,0.49 P,0,81926,,A M,1,81926,85690,760,-40,41,447 F,1,81926,85690,1,0 R,1,81926,85690,1,9
Sprite,Foreground,Centre,"SB\menu-snow.png",320,240 S,0,82137,,0.66 P,0,82137,,A M,1,82137,85901,760,-40,384,229 F,1,82137,85901,1,0 R,1,82137,85901,1,6
Sprite,Foreground,Centre,"SB\menu-snow.png",320,240 S,0,82348,,0.92 P,0,82348,,A M,1,82348,86112,760,-40,425,48 F,1,82348,86112,1,0 R,1,82348,86112,1,9
Sprite,Foreground,Centre,"SB\menu-snow.png",320,240 S,0,82559,,0.61 P,0,82559,,A M,1,82559,86323,760,-40,-89,446 F,1,82559,86323,1,0 R,1,82559,86323,1,9
Sprite,Foreground,Centre,"SB\menu-snow.png",320,240 S,0,82747,,0.96 P,0,82747,,A M,1,82747,86534,760,-40,286,454 F,1,82747,86534,1,0 R,1,82747,86534,1,5
Sprite,Foreground,Centre,"SB\menu-snow.png",320,240 S,0,82981,,0.79 P,0,82981,,A M,1,82981,86745,760,-40,598,24 F,1,82981,86745,1,0 R,1,82981,86745,1,5
Sprite,Foreground,Centre,"SB\menu-snow.png",320,240 S,0,83182,,0.41 P,0,83182,,A M,1,83182,86956,760,-40,549,352 F,1,83182,86956,1,0 R,1,83182,86956,1,8
Sprite,Foreground,Centre,"SB\menu-snow.png",320,240 S,0,83403,,0.58 P,0,83403,,A M,1,83403,87167,760,-40,651,370 F,1,83403,87167,1,0 R,1,83403,87167,1,7
Sprite,Foreground,Centre,"SB\menu-snow.png",320,240 S,0,83614,,0.55 P,0,83614,,A M,1,83614,87378,760,-40,500,49 F,1,83614,87378,1,0 R,1,83614,87378,1,3
Sprite,Foreground,Centre,"SB\menu-snow.png",320,240 S,0,83825,,0.64 P,0,83825,,A M,1,83825,87589,760,-40,239,32 F,1,83825,87589,1,0 R,1,83825,87589,1,6
Sprite,Foreground,Centre,"SB\menu-snow.png",320,240 S,0,84036,,0.74 P,0,84036,,A M,1,84036,87800,760,-40,371,218 F,1,84036,87800,1,0 R,1,84036,87800,1,9
Sprite,Foreground,Centre,"SB\menu-snow.png",320,240 S,0,84247,,0.83 P,0,84247,,A M,1,84247,88011,760,-40,47,182 F,1,84247,88011,1,0 R,1,84247,88011,1,5
Sprite,Foreground,Centre,"SB\menu-snow.png",320,240 S,0,84486,,0.44 P,0,84486,,A M,1,84486,88222,760,-40,-71,19 F,1,84486,88222,1,0 R,1,84486,88222,1,4
Sprite,Foreground,Centre,"SB\menu-snow.png",320,240 S,0,84704,,0.52 P,0,84704,,A M,1,84704,88433,760,-40,441,60 F,1,84704,88433,1,0 R,1,84704,88433,1,4
Sprite,Foreground,Centre,"SB\menu-snow.png",320,240 S,0,84921,,0.48 P,0,84921,,A M,1,84921,88644,760,-40,344,377 F,1,84921,88644,1,0 R,1,84921,88644,1,7
Sprite,Foreground,Centre,"SB\menu-snow.png",320,240 S,0,85138,,0.91 P,0,85138,,A M,1,85138,88855,760,-40,485,105 F,1,85138,88855,1,0 R,1,85138,88855,1,10
Sprite,Foreground,Centre,"SB\menu-snow.png",320,240 S,0,85356,,0.91 P,0,85356,,A M,1,85356,89066,760,-40,306,269 F,1,85356,89066,1,0 R,1,85356,89066,1,7
Sprite,Foreground,Centre,"SB\menu-snow.png",320,240 S,0,85573,,0.96 P,0,85573,,A M,1,85573,89277,760,-40,461,206 F,1,85573,89277,1,0 R,1,85573,89277,1,6
Sprite,Foreground,Centre,"SB\menu-snow.png",320,240 S,0,85724,,0.63 P,0,85724,,A M,1,85724,89488,760,-40,268,422 F,1,85724,89488,1,0 R,1,85724,89488,1
Sprite,Foreground,Centre,"SB\menu-snow.png",320,240 S,0,85935,,0.61 P,0,85935,,A M,1,85935,89699,760,-40,68,334 F,1,85935,89699,1,0 R,1,85935,89699,1,9
Sprite,Foreground,Centre,"SB\menu-snow.png",320,240 S,0,86117,,0.63 P,0,86117,,A M,1,86117,89910,760,-40,403,430 F,1,86117,89910,1,0 R,1,86117,89910,1,3
Sprite,Foreground,Centre,"SB\menu-snow.png",320,240 S,0,86334,,0.9 P,0,86334,,A M,1,86334,90121,760,-40,371,457 F,1,86334,90121,1,0 R,1,86334,90121,1,7
Sprite,Foreground,Centre,"SB\menu-snow.png",320,240 S,0,86568,,0.75 P,0,86568,,A M,1,86568,90332,760,-40,545,64 F,1,86568,90332,1,0 R,1,86568,90332,1,9
Sprite,Foreground,Centre,"SB\menu-snow.png",320,240 S,0,86769,,0.78 P,0,86769,,A M,1,86769,90543,760,-40,111,57 F,1,86769,90543,1,0 R,1,86769,90543,1,9
Sprite,Foreground,Centre,"SB\menu-snow.png",320,240 S,0,87095,,0.6 P,0,87095,,A M,1,87095,90754,760,-40,288,475 F,1,87095,90754,1,0 R,1,87095,90754,1,3
Sprite,Foreground,Centre,"SB\menu-snow.png",320,240 S,0,79791,,0.53 P,0,79791,,A M,1,79791,82747,760,-40,552,224 F,1,79791,82747,1,0 R,1,79791,82747,1,10
Sprite,Foreground,Centre,"SB\menu-snow.png",320,240 S,0,79269,,0.53 P,0,79269,,A M,1,79269,82747,760,-40,392,139 F,1,79269,82747,1,0 R,1,79269,82747,1,10
Sprite,Foreground,Centre,"SB\menu-snow.png",320,240 S,0,79169,,0.6 P,0,79169,,A M,1,79169,81747,760,-40,120,184 F,1,79169,81747,1,0 R,1,79169,81747,1,10
Sprite,Foreground,Centre,"SB\menu-snow.png",320,240 S,0,79051,,0.37 P,0,79051,,A M,1,79051,82530,760,-40,200,160 F,1,79051,82530,1,0 R,1,79051,82530,1,9
Sprite,Foreground,Centre,"SB\menu-snow.png",320,240 S,0,78834,,0.41 P,0,78834,,A M,1,78834,82312,760,-40,308,240 F,1,78834,82312,1,0 R,1,78834,82312,1,10
Sprite,Foreground,Centre,"SB\menu-snow.png",320,240 S,0,78617,,0.5 P,0,78617,,A M,1,78617,82312,760,-40,232,240 F,1,78617,82312,1,0 R,1,78617,82312,1,7
Sprite,Foreground,Centre,"SB\menu-snow.png",320,240 S,0,78399,,0.46 P,0,78399,,A M,1,78399,81878,760,-40,35,143 F,1,78399,81878,1,0 R,1,78399,81878,1,7
Sprite,Foreground,Centre,"SB\menu-snow.png",320,240 S,0,77964,,0.41 P,0,77964,,A M,1,77964,81443,760,-40,-13,177 F,1,77964,81443,1,0 R,1,77964,81443,1,8
Sprite,Foreground,Centre,"SB\menu-snow.png",320,240 S,0,77530,,0.9 P,0,77530,,A M,1,77530,81008,760,-40,303,32 F,1,77530,81008,1,0 R,1,77530,81008,1,6
Sprite,Foreground,Centre,"SB\menu-snow.png",320,240 S,0,77095,,0.4 P,0,77095,,A M,1,77095,80573,760,-40,298,469 F,1,77095,80573,1,0 R,1,77095,80573,1
Sprite,Foreground,Centre,"SB\menu-snow.png",320,240 S,0,76660,,0.8 P,0,76660,,A M,1,76660,80138,760,-40,122,313 F,1,76660,80138,1,0 R,1,76660,80138,1,8
Sprite,Foreground,Centre,"SB\menu-snow.png",320,240 S,0,76225,,0.88 P,0,76225,,A M,1,76225,79704,760,-40,642,152 F,1,76225,79704,1,0 R,1,76225,79704,1,7
Sprite,Foreground,Centre,"SB\menu-snow.png",320,240 M,1,79704,79269,760,-40,258,422 F,1,79704,79269,1,0 R,1,79704,79269,1,2 S,0,79704,,0.77 P,0,79704,,A
Sprite,Foreground,Centre,"SB\menu-snow.png",320,240 S,0,75356,,0.94 P,0,75356,,A M,1,75356,78834,760,-40,92,196 F,1,75356,78834,1,0 R,1,75356,78834,1,7
Sprite,Foreground,Centre,"SB\menu-snow.png",320,240 S,0,75356,,0.75 P,0,75356,,A M,1,75356,76660,760,-40,379,261 F,1,75356,76660,1,0 R,1,75356,76660,1,7
Sprite,Foreground,Centre,"SB\menu-snow.png",320,240 S,0,71878,,0.41 P,0,71878,,A M,1,71878,75356,760,-40,431,225 F,1,71878,75356,1,0 R,1,71878,75356,1,8
Sprite,Foreground,Centre,"SB\menu-snow.png",320,240 S,0,71443,,0.67 P,0,71443,,A M,1,71443,74921,760,-40,283,456 F,1,71443,74921,1,0 R,1,71443,74921,1,5
Sprite,Foreground,Centre,"SB\menu-snow.png",320,240 S,0,71008,,0.64 P,0,71008,,A M,1,71008,74486,760,-40,56,29 F,1,71008,74486,1,0 R,1,71008,74486,1,8
Sprite,Foreground,Centre,"SB\menu-snow.png",320,240 S,0,70573,,0.99 P,0,70573,,A M,1,70573,74051,760,-40,61,119 F,1,70573,74051,1,0 R,1,70573,74051,1,8
Sprite,Foreground,Centre,"SB\menu-snow.png",320,240 S,0,70138,,0.57 P,0,70138,,A M,1,70138,73617,760,-40,-69,51 F,1,70138,73617,1,0 R,1,70138,73617,1,3
Sprite,Foreground,Centre,"SB\menu-snow.png",320,240 S,0,69704,,0.92 P,0,69704,,A M,1,69704,73182,760,-40,460,39 F,1,69704,73182,1,0 R,1,69704,73182,1,7
Sprite,Foreground,Centre,"SB\menu-snow.png",320,240 S,0,69269,,0.49 P,0,69269,,A M,1,69269,72747,760,-40,649,420 F,1,69269,72747,1,0 R,1,69269,72747,1,6
Sprite,Foreground,Centre,"SB\menu-snow.png",320,240 S,0,68834,,0.44 P,0,68834,,A M,1,68834,72312,760,-40,263,479 F,1,68834,72312,1,0 R,1,68834,72312,1,5
Sprite,Foreground,Centre,"SB\menu-snow.png",320,240 S,0,68399,,0.96 P,0,68399,,A M,1,68399,71878,760,-40,188,28 F,1,68399,71878,1,0 R,1,68399,71878,1,9
Sprite,Foreground,Centre,"SB\menu-snow.png",320,240 S,0,67964,,0.4 P,0,67964,,A M,1,67964,71443,760,-40,672,164 F,1,67964,71443,1,0 R,1,67964,71443,1,4
Sprite,Foreground,Centre,"SB\menu-snow.png",320,240 S,0,67530,,0.95 P,0,67530,,A M,1,67530,71008,760,-40,520,115 F,1,67530,71008,1,0 R,1,67530,71008,1,5
Sprite,Foreground,Centre,"SB\menu-snow.png",320,240 S,0,67095,,0.62 P,0,67095,,A M,1,67095,70573,760,-40,-4,80 F,1,67095,70573,1,0 R,1,67095,70573,1,7
Sprite,Foreground,Centre,"SB\menu-snow.png",320,240 S,0,66660,,1 P,0,66660,,A M,1,66660,70138,760,-40,463,166 F,1,66660,70138,1,0 R,1,66660,70138,1,6
Sprite,Foreground,Centre,"SB\menu-snow.png",320,240 S,0,66225,,0.68 P,0,66225,,A M,1,66225,69704,760,-40,148,368 F,1,66225,69704,1,0 R,1,66225,69704,1,4
Sprite,Foreground,Centre,"SB\menu-snow.png",320,240 S,0,65791,,0.84 P,0,65791,,A M,1,65791,69269,760,-40,466,289 F,1,65791,69269,1,0 R,1,65791,69269,1,6
Sprite,Foreground,Centre,"SB\menu-snow.png",320,240 S,0,75464,,0.75 P,0,75464,,A M,1,75464,76878,760,-40,110,181 F,1,75464,76878,1,0 R,1,75464,76878,1,6
Sprite,Foreground,Centre,"SB\menu-snow.png",320,240 S,0,75791,,0.68 P,0,75791,,A M,1,75791,77964,760,-40,202,410 F,1,75791,77964,1,0 R,1,75791,77964,1,5
Sprite,Foreground,Centre,"SB\menu-snow.png",320,240 S,0,76008,,0.7 P,0,76008,,A M,1,76008,77530,760,-40,241,101 F,1,76008,77530,1,0 R,1,76008,77530,1,4
Sprite,Foreground,Centre,"SB\menu-snow.png",320,240 S,0,76443,,0.6 P,0,76443,,A M,1,76443,78834,760,-40,235,305 F,1,76443,78834,1,0 R,1,76443,78834,1,5
Sprite,Foreground,Centre,"SB\menu-snow.png",320,240 S,0,72312,,0.58 P,0,72312,,A M,1,72312,75791,760,-40,186,263 F,1,72312,75791,1,0 R,1,72312,75791,1,6
Sprite,Foreground,Centre,"SB\menu-snow.png",320,240 S,0,73182,,0.62 P,0,73182,,A M,1,73182,76660,760,-40,218,396 F,1,73182,76660,1,0 R,1,73182,76660,1,5
Sprite,Foreground,Centre,"SB\menu-snow.png",320,240 S,0,71986,,0.62 P,0,71986,,A M,1,71986,75573,760,-40,115,220 F,1,71986,75573,1,0 R,1,71986,75573,1,5
Sprite,Foreground,Centre,"SB\menu-snow.png",320,240 S,0,72747,,0.7 P,0,72747,,A M,1,72747,75573,760,-40,331,412 F,1,72747,75573,1,0 R,1,72747,75573,1,5
Sprite,Foreground,Centre,"SB\menu-snow.png",320,240 S,0,76878,,0.7 P,0,76878,,A M,1,76878,78834,760,-40,-38,159 F,1,76878,78834,1,0 R,1,76878,78834,1,6
Sprite,Foreground,Centre,"SB\menu-snow.png",320,240 S,0,77312,,0.74 P,0,77312,,A M,1,77312,81443,760,-40,-32,450 F,1,77312,81443,1,0 R,1,77312,81443,1,7
Sprite,Foreground,Centre,"SB\menu-snow.png",320,240 S,0,77747,,0.8 P,0,77747,,A M,1,77747,81443,760,-40,219,429 F,1,77747,81443,1,0 R,1,77747,81443,1,7
Sprite,Foreground,Centre,"SB\menu-snow.png",320,240 S,0,78182,,0.56 P,0,78182,,A M,1,78182,81443,760,-40,119,212 F,1,78182,81443,1,0 R,1,78182,81443,1,6
Sprite,Foreground,Centre,"SB\menu-snow.png",320,240 S,0,87312,,0.58 P,0,87312,,A M,1,87312,90791,760,-40,169,280 F,1,87312,90791,1,0 R,1,87312,90791,1,5
Sprite,Foreground,Centre,"SB\menu-snow.png",320,240 S,0,87530,,0.7 P,0,87530,,A M,1,87530,90791,760,-40,131,314 F,1,87530,90791,1,0 R,1,87530,90791,1,5
Sprite,Foreground,Centre,"SB\highlight.png",320,240 M,0,74704,,223.3807,100.4387 F,2,74704,74921,1,0.8 S,1,74704,74921,0.5,1 C,0,74704,74921,0,0,0,255,0,0
Sprite,Foreground,Centre,"SB\highlight.png",320,240 M,0,74921,,333.2129,311.8452 F,2,74921,75138,1,0.8 S,1,74921,75138,0.5,1 C,0,74921,75138,0,0,0,255,0,0
Sprite,Foreground,Centre,"SB\highlight.png",320,240 M,0,75138,75355,101.1613,290.3742,102.8129,301.1097 F,2,75138,75356,1,0.8 S,1,75138,75356,0.5,1 C,0,75138,75356,0,0,0,255,0,0
//Storyboard Sound Samples

[TimingPoints]
139,434.782608695652,4,2,1,30,1,0
1443,-133.333333333333,4,2,1,30,0,0
17965,434.782608695652,4,2,2,60,1,0
18073,-100,4,2,1,60,0,0
31878,-133.333333333333,4,2,1,40,0,0
45791,-100,4,2,1,60,0,0
59704,-100,4,2,1,30,0,0
61443,-100,4,2,2,80,0,1
61551,-100,4,2,1,80,0,1
71878,-100,4,2,1,70,0,1
73617,-100,4,2,1,80,0,1
74269,-100,4,2,1,90,0,1
74704,-100,4,2,1,90,0,0
75356,-100,4,2,1,80,0,1
85791,-100,4,2,1,90,0,1
87530,-100,4,2,1,80,0,0
93508,-100,4,2,1,20,0,0

[Colours]
Combo1 : 128,255,255
Combo2 : 255,100,177
Combo3 : 255,255,70
Combo4 : 128,255,128

[HitObjects]
195,233,1443,6,0,L|124:181,1,67.5000025749208,2|0,0:0|0:0,0:0:0:0:
155,341,1878,2,0,L|304:304,1,135.000005149842,2|0,0:0|0:0,0:0:0:0:
383,162,2747,1,0,0:0:0:0:
301,129,2965,2,0,L|233:129,2,67.5000025749208
388,249,3617,5,2,0:0:0:0:
308,213,3834,1,0,0:0:0:0:
383,162,4052,1,0,0:0:0:0:
319,295,4269,2,0,P|247:268|226:207,1,135.000005149842,0|0,0:0|0:0,0:0:0:0:
177,145,4921,2,0,P|150:173|139:225,1,67.5000025749208
259,140,5356,6,0,L|122:61,1,135.000005149842,2|0,0:0|0:0,0:0:0:0:
105,258,6225,1,2,0:0:0:0:
191,276,6443,1,2,0:0:0:0:
210,190,6660,1,0,0:0:0:0:
123,172,6878,1,0,0:0:0:0:
138,340,7095,6,0,L|298:293,1,135.000005149842,2|0,0:0|0:0,0:0:0:0:
308,224,7747,2,0,L|346:152,1,67.5000025749208,2|0,0:0|0:0,0:0:0:0:
302,84,8182,1,2,0:0:0:0:
251,155,8399,1,0,0:0:0:0:
339,164,8617,1,0,0:0:0:0:
219,76,8834,6,0,L|146:68,2,67.5000025749208,2|0|0,0:0|0:0|0:0,0:0:0:0:
251,155,9486,2,0,L|194:223,1,67.5000025749208
146,270,9921,1,0,0:0:0:0:
127,187,10138,2,0,L|172:134,1,67.5000025749208
284,231,10573,6,0,L|235:291,2,67.5000025749208,2|0|0,0:0|0:0|0:0,0:0:0:0:
370,244,11225,2,0,L|436:254,1,67.5000025749208
497,190,11660,1,0,0:0:0:0:
412,173,11878,2,0,L|386:97,1,67.5000025749208
249,155,12312,6,0,P|266:216|329:247,1,135.000005149842,2|0,0:0|0:0,0:0:0:0:
329,165,12965,1,0,0:0:0:0:
210,76,13182,2,0,B|172:104|172:104|162:210,1,135.000005149842,2|0,0:0|0:0,0:0:0:0:
163,191,14052,5,2,0:0:0:0:
256,192,14160,12,0,17530,0:0:0:0:
301,95,17965,6,0,P|389:124|410:208,1,180,4|8,0:0|0:0,0:0:0:0:
322,185,18617,1,0,0:0:0:0:
215,75,18834,2,0,L|126:56,1,90,0|0,0:0|0:0,0:0:0:0:
177,230,19269,2,0,L|237:163,1,90,8|0,0:0|0:0,0:0:0:0:
61,122,19704,5,0,0:0:0:0:
112,294,19921,1,0,0:0:0:0:
148,145,20138,2,0,L|76:226,1,90,8|0,0:0|0:0,0:0:0:0:
324,182,20573,1,2,0:1:0:0:
215,75,20791,1,0,0:0:0:0:
262,246,21008,1,8,0:0:0:0:
388,118,21225,1,0,0:0:0:0:
388,118,21334,1,0,0:0:0:0:
388,118,21443,6,0,P|408:215|343:271,1,180,0|8,0:0|0:0,0:0:0:0:
237,162,22095,1,0,0:0:0:0:
361,32,22312,2,0,L|472:58,1,90,0|0,0:0|0:0,0:0:0:0:
325,183,22747,2,0,L|237:162,1,90,8|0,0:0|0:0,0:0:0:0:
117,297,23182,5,0,0:0:0:0:
262,246,23399,1,0,0:0:0:0:
91,214,23617,1,8,0:0:0:0:
207,315,23834,2,0,P|248:333|309:322,1,90,0|2,0:0|0:1,0:0:0:0:
324,182,24269,1,0,0:0:0:0:
177,230,24486,1,8,0:0:0:0:
349,268,24704,1,0,0:0:0:0:
147,144,24921,6,0,P|87:223|132:309,1,180,4|8,0:0|0:0,0:0:0:0:
262,246,25573,1,0,0:0:0:0:
143,123,25791,6,0,P|64:183|85:278,1,180,0|8,0:0|0:0,0:0:0:0:
262,246,26443,1,0,0:0:0:0:
145,99,26660,6,0,P|53:137|49:234,1,180,0|8,0:0|0:0,0:0:0:0:
206,234,27312,2,0,L|304:186,1,90,0|2,0:0|0:1,0:0:0:0:
407,134,27747,1,0,0:0:0:0:
380,223,27964,1,8,0:0:0:0:
317,103,28182,1,0,0:0:0:0:
468,208,28399,5,0,0:0:0:0:
306,281,28617,1,0,0:0:0:0:
407,134,28834,2,0,L|525:114,1,90,8|0,0:0|0:0,0:0:0:0:
442,293,29269,1,0,0:0:0:0:
286,194,29486,1,0,0:0:0:0:
389,46,29704,2,0,L|502:27,1,90,8|0,0:0|0:0,0:0:0:0:
407,134,30138,5,2,0:0:0:0:
386,144,30247,1,0,0:0:0:0:
366,154,30356,1,2,0:0:0:0:
346,164,30464,1,0,0:0:0:0:
326,174,30573,2,0,L|286:193,3,45,10|0|2|0,0:0|0:0|0:0|0:0,0:0:0:0:
231,140,31008,2,0,L|186:135,3,45,10|0|10|0,0:0|0:0|0:0|0:0,0:0:0:0:
172,65,31443,1,10,0:0:0:0:
305,75,31660,1,8,0:0:0:0:
213,215,31878,6,0,L|81:246,1,135.000005149842,4|0,0:0|0:0,0:0:0:0:
126,321,32530,1,0,0:0:0:0:
210,300,32747,2,0,P|259:287|290:249,2,101.250003862381
282,160,33617,6,0,P|345:178|379:246,1,135.000005149842,2|0,0:0|0:0,0:0:0:0:
351,316,34269,1,0,0:0:0:0:
437,301,34486,2,0,P|462:266|461:199,2,101.250003862381
290,249,35356,6,0,B|211:220|255:121|165:83,2,202.500007724762,2|0|0,0:0|0:0|0:0,0:0:0:0:
449,99,37095,2,0,L|329:160,1,135.000005149842,2|0,0:0|0:0,0:0:0:0:
403,208,37747,1,2,0:0:0:0:
339,74,37964,2,0,L|267:29,1,67.5000025749208
196,61,38399,1,0,0:0:0:0:
179,68,38834,6,0,P|125:120|128:188,1,135.000005149842,2|0,0:0|0:0,0:0:0:0:
185,236,39486,1,0,0:0:0:0:
271,221,39704,2,0,P|249:176|207:151,2,101.250003862381
157,315,40573,6,0,P|113:278|110:200,1,135.000005149842,2|0,0:0|0:0,0:0:0:0:
185,236,41225,1,0,0:0:0:0:
241,303,41443,2,0,L|341:288,2,101.250003862381
270,157,42312,5,2,0:0:0:0:
433,275,42747,1,2,0:0:0:0:
230,272,43182,1,2,0:0:0:0:
397,159,43617,1,2,0:0:0:0:
338,352,44051,6,0,L|221:265,1,135.000005149842,2|0,0:0|0:0,0:0:0:0:
238,183,44704,1,0,0:0:0:0:
159,221,44921,2,0,P|143:282|186:346,1,135.000005149842,2|0,0:0|0:0,0:0:0:0:
310,232,45791,6,0,L|244:80,2,135,4|0|0,0:0|0:0|0:0,0:0:0:0:
437,315,46660,2,0,P|473:283|481:228,1,90,0|0,0:0|0:0,0:0:0:0:
475,199,46986,1,0,0:0:0:0:
475,199,47095,2,0,L|380:149,1,90,8|0,0:0|0:0,0:0:0:0:
238,246,47530,6,0,L|337:298,1,90
315,108,47964,1,8,0:0:0:0:
159,199,48182,1,0,0:0:0:0:
316,196,48399,2,0,L|231:151,1,90,0|0,0:0|0:0,0:0:0:0:
160,287,48834,2,0,L|246:334,1,90,8|0,0:0|0:0,0:0:0:0:
397,235,49269,6,0,P|407:188|377:128,1,90
236,153,49704,2,0,P|226:200|256:260,1,90,8|0,0:0|0:0,0:0:0:0:
397,235,50138,1,0,0:0:0:0:
316,196,50356,1,0,0:0:0:0:
238,330,50573,1,8,0:0:0:0:
318,285,50791,1,0,0:0:0:0:
236,153,51008,6,0,L|156:110,1,90
311,108,51443,1,8,0:0:0:0:
159,199,51660,1,0,0:0:0:0:
159,199,51769,1,0,0:0:0:0:
159,199,51878,2,0,P|79:155|83:60,1,180,0|8,0:0|0:0,0:0:0:0:
235,63,52530,1,0,0:0:0:0:
160,287,52747,6,0,P|97:277|21:224,2,135,4|0|0,0:0|0:0|0:0,0:0:0:0:
316,196,53617,1,0,0:0:0:0:
159,199,53834,1,0,0:0:0:0:
159,199,53943,1,0,0:0:0:0:
159,199,54051,2,0,L|261:248,1,90,8|0,0:0|0:0,0:0:0:0:
396,147,54486,6,0,L|395:56,1,90
236,153,54921,1,8,0:0:0:0:
397,235,55138,1,0,0:0:0:0:
235,63,55356,1,0,0:0:0:0:
240,237,55573,1,0,0:0:0:0:
395,57,55791,1,8,0:0:0:0:
236,153,56008,1,0,0:0:0:0:
477,272,56225,6,0,P|482:211|426:151,2,135,4|8|8,0:0|0:0|0:0,0:0:0:0:
264,365,57095,2,0,B|195:358|165:335|165:335|197:312,2,135,4|8|8,0:0|0:0|0:0,0:0:0:0:
287,161,57964,6,0,B|254:111|214:119|179:66,2,135,4|8|8,0:0|0:0|0:0,0:0:0:0:
132,340,58834,1,8,0:0:0:0:
118,328,59704,5,0,0:0:0:0:
105,317,60138,1,0,0:0:0:0:
93,307,60573,1,0,0:0:0:0:
91,226,61008,2,0,L|90:130,1,90,0|0,0:0|0:0,0:0:0:0:
313,65,61443,6,0,P|390:108|386:211,1,180,4|8,0:0|0:0,0:0:0:0:
240,212,62095,2,0,L|312:158,1,90,0|0,0:0|0:0,0:0:0:0:
333,337,62530,1,0,0:0:0:0:
167,266,62747,1,8,0:0:0:0:
322,247,62964,1,0,0:0:0:0:
176,356,63182,6,0,P|105:331|83:234,1,180,0|8,0:0|0:0,0:0:0:0:
155,179,63834,1,0,0:0:0:0:
322,247,64051,2,0,L|423:295,1,90,2|0,0:1|0:0,0:0:0:0:
312,158,64486,1,8,0:0:0:0:
333,337,64704,1,0,0:0:0:0:
396,192,64921,6,0,P|391:113|293:68,1,180,0|8,0:0|0:0,0:0:0:0:
231,122,65573,1,0,0:0:0:0:
211,274,65791,1,0,0:0:0:0:
312,158,66008,1,0,0:0:0:0:
162,190,66225,1,8,0:0:0:0:
303,248,66443,1,0,0:0:0:0:
136,103,66660,6,0,P|79:156|112:265,1,180,0|8,0:0|0:0,0:0:0:0:
216,271,67312,2,0,L|303:248,1,90,0|2,0:0|0:1,0:0:0:0:
476,201,67747,1,0,0:0:0:0:
368,134,67965,1,8,0:0:0:0:
419,306,68182,1,0,0:0:0:0:
450,98,68399,6,0,L|373:39,1,90
286,165,68834,2,0,L|266:281,2,90,8|0|0,0:0|0:0|0:0,0:0:0:0:
450,98,69486,1,0,0:0:0:0:
356,220,69703,1,8,0:0:0:0:
378,43,69921,1,0,0:0:0:0:
426,275,70138,6,0,L|328:315,1,90
202,198,70573,2,0,L|300:159,2,90,8|0|2,0:0|0:0|0:1,0:0:0:0:
176,376,71225,1,0,0:0:0:0:
270,253,71443,1,8,0:0:0:0:
118,231,71660,1,0,0:0:0:0:
342,309,71878,6,0,P|354:220|274:161,1,180,4|8,0:0|0:0,0:0:0:0:
270,253,72530,1,0,0:0:0:0:
435,181,72748,1,0,0:0:0:0:
257,151,72965,1,0,0:0:0:0:
388,274,73183,1,8,0:0:0:0:
358,96,73400,1,0,0:0:0:0:
186,216,73617,6,0,L|269:252,1,90,4|0,0:0|0:0,0:0:0:0:
242,74,74051,1,8,0:0:0:0:
119,274,74269,1,0,0:0:0:0:
119,274,74378,1,0,0:0:0:0:
119,274,74486,1,8,0:0:0:0:
159,37,74704,1,8,0:0:0:0:
269,252,74921,1,8,0:0:0:0:
35,235,75138,1,8,0:0:0:0:
276,112,75356,6,0,L|363:147,1,90,4|0,0:0|0:0,0:0:0:0:
295,314,75791,2,0,L|201:277,1,90,8|0,0:0|0:0,0:0:0:0:
98,141,76225,1,0,0:0:0:0:
240,197,76443,1,0,0:0:0:0:
126,299,76660,1,8,0:0:0:0:
186,127,76877,1,0,0:0:0:0:
302,263,77095,6,0,L|126:299,1,180,0|8,0:0|0:0,0:0:0:0:
69,227,77747,1,0,0:0:0:0:
186,127,77964,2,0,L|149:233,1,90,2|0,0:1|0:0,0:0:0:0:
121,62,78399,1,8,0:0:0:0:
240,197,78617,1,0,0:0:0:0:
93,142,78834,6,0,B|47:94|62:36|62:36|125:63,1,180,0|8,0:0|0:0,0:0:0:0:
156,211,79486,1,0,0:0:0:0:
156,211,79595,1,0,0:0:0:0:
156,211,79704,1,0,0:0:0:0:
270,110,79921,1,0,0:0:0:0:
212,281,80138,1,8,0:0:0:0:
329,179,80356,1,0,0:0:0:0:
172,362,80573,6,0,P|123:290|156:210,1,180,0|8,0:0|0:0,0:0:0:0:
270,110,81225,2,0,L|385:93,1,90,0|2,0:0|0:1,0:0:0:0:
385,248,81660,1,0,0:0:0:0:
240,197,81878,1,8,0:0:0:0:
405,226,82095,1,0,0:0:0:0:
212,281,82312,6,0,L|115:298,1,90
93,143,82747,2,0,L|194:126,1,90,8|0,0:0|0:0,0:0:0:0:
329,179,83182,1,0,0:0:0:0:
212,281,83399,1,0,0:0:0:0:
270,110,83616,1,8,0:0:0:0:
234,302,83834,1,0,0:0:0:0:
214,44,84051,6,0,P|259:24|316:38,1,90
329,179,84486,2,0,L|298:270,2,90,8|0|2,0:0|0:0|0:1,0:0:0:0:
181,128,85138,1,0,0:0:0:0:
212,281,85356,2,0,L|247:184,1,90,8|0,0:0|0:0,0:0:0:0:
5,159,85791,5,12,0:0:0:0:
123,296,86008,1,0,0:0:0:0:
125,60,86225,1,8,0:0:0:0:
69,227,86443,1,0,0:0:0:0:
69,227,86551,1,0,0:0:0:0:
69,227,86660,1,12,0:0:0:0:
270,110,86878,1,0,0:0:0:0:
5,159,87095,1,8,0:0:0:0:
299,264,87312,1,0,0:0:0:0:
299,264,87421,1,0,0:0:0:0:
299,264,87530,5,12,0:0:0:0:
256,192,87638,12,0,93508,0:0:0:0:
