osu file format v14

[General]
AudioFilename: senya.mp3
AudioLeadIn: 0
PreviewTime: 59971
Countdown: 0
SampleSet: Soft
StackLeniency: 0.7
Mode: 0
LetterboxInBreaks: 1
WidescreenStoryboard: 1

[Editor]
DistanceSpacing: 0.5
BeatDivisor: 4
GridSize: 32
TimelineZoom: 1.3

[Metadata]
Title:Iro wa Nio e do Chiri Nuru o
TitleUnicode:色は匂へど散りぬるを
Artist:senya
ArtistUnicode:senya
Creator:buhei
Version:2016 Collab Insane by buhei&Kencho&Yoru
Source:東方Project
Tags:zun yuuhei satellite 幽閉サテライト mayumi morinaga 森永真由美 東方プロジェクト project Silver Fran Flower Inazuma Kencho Hakurei Yoru liaoxingyao z1085684963 Even the Blossoming Flowers Will Eventually Scatte The gensokyo gods loved stage 3 theme 神々が恋した幻想郷 stage 3 theme touhou fuujinroku mountain of faith nitori kawashiri memories of phantasm reitaisai sp sp2 iceon kamase tora
BeatmapID:936354
BeatmapSetID:68362

[Difficulty]
HPDrainRate:7
CircleSize:4
OverallDifficulty:7.5
ApproachRate:8.5
SliderMultiplier:1.6
SliderTickRate:1

[Events]
//Background and Video events
0,0,"Konachan.com - 135505 77gl dress food hat kaku_seiga kasodani_kyouko konpaku_youmu miyako_yoshika mononobe_no_futo myon saigyouji_yuyuko tagme tatara_kogasa touhou umbrella.jpg",0,0
//Break Periods
2,90387,103426
//Storyboard Layer 0 (Background)
//Storyboard Layer 1 (Fail)
//Storyboard Layer 2 (Pass)
//Storyboard Layer 3 (Foreground)
Sprite,Foreground,Centre,"SB\Lyric\Title-2.png",320,240 M,0,24101,,321,242 F,0,24101,25840,0,1 F,0,25840,29318,1 F,0,29318,31058,1,0
Sprite,Foreground,Centre,"SB\Lyric\Title.png",320,240 M,0,17145,,321,242 F,0,17145,24101,1 F,0,24101,25840,1,0 F,0,25840,,0
//Storyboard Layer 4 (Overlay)
//Storyboard Sound Samples

[TimingPoints]
17145,434.782608695652,4,2,0,50,1,0
31275,-100,4,2,0,40,0,0
43231,-125,4,2,0,40,0,0
44971,-100,4,2,0,50,0,0
55405,-100,4,2,0,60,0,0
60623,-83.3333333333333,4,2,0,70,0,1
72797,-83.3333333333333,4,2,0,80,0,1
74536,-83.3333333333333,4,2,0,70,0,1
84971,-83.3333333333333,4,2,0,80,0,1
87144,-83.3333333333333,4,2,0,70,0,1
90188,-83.3333333333333,4,2,0,70,0,0
104101,-100,4,2,2,50,0,0
118014,-100,4,2,2,60,0,0
131927,-83.3333333333333,4,2,2,70,0,1
158014,-100,4,2,2,70,0,0
158123,-100,4,2,2,40,0,0
161492,-100,4,2,0,40,0,0
163231,-100,4,2,0,50,0,0
164318,-83.3333333333333,4,2,0,50,0,0
164971,-83.3333333333333,4,2,0,60,0,0
171927,-133.333333333333,4,2,0,60,0,0
172362,-83.3333333333333,4,2,0,60,0,0
178884,-117.647058823529,4,2,0,60,0,0
180623,-69.9300699300699,4,2,0,60,0,0
181927,-100,4,2,0,60,0,0
182362,-66.6666666666667,4,2,0,60,0,0
182797,-83.3333333333333,4,2,0,75,0,1
208449,-83.3333333333333,4,2,0,75,0,0
208558,-83.3333333333333,4,2,0,40,0,0
215405,-83.3333333333333,4,2,0,5,0,0

[Colours]
Combo1 : 134,228,249
Combo2 : 248,223,7
Combo3 : 255,172,214
Combo4 : 197,247,26

[HitObjects]
89,110,17145,5,4,0:0:0:0:
230,58,17362,1,2,0:0:0:0:
173,218,17579,1,0,1:0:0:0:
89,110,17797,1,2,0:0:0:0:
230,58,18014,2,0,P|272:53|318:59,1,80,0|2,0:0|0:0,0:0:0:0:
380,90,18340,1,0,0:0:0:0:
380,90,18449,2,0,L|462:86,1,80,0|2,1:0|0:0,0:0:0:0:
499,247,18884,6,0,P|461:253|420:248,1,80,0|2,0:0|0:0,0:0:0:0:
319,188,19318,1,0,1:0:0:0:
286,339,19536,1,2,0:0:0:0:
122,275,19753,2,0,B|162:274|162:274|195:253,1,80,0|2,0:0|0:0,0:0:0:0:
139,194,20079,1,0,0:0:0:0:
139,194,20188,2,0,B|99:195|99:195|66:216,1,80,0|0,1:0|1:0,0:0:0:0:
244,323,20623,6,0,P|235:259|286:177,1,160,0|0,0:0|1:0,0:0:0:0:
394,133,21275,1,2,0:0:0:0:
223,90,21492,2,0,P|265:89|301:66,1,80,0|2,0:0|0:0,0:0:0:0:
189,20,21818,1,0,0:0:0:0:
189,20,21927,2,0,P|157:47|144:88,1,80,0|2,1:0|0:0,0:0:0:0:
86,216,22362,6,0,B|126:231|163:222|163:222|200:211|247:223,1,160,4|0,0:0|1:0,0:0:0:0:
336,238,23014,1,2,0:0:0:0:
199,296,23231,2,0,L|181:376,1,80,4|2,0:0|0:0,0:0:0:0:
297,164,23666,2,0,L|314:85,1,80,4|0,1:2|1:0,0:0:0:0:
320,63,23992,1,0,1:0:0:0:
326,40,24101,5,4,1:2:0:0:
480,130,24318,2,0,P|447:104|408:96,1,80,2|0,0:0|1:0,0:0:0:0:
503,223,24753,1,2,0:0:0:0:
414,348,24971,2,0,L|431:269,1,80,0|2,1:0|0:0,0:0:0:0:
317,145,25405,2,0,L|334:224,1,80,0|2,1:0|0:0,0:0:0:0:
211,303,25840,5,2,0:0:0:0:
223,311,25949,1,0,0:0:0:0:
235,319,26058,2,0,P|279:322|314:341,1,80,2|0,0:0|1:0,0:0:0:0:
159,231,26492,1,2,0:0:0:0:
147,239,26601,1,0,0:0:0:0:
135,247,26710,2,0,P|90:250|56:269,1,80,4|2,0:0|0:0,0:0:0:0:
202,57,27144,2,0,P|246:60|281:79,1,80,4|2,1:2|0:0,0:0:0:0:
490,126,27579,6,0,B|361:139,1,120,4|0,0:0|0:0,0:0:0:0:
305,197,28014,2,0,B|290:236|311:284,1,80,0|2,1:0|0:0,0:0:0:0:
322,305,28340,1,0,0:0:0:0:
349,325,28449,1,0,1:0:0:0:
141,289,28666,2,0,L|221:283,1,80,2|0,0:0|1:0,0:0:0:0:
63,222,29101,1,2,0:0:0:0:
153,66,29318,6,0,L|166:105,1,40,2|0,0:0|0:0,0:0:0:0:
242,88,29536,2,0,L|240:129,1,40,2|0,0:0|0:0,0:0:0:0:
318,139,29753,2,0,L|302:177,1,40,2|0,1:2|0:0,0:0:0:0:
371,211,29971,2,0,L|343:241,1,40,2|0,0:0|0:0,0:0:0:0:
378,332,30188,5,2,1:2:0:0:
346,337,30297,1,0,0:0:0:0:
314,334,30405,1,2,0:0:0:0:
283,323,30514,1,0,0:0:0:0:
251,319,30623,1,2,1:2:0:0:
219,321,30731,1,0,0:0:0:0:
188,329,30840,1,2,0:0:0:0:
156,336,30949,1,0,0:0:0:0:
124,331,31058,5,4,1:2:0:0:
52,266,31275,2,0,L|65:98,1,160,2|0,0:0|0:0,0:0:0:0:
171,38,31927,2,0,P|211:35|250:46,1,80,2|0,0:0|0:0,0:0:0:0:
300,101,32253,2,0,P|340:104|379:93,1,80,2|0,0:0|0:0,0:0:0:0:
418,31,32579,1,2,0:0:0:0:
488,192,32797,6,0,L|355:183,2,120,2|0|2,0:0|0:0|0:0,0:0:0:0:
401,302,33666,2,0,L|315:307,1,80,2|0,0:0|0:0,0:0:0:0:
283,282,33992,2,0,L|362:286,1,80,2|0,0:0|0:0,0:0:0:0:
390,264,34318,1,2,0:0:0:0:
322,188,34536,6,0,P|254:203|171:163,1,160,2|0,0:0|0:0,0:0:0:0:
132,94,35188,1,2,0:0:0:0:
200,36,35405,2,0,L|289:33,1,80,2|2,0:0|0:0,0:0:0:0:
132,94,35840,2,0,L|43:91,1,80,0|2,0:0|0:0,0:0:0:0:
77,180,36275,6,0,P|85:219|73:303,1,120,2|0,0:0|0:0,0:0:0:0:
48,335,36710,2,0,P|91:328|129:330,1,80,0|2,0:0|0:0,0:0:0:0:
240,292,37144,1,0,0:0:0:0:
240,292,37253,2,0,P|279:290|319:297,1,80,2|2,0:0|0:0,0:0:0:0:
390,261,37579,2,0,P|429:262|469:255,1,80,2|2,0:0|0:0,0:0:0:0:
421,170,38014,6,0,P|407:116|440:21,1,160,0|2,0:0|0:0,0:0:0:0:
502,80,38666,1,0,0:0:0:0:
333,140,38884,2,0,B|291:143|291:143|254:128,1,80,2|0,0:0|0:0,0:0:0:0:
239,49,39210,2,0,L|120:57,1,120,2|2,0:0|0:0,0:0:0:0:
15,177,39753,6,0,P|73:222|164:204,1,160,0|2,0:0|0:0,0:0:0:0:
220,161,40405,1,0,0:0:0:0:
329,248,40623,1,0,0:0:0:0:
329,248,40731,2,0,P|286:250|252:261,1,80,2|0,0:0|0:0,0:0:0:0:
190,333,41058,2,0,P|229:334|267:346,1,80,2|0,0:0|0:0,0:0:0:0:
406,311,41492,6,0,P|419:242|381:158,1,160,2|0,0:0|0:0,0:0:0:0:
336,91,42144,1,2,0:0:0:0:
244,149,42362,2,0,P|206:150|164:140,1,80,2|0,0:0|0:0,0:0:0:0:
336,91,42797,2,0,P|374:92|416:82,1,80,2|0,0:0|0:0,0:0:0:0:
207,238,43231,6,0,P|138:227|53:143,1,192,2|2,0:0|0:0,0:0:0:0:
132,48,44101,2,0,L|131:64,12,16,2|0|0|0|0|0|0|0|0|0|0|0|0,0:0|0:0|0:0|0:0|0:0|0:0|0:0|0:0|0:0|0:0|0:0|0:0|0:0,0:0:0:0:
230,99,44971,6,0,P|278:107|323:99,1,80,4|0,0:0|0:0,0:0:0:0:
344,93,45297,1,0,0:0:0:0:
378,103,45405,2,0,P|417:106|456:98,1,80,0|2,1:0|0:0,0:0:0:0:
486,179,45840,1,0,0:0:0:0:
341,233,46058,1,2,0:0:0:0:
461,332,46275,1,0,1:0:0:0:
486,179,46493,1,0,0:0:0:0:
370,319,46710,6,0,P|326:318|262:269,1,120,2|0,0:0|0:0,0:0:0:0:
207,189,47144,2,0,B|168:193|168:193|128:187,1,80,0|2,1:0|0:0,0:0:0:0:
39,66,47579,2,0,L|121:62,1,80,2|0,0:0|0:0,0:0:0:0:
323,115,48014,2,0,L|241:111,1,80,0|2,1:0|0:0,0:0:0:0:
218,109,48340,1,0,1:0:0:0:
193,109,48449,5,0,1:0:0:0:
326,198,48666,1,2,0:0:0:0:
417,137,48884,2,0,P|416:90|403:53,1,80,0|0,1:0|0:0,0:0:0:0:
415,230,49318,1,0,0:0:0:0:
266,273,49536,1,2,0:0:0:0:
436,327,49753,2,0,P|395:317|355:319,1,80,0|0,1:0|0:0,0:0:0:0:
195,350,50188,5,0,1:0:0:0:
195,350,50297,1,0,1:0:0:0:
195,350,50405,1,2,0:0:0:0:
101,258,50623,1,0,1:0:0:0:
238,186,50840,1,0,1:0:0:0:
190,59,51058,1,2,0:0:0:0:
312,148,51275,1,2,0:0:0:0:
342,157,51384,1,0,0:0:0:0:
373,154,51492,1,0,1:0:0:0:
402,140,51601,1,0,1:0:0:0:
423,116,51710,1,2,1:2:0:0:
238,186,51927,6,0,L|253:272,1,80,4|2,0:0|0:0,0:0:0:0:
374,374,52362,2,0,L|360:295,1,80,0|2,1:0|0:0,0:0:0:0:
246,106,52797,1,0,1:0:0:0:
246,106,52905,2,0,P|204:110|160:102,1,80,2|0,0:0|0:0,0:0:0:0:
23,55,53231,2,0,P|62:49|102:53,1,80,2|0,1:2|0:0,0:0:0:0:
81,266,53666,6,0,P|42:200|68:122,1,160,2|0,0:0|1:0,0:0:0:0:
181,192,54318,1,2,0:0:0:0:
170,314,54536,1,0,1:0:0:0:
168,337,54644,1,0,1:0:0:0:
166,360,54753,1,2,0:0:0:0:
324,207,54971,2,0,L|329:246,1,40,0|0,1:0|0:0,0:0:0:0:
435,265,55188,2,0,L|430:304,1,40,0|0,1:0|0:0,0:0:0:0:
355,347,55405,6,0,P|307:347|266:326,1,80,4|0,0:0|0:0,0:0:0:0:
235,264,55731,2,0,L|226:138,1,120,2|2,0:0|0:0,0:0:0:0:
24,48,56275,1,4,1:2:0:0:
24,48,56384,2,0,P|61:61|100:60,1,80,0|2,1:0|0:0,0:0:0:0:
186,50,56710,2,0,L|277:46,1,80,0|2,0:0|0:0,0:0:0:0:
466,183,57144,5,4,1:2:0:0:
466,183,57253,2,2,B|424:175|424:175|387:184,1,80,0|2,1:0|0:0,0:0:0:0:
317,262,57579,2,0,B|280:271|280:271|238:263,1,80,8|2,1:2|0:0,0:0:0:0:
208,253,57905,1,0,0:0:0:0:
187,228,58014,1,2,0:0:0:0:
68,187,58231,1,2,0:0:0:0:
68,187,58340,1,0,0:0:0:0:
68,187,58449,1,2,0:0:0:0:
187,41,59971,5,2,0:0:0:0:
156,121,60188,1,2,0:0:0:0:
241,108,60405,1,2,0:0:0:0:
53,118,60623,6,0,P|74:181|70:261,1,143.999995605469,0|2,1:0|0:0,0:0:0:0:
9,338,61058,2,0,L|115:334,1,95.9999970703126,0|2,1:0|0:0,0:0:0:0:
349,331,61492,1,0,1:0:0:0:
173,259,61710,1,2,0:0:0:0:
323,142,61927,1,0,1:0:0:0:
349,331,62144,1,2,0:0:0:0:
135,167,62362,6,0,P|182:176|232:166,1,95.9999970703126,0|2,1:0|0:0,0:0:0:0:
228,167,62688,1,0,0:0:0:0:
228,167,62797,1,0,1:0:0:0:
66,99,63014,1,2,0:0:0:0:
113,276,63231,1,4,1:2:0:0:
113,276,63340,2,0,L|13:295,1,95.9999970703126,2|0,0:0|0:0,0:0:0:0:
0,376,63666,2,0,L|94:358,1,95.9999970703126,0|2,1:0|1:2,0:0:0:0:
248,275,64101,6,0,P|234:203|170:153,1,143.999995605469,0|0,1:0|0:0,0:0:0:0:
86,134,64536,2,0,P|75:88|89:37,1,95.9999970703126,4|2,1:2|0:0,0:0:0:0:
86,41,64862,1,0,0:0:0:0:
86,41,64971,1,0,1:0:0:0:
20,189,65188,1,2,0:0:0:0:
161,88,65405,1,0,1:0:0:0:
283,143,65623,1,2,0:0:0:0:
440,88,65840,6,0,P|392:88|343:59,1,95.9999970703126,0|2,1:0|0:0,0:0:0:0:
399,257,66275,2,0,L|497:254,1,95.9999970703126,0|2,1:0|0:0,0:0:0:0:
301,327,66710,1,4,1:2:0:0:
301,327,66818,1,0,0:0:0:0:
301,327,66927,1,2,0:0:0:0:
146,233,67144,2,0,P|194:233|243:262,1,95.9999970703126,4|2,1:2|1:2,0:0:0:0:
83,300,67579,6,0,P|105:230|58:141,1,143.999995605469,0|0,1:0|0:0,0:0:0:0:
28,67,68014,2,0,L|126:85,1,95.9999970703126,4|0,1:2|0:0,0:0:0:0:
338,33,68449,1,0,1:0:0:0:
338,33,68558,2,0,L|240:51,1,95.9999970703126,2|0,0:0|0:0,0:0:0:0:
193,137,68884,2,0,L|287:119,1,95.9999970703126,0|2,1:0|0:0,0:0:0:0:
431,111,69318,5,0,1:0:0:0:
243,50,69536,1,2,0:0:0:0:
319,220,69753,1,4,1:2:0:0:
431,111,69971,1,2,0:0:0:0:
193,137,70188,1,0,1:0:0:0:
193,137,70297,2,0,P|147:140|96:118,1,95.9999970703126,2|0,0:0|0:0,0:0:0:0:
94,207,70623,2,0,P|49:189|2:191,1,95.9999970703126,0|2,1:0|0:0,0:0:0:0:
2,191,70949,1,0,0:0:0:0:
2,191,71058,5,0,1:0:0:0:
110,340,71275,1,2,0:0:0:0:
219,235,71492,2,0,P|267:233|311:255,1,95.9999970703126,0|2,1:0|0:0,0:0:0:0:
378,351,71927,1,0,1:0:0:0:
378,351,72036,1,0,0:0:0:0:
378,351,72144,1,2,0:0:0:0:
470,240,72362,1,0,1:0:0:0:
366,108,72579,1,2,0:0:0:0:
237,61,72797,6,0,P|191:61|140:41,1,95.9999970703126,4|2,1:2|0:0,0:0:0:0:
5,224,73231,2,0,P|51:224|102:204,1,95.9999970703126,0|2,1:0|0:0,0:0:0:0:
157,153,73558,1,0,1:0:0:0:
157,153,73666,2,0,L|202:139,1,47.9999985351563,4|0,1:2|0:0,0:0:0:0:
292,172,73884,2,0,L|306:217,1,47.9999985351563,2|0,1:2|0:0,0:0:0:0:
233,311,74101,2,0,L|219:266,1,47.9999985351563,4|0,1:2|1:0,0:0:0:0:
368,330,74318,2,0,L|323:344,1,47.9999985351563,2|0,1:2|1:0,0:0:0:0:
381,244,74536,6,0,L|476:257,1,95.9999970703126,4|2,1:2|0:0,0:0:0:0:
476,257,74862,1,0,0:0:0:0:
476,257,74971,1,0,1:0:0:0:
414,141,75188,1,2,0:0:0:0:
301,46,75405,2,0,P|258:46|207:72,1,95.9999970703126,0|2,1:0|0:0,0:0:0:0:
54,119,75840,2,0,P|97:119|148:145,1,95.9999970703126,0|2,1:0|0:0,0:0:0:0:
296,213,76275,6,0,P|237:226|174:287,1,143.999995605469,0|2,1:0|0:0,0:0:0:0:
91,344,76710,2,0,P|134:344|185:370,1,95.9999970703126,0|2,1:0|0:0,0:0:0:0:
367,277,77144,1,4,1:2:0:0:
352,296,77253,1,0,0:0:0:0:
331,308,77362,1,2,0:0:0:0:
307,313,77471,1,0,0:0:0:0:
283,311,77579,1,0,1:0:0:0:
178,267,77797,1,2,1:2:0:0:
55,158,78014,6,0,L|201:173,1,143.999995605469,0|0,1:0|0:0,0:0:0:0:
219,86,78449,2,0,L|314:78,1,95.9999970703126,4|2,1:2|0:0,0:0:0:0:
314,77,78775,1,0,0:0:0:0:
314,77,78884,1,0,1:0:0:0:
358,247,79101,1,2,0:0:0:0:
483,124,79318,1,0,1:0:0:0:
314,77,79535,1,2,0:0:0:0:
305,311,79753,6,0,P|352:327|399:319,1,95.9999970703126,0|2,1:0|0:0,0:0:0:0:
241,215,80188,1,0,1:0:0:0:
156,378,80405,1,2,0:0:0:0:
30,284,80623,1,4,1:2:0:0:
29,272,80731,1,2,0:0:0:0:
28,260,80840,2,0,P|72:244|119:251,1,95.9999970703126,0|4,0:0|1:2,0:0:0:0:
251,121,81275,1,0,0:0:0:0:
130,173,81492,6,0,P|76:160|53:78,1,143.999995605469,0|0,1:0|0:0,0:0:0:0:
201,33,81927,2,0,L|101:21,1,95.9999970703126,4|2,1:2|0:0,0:0:0:0:
251,121,82362,1,0,1:0:0:0:
251,121,82471,2,0,L|351:109,1,95.9999970703126,2|2,0:0|0:0,0:0:0:0:
406,207,82797,2,0,L|306:195,1,95.9999970703126,0|2,1:0|0:0,0:0:0:0:
472,266,83231,6,0,P|492:213|448:130,1,143.999995605469,0|0,1:0|0:0,0:0:0:0:
345,59,83666,2,0,L|448:55,1,95.9999970703126,4|2,1:2|0:0,0:0:0:0:
236,221,84101,1,0,1:0:0:0:
236,221,84210,2,0,P|186:227|137:210,1,95.9999970703126,2|0,0:0|0:0,0:0:0:0:
81,166,84536,2,0,L|29:170,1,47.9999985351563,0|0,1:0|0:0,0:0:0:0:
150,62,84753,2,0,L|202:66,1,47.9999985351563,2|0,1:2|0:0,0:0:0:0:
279,28,84971,6,0,L|281:76,1,47.9999985351563,4|0,1:2|0:0,0:0:0:0:
356,94,85188,2,0,L|353:141,1,47.9999985351563,0|0,1:0|0:0,0:0:0:0:
426,166,85405,2,0,L|419:213,1,47.9999985351563,0|0,1:0|0:0,0:0:0:0:
489,243,85623,2,0,L|478:289,1,47.9999985351563,0|0,1:0|1:0,0:0:0:0:
423,352,85840,6,0,L|374:348,1,47.9999985351563,4|0,1:2|0:0,0:0:0:0:
303,255,86058,2,0,L|254:259,1,47.9999985351563,0|0,1:0|0:0,0:0:0:0:
189,335,86275,2,0,L|140:331,1,47.9999985351563,4|0,1:2|0:0,0:0:0:0:
73,275,86492,2,0,L|24:279,1,47.9999985351563,0|0,1:0|1:0,0:0:0:0:
136,199,86710,5,4,1:2:0:0:
136,180,87144,1,2,0:0:0:0:
136,161,87579,1,2,0:0:0:0:
136,142,88014,1,2,0:0:0:0:
136,123,88449,6,0,P|182:120|232:135,1,95.9999970703126,2|0,0:0|0:0,0:0:0:0:
407,76,88884,2,0,P|361:73|311:88,1,95.9999970703126,2|0,0:0|0:0,0:0:0:0:
388,300,89318,5,2,0:0:0:0:
407,286,89426,1,0,0:0:0:0:
421,267,89535,1,2,0:0:0:0:
430,244,89644,1,0,0:0:0:0:
431,220,89752,1,2,1:2:0:0:
425,197,89861,1,0,1:0:0:0:
412,177,89970,1,2,1:2:0:0:
394,161,90078,1,0,1:0:0:0:
372,152,90187,5,4,1:2:0:0:
372,152,104101,6,0,P|333:161|293:159,1,80,4|0,0:0|0:0,0:0:0:0:
178,43,104536,2,0,P|217:40|256:50,1,80,8|4,0:0|0:3,0:0:0:0:
372,152,104971,1,2,0:0:0:0:
217,207,105188,1,0,0:0:0:0:
217,207,105297,1,0,0:0:0:0:
217,207,105405,2,0,P|207:168|209:128,1,80,8|0,0:0|0:0,0:0:0:0:
368,231,105840,6,0,L|365:310,1,80,6|0,0:3|0:0,0:0:0:0:
223,372,106275,2,0,L|220:293,1,80,8|0,0:0|0:0,0:0:0:0:
297,221,106710,1,2,0:0:0:0:
407,310,106927,1,4,0:3:0:0:
407,310,107036,1,0,0:0:0:0:
407,310,107144,2,0,P|368:319|328:315,1,80,8|0,0:0|0:0,0:0:0:0:
192,156,107579,6,0,P|230:146|270:150,1,80,6|0,0:3|0:0,0:0:0:0:
284,165,107905,1,0,0:0:0:0:
296,181,108014,2,0,L|297:220,1,40,12|0,0:3|0:0,0:0:0:0:
246,294,108231,2,0,L|247:333,1,40,4|0,0:3|0:0,0:0:0:0:
353,365,108449,1,6,0:3:0:0:
297,221,108666,1,0,0:0:0:0:
215,332,108884,1,8,0:0:0:0:
159,188,109101,1,0,0:0:0:0:
159,188,109210,1,0,0:0:0:0:
159,188,109318,6,0,L|0:177,1,160,6|8,0:3|0:0,0:0:0:0:
144,111,109971,1,4,0:3:0:0:
71,295,110188,2,0,P|59:256|62:217,1,80,2|4,0:0|0:3,0:0:0:0:
207,270,110623,2,0,P|209:309|198:347,1,80,12|0,0:3|0:0,0:0:0:0:
139,202,111058,5,6,0:3:0:0:
275,202,111275,1,0,0:0:0:0:
207,270,111492,1,12,0:3:0:0:
207,135,111710,1,4,0:3:0:0:
357,163,111927,2,0,P|365:201|357:240,1,80,2|0,0:0|0:0,0:0:0:0:
350,260,112253,1,0,0:0:0:0:
344,280,112362,2,0,P|335:318|343:357,1,80,8|0,0:0|0:0,0:0:0:0:
493,163,112797,5,6,0:3:0:0:
357,163,113014,1,0,0:0:0:0:
425,231,113231,1,12,0:3:0:0:
425,96,113449,1,4,0:3:0:0:
275,124,113666,2,0,P|266:162|274:201,1,80,2|0,0:0|0:0,0:0:0:0:
282,221,113992,1,0,0:0:0:0:
288,241,114101,2,0,P|296:279|288:318,1,80,8|0,0:0|0:0,0:0:0:0:
114,176,114536,6,0,L|193:171,1,80,6|0,0:3|0:0,0:0:0:0:
80,302,114971,2,0,L|0:297,1,80,8|0,0:0|0:0,0:0:0:0:
128,148,115405,2,0,L|207:143,1,80,2|0,0:0|0:0,0:0:0:0:
94,330,115840,2,0,L|14:325,1,80,8|0,0:0|0:0,0:0:0:0:
142,120,116275,6,0,L|249:115,1,80,6|0,0:3|0:0,0:0:0:0:
190,243,116710,1,8,0:0:0:0:
61,124,116927,1,0,0:0:0:0:
61,124,117036,1,0,0:0:0:0:
61,124,117144,5,2,0:0:0:0:
221,116,117362,1,0,0:0:0:0:
102,250,117579,1,8,0:0:0:0:
141,39,117797,1,0,0:0:0:0:
141,39,117905,1,0,0:0:0:0:
141,39,118014,6,0,L|260:33,1,120,6|0,0:3|0:0,0:0:0:0:
295,52,118449,2,0,L|374:48,1,80,8|0,0:0|0:0,0:0:0:0:
497,187,118884,2,0,L|378:193,1,120,6|0,0:3|0:0,0:0:0:0:
343,174,119318,2,0,L|263:177,1,80,12|4,0:3|0:3,0:0:0:0:
295,52,119753,5,6,0:3:0:0:
343,174,119971,1,4,0:3:0:0:
234,104,120188,1,12,0:3:0:0:
364,95,120405,1,4,0:3:0:0:
262,178,120623,2,0,P|223:182|186:167,1,80,6|4,0:3|0:3,0:0:0:0:
66,61,121058,2,0,P|102:46|142:50,1,80,12|4,0:3|0:3,0:0:0:0:
118,156,121492,5,6,0:3:0:0:
0,95,121710,1,4,0:3:0:0:
198,117,121927,2,0,P|206:155|198:194,1,80,12|4,0:3|0:3,0:0:0:0:
57,274,122362,1,6,0:3:0:0:
118,156,122579,1,4,0:3:0:0:
96,354,122797,2,0,P|57:362|18:354,1,80,12|4,0:3|0:3,0:0:0:0:
172,280,123231,6,0,L|251:282,1,80,6|4,0:3|0:3,0:0:0:0:
408,356,123666,2,0,L|328:358,1,80,12|4,0:3|0:3,0:0:0:0:
212,207,124101,1,6,0:3:0:0:
320,151,124318,2,0,L|359:149,1,40,4|0,0:3|0:0,0:0:0:0:
261,83,124536,1,12,0:3:0:0:
369,27,124753,2,0,L|408:25,1,40,4|0,0:3|0:0,0:0:0:0:
194,29,124971,6,0,P|175:85|196:140,1,120,6|0,0:3|0:0,0:0:0:0:
216,175,125405,2,0,L|136:182,1,80,8|0,0:0|0:0,0:0:0:0:
283,229,125840,2,0,P|301:172|280:117,1,120,6|0,0:3|0:0,0:0:0:0:
261,83,126275,2,0,L|340:75,1,80,12|4,0:3|0:3,0:0:0:0:
194,29,126710,5,6,0:3:0:0:
216,175,126928,1,4,0:3:0:0:
340,75,127144,1,12,0:3:0:0:
318,221,127362,1,4,0:3:0:0:
417,132,127579,2,0,P|456:135|494:149,1,80,6|4,0:3|0:3,0:0:0:0:
416,226,128014,1,12,0:3:0:0:
340,75,128231,1,4,0:3:0:0:
244,212,128449,5,6,0:3:0:0:
168,61,128666,1,4,0:3:0:0:
168,61,128775,1,0,0:0:0:0:
168,61,128884,2,0,L|247:62,1,80,12|4,0:3|0:3,0:0:0:0:
341,283,129318,5,6,0:3:0:0:
417,132,129535,1,4,0:3:0:0:
417,132,129644,1,0,0:0:0:0:
417,132,129753,2,0,L|337:133,1,80,12|4,0:3|0:3,0:0:0:0:
181,287,130188,6,0,L|300:284,1,120,6|0,0:3|0:0,0:0:0:0:
341,283,130623,1,8,0:0:0:0:
216,149,130840,1,0,0:0:0:0:
126,367,131058,6,0,L|245:364,1,120,2|0,0:0|0:0,0:0:0:0:
265,329,131492,2,0,P|272:289|264:250,1,80,8|0,0:0|0:0,0:0:0:0:
116,154,131927,6,0,L|20:160,1,95.9999970703126,6|0,0:0|0:0,0:0:0:0:
85,293,132362,2,0,L|181:287,1,95.9999970703126,8|0,0:0|0:0,0:0:0:0:
290,178,132797,1,2,0:0:0:0:
265,329,133014,1,0,0:0:0:0:
194,193,133231,1,8,0:0:0:0:
332,262,133449,1,0,0:0:0:0:
181,287,133666,6,0,B|134:290|134:290|38:276,1,143.999995605469,2|0,0:0|0:0,0:0:0:0:
0,270,134101,1,8,0:0:0:0:
194,193,134318,1,0,0:0:0:0:
64,358,134536,1,2,0:0:0:0:
64,358,134644,1,0,0:0:0:0:
64,358,134753,1,0,0:0:0:0:
14,192,134971,2,0,P|5:145|16:98,1,95.9999970703126,8|0,0:0|0:0,0:0:0:0:
169,113,135405,6,0,B|233:121|233:121|295:105|295:105|358:113,1,191.999994140625,2|8,0:0|0:0,0:0:0:0:
247,29,136058,1,0,0:0:0:0:
105,68,136275,2,0,P|91:113|104:159,1,95.9999970703126,6|4,0:3|0:3,0:0:0:0:
266,206,136710,2,0,P|278:160|265:114,1,95.9999970703126,12|4,0:3|0:3,0:0:0:0:
191,250,137144,6,0,L|335:260,1,143.999995605469,2|0,0:0|0:0,0:0:0:0:
372,264,137579,1,8,0:0:0:0:
266,206,137797,1,4,0:3:0:0:
269,327,138014,1,2,0:0:0:0:
348,173,138231,5,4,0:3:0:0:
201,265,138449,1,8,0:0:0:0:
354,347,138666,1,0,0:0:0:0:
252,179,138884,6,0,P|206:168|159:175,1,95.9999970703126,2|0,0:0|0:0,0:0:0:0:
150,351,139318,2,0,P|196:362|243:355,1,95.9999970703126,12|0,0:3|0:0,0:0:0:0:
322,271,139753,1,6,0:3:0:0:
252,179,139971,5,0,0:0:0:0:
244,355,140188,1,8,0:0:0:0:
401,275,140405,1,0,0:0:0:0:
201,265,140623,6,0,P|164:294|145:338,1,95.9999970703126,2|0,0:0|0:0,0:0:0:0:
341,337,141058,2,0,P|323:294|285:265,1,95.9999970703126,12|0,0:3|0:0,0:0:0:0:
244,355,141492,1,6,0:3:0:0:
362,258,141710,1,0,0:0:0:0:
201,265,141927,1,8,0:0:0:0:
341,337,142144,1,0,0:0:0:0:
384,178,142362,6,0,L|288:174,1,95.9999970703126,2|0,0:0|0:0,0:0:0:0:
105,261,142797,2,0,L|201:265,1,95.9999970703126,8|0,0:0|0:0,0:0:0:0:
314,156,143231,5,6,0:3:0:0:
341,337,143449,1,4,0:3:0:0:
311,138,143666,5,12,0:3:0:0:
476,285,143884,1,4,0:3:0:0:
247,267,144101,6,0,L|200:264,1,47.9999985351563,6|0,0:3|0:0,0:0:0:0:
283,192,144318,2,0,L|330:195,1,47.9999985351563,4|0,0:3|0:0,0:0:0:0:
251,115,144536,6,0,L|204:112,1,47.9999985351563,12|0,0:3|0:0,0:0:0:0:
287,40,144753,2,0,L|334:43,1,47.9999985351563,4|2,0:3|0:0,0:0:0:0:
424,101,144971,6,0,L|422:148,1,47.9999985351563,2|0,0:0|0:0,0:0:0:0:
479,238,145188,2,0,L|476:285,1,47.9999985351563,2|0,0:0|0:0,0:0:0:0:
341,337,145405,5,8,0:0:0:0:
317,343,145514,1,0,0:0:0:0:
293,341,145622,1,2,0:0:0:0:
271,329,145731,1,2,0:0:0:0:
252,311,145840,6,0,P|205:307|162:326,1,95.9999970703126,2|0,0:0|0:0,0:0:0:0:
315,259,146275,2,0,P|319:211|300:168,1,95.9999970703126,8|0,0:0|0:0,0:0:0:0:
293,341,146710,1,2,0:0:0:0:
374,204,146927,1,0,0:0:0:0:
234,226,147144,1,8,0:0:0:0:
431,303,147362,1,0,0:0:0:0:
437,87,147579,6,0,P|384:134|373:203,1,143.999995605469,2|0,0:0|0:0,0:0:0:0:
385,240,148014,1,8,0:0:0:0:
472,182,148231,1,0,0:0:0:0:
324,58,148449,1,2,0:0:0:0:
324,58,148557,1,0,0:0:0:0:
324,58,148666,1,0,0:0:0:0:
242,139,148884,2,0,P|288:149|335:141,1,95.9999970703126,8|0,0:0|0:0,0:0:0:0:
437,87,149318,6,0,L|432:278,1,191.999994140625,2|8,0:0|0:0,0:0:0:0:
242,139,149971,1,0,0:0:0:0:
242,139,150079,1,0,0:0:0:0:
242,139,150188,2,0,P|231:93|244:47,1,95.9999970703126,6|4,0:3|0:3,0:0:0:0:
329,207,150623,2,0,P|294:239|248:252,1,95.9999970703126,12|4,0:3|0:3,0:0:0:0:
345,98,151058,6,0,P|410:124|438:188,1,143.999995605469,2|0,0:0|0:0,0:0:0:0:
430,226,151492,1,8,0:0:0:0:
242,139,151710,1,4,0:3:0:0:
399,47,151927,1,2,0:0:0:0:
329,207,152144,5,4,0:3:0:0:
309,35,152362,1,8,0:0:0:0:
468,103,152579,1,0,0:0:0:0:
314,234,152797,6,0,P|266:239|221:223,1,95.9999970703126,2|0,0:0|0:0,0:0:0:0:
102,97,153231,2,0,P|146:81|194:86,1,95.9999970703126,12|0,0:3|0:0,0:0:0:0:
275,156,153666,1,6,0:3:0:0:
155,165,153884,5,0,0:0:0:0:
293,61,154101,1,8,0:0:0:0:
314,234,154319,1,0,0:0:0:0:
124,167,154536,6,0,P|96:127|90:80,1,95.9999970703126,2|0,0:0|0:0,0:0:0:0:
227,190,154971,2,0,P|206:232|168:262,1,95.9999970703126,12|0,0:3|0:0,0:0:0:0:
195,90,155405,1,6,0:3:0:0:
302,153,155623,1,0,0:0:0:0:
124,167,155840,2,0,P|97:129|90:82,1,95.9999970703126,8|0,0:0|0:0,0:0:0:0:
290,54,156275,5,6,0:3:0:0:
263,234,156492,1,0,0:0:0:0:
195,90,156710,1,8,0:0:0:0:
370,117,156927,1,0,0:0:0:0:
370,117,157036,1,0,0:0:0:0:
370,117,157144,5,6,0:3:0:0:
197,177,157362,1,0,0:0:0:0:
290,54,157579,5,8,0:0:0:0:
342,269,157797,2,0,L|294:271,1,47.9999985351563
201,276,158014,5,6,0:3:0:0:
256,192,158123,12,0,161058,0:0:0:0:
287,147,161492,6,0,L|437:151,1,120,4|0,1:2|0:0,0:0:0:0:
483,118,161927,2,2,P|491:90|491:71,2,40
474,198,162253,1,0,0:0:0:0:
474,198,162362,6,0,P|482:226|482:245,1,40,0|0,1:0|0:0,0:0:0:0:
423,319,162579,1,0,1:0:0:0:
254,268,162797,2,0,L|154:270,1,80,8|0,0:1|1:0,0:0:0:0:
101,320,163123,1,2,0:0:0:0:
101,320,163231,6,2,L|109:368,2,40,2|2|2,1:2|1:2|1:2,1:2:0:0:
4,208,163666,1,0,1:0:0:0:
62,23,163884,1,2,0:0:0:0:
51,63,163992,6,0,L|67:153,1,80,0|0,1:0|0:0,0:0:0:0:
124,202,164318,2,2,L|115:262,1,47.9999985351563
188,144,164536,2,0,L|179:100,4,23.9999992675781,0|0|0|0|0,1:0|1:0|1:0|1:0|1:0,1:0:0:0:
250,183,164862,1,8,3:0:0:0:
311,140,164971,6,0,L|426:132,1,95.9999970703126,4|0,0:0|0:0,0:0:0:0:
117,251,165405,2,0,P|67:242|8:268,1,95.9999970703126,0|0,1:0|0:0,0:0:0:0:
76,332,165840,1,2,0:0:0:0:
152,169,166058,1,0,0:0:0:0:
203,288,166275,2,0,L|318:296,1,95.9999970703126,0|0,1:0|0:0,0:0:0:0:
476,192,166710,6,0,B|495:161|495:161|485:59,1,95.9999970703126
289,2,167144,2,0,B|270:33|270:33|280:135,1,95.9999970703126,0|0,1:0|0:0,0:0:0:0:
365,144,167579,1,2,0:0:0:0:
311,218,167797,1,0,0:0:0:0:
344,241,167905,2,0,P|356:304|338:342,1,95.9999970703126
276,359,168231,1,2,0:0:0:0:
103,364,168449,6,0,P|91:301|109:263,1,95.9999970703126
175,217,168775,2,0,L|248:219,1,47.9999985351563,0|0,0:0|1:0,0:0:0:0:
1,77,169101,1,0,0:0:0:0:
9,94,169210,1,0,0:0:0:0:
23,106,169318,2,0,P|101:113|133:96,1,95.9999970703126,2|0,0:0|0:0,0:0:0:0:
339,15,169753,2,0,P|261:8|229:25,1,95.9999970703126,0|2,1:0|0:0,0:0:0:0:
198,92,170079,1,0,0:0:0:0:
198,92,170188,6,0,L|206:190,1,95.9999970703126
255,252,170514,1,0,0:0:0:0:
306,187,170623,2,0,L|314:92,1,95.9999970703126,0|0,1:0|0:0,0:0:0:0:
401,148,171058,1,2,0:0:0:0:
257,19,171275,1,0,0:0:0:0:
111,148,171492,1,0,1:0:0:0:
98,193,171600,1,2,0:0:0:0:
110,239,171709,1,0,0:0:0:0:
195,307,171927,6,0,L|311:299,1,90.0000034332277,0|0,1:0|0:0,0:0:0:0:
338,317,172362,6,0,L|171:305,1,143.999995605469,4|0,0:0|0:0,0:0:0:0:
119,271,172797,2,0,P|108:211|139:151,1,95.9999970703126,4|0,0:0|0:0,0:0:0:0:
180,120,173123,1,0,0:0:0:0:
180,120,173231,1,2,1:2:0:0:
33,84,173449,1,0,0:0:0:0:
124,33,173666,6,0,L|220:33,1,95.9999970703126,0|0,1:0|0:0,0:0:0:0:
294,90,173992,1,0,0:0:0:0:
294,90,174101,6,0,P|330:138|261:206,1,143.999995605469,0|0,1:0|0:0,0:0:0:0:
294,90,174536,6,0,L|407:82,1,95.9999970703126,4|0,0:0|0:0,0:0:0:0:
512,294,174971,2,0,L|416:287,1,95.9999970703126,0|0,1:0|0:0,0:0:0:0:
328,361,175405,5,0,1:0:0:0:
343,206,175623,1,2,0:0:0:0:
416,287,175840,1,0,1:0:0:0:
258,276,176058,1,0,1:0:0:0:
210,279,176166,1,0,1:0:0:0:
163,283,176275,1,0,1:0:0:0:
88,364,176492,1,2,0:0:0:0:
81,205,176710,1,0,1:0:0:0:
6,285,176927,1,0,1:0:0:0:
6,285,177036,1,0,1:0:0:0:
6,285,177144,6,0,L|115:280,1,95.9999970703126,0|0,1:0|1:0,0:0:0:0:
177,240,177471,1,2,0:0:0:0:
177,240,177579,2,0,L|186:308,1,47.9999985351563,0|0,1:0|0:0,0:0:0:0:
256,192,177797,2,0,L|256:224,2,23.9999992675781
335,240,178014,6,0,L|326:308,1,47.9999985351563,0|0,1:0|1:0,1:0:0:0:
416,149,178231,2,0,L|396:213,1,47.9999985351563,0|0,1:0|1:0,1:0:0:0:
256,64,178449,2,0,L|256:128,1,47.9999985351563,0|0,1:0|1:0,1:0:0:0:
96,149,178666,2,0,L|116:213,1,47.9999985351563,0|0,1:0|1:0,1:0:0:0:
180,347,178884,6,0,B|224:337|252:316|252:316|324:293|359:165|274:143|135:147|145:304|277:336|354:352,1,510.000009727478,2|0,0:0|0:0,0:0:0:0:
329,346,180623,6,0,B|410:282|397:170|375:117|266:40|149:97|77:180|123:295|186:353,1,629.200008640747,2|0,0:0|0:0,0:0:0:0:
329,346,181927,6,2,L|446:341,1,80
331,140,182362,6,0,P|254:184|166:174,1,180.000006866455,2|0,0:0|0:0,0:0:0:0:
181,284,182797,6,0,P|96:252|42:276,1,143.999995605469,4|0,1:0|0:0,0:0:0:0:
26,298,183231,1,0,1:0:0:0:
208,368,183449,1,0,0:0:0:0:
166,174,183666,1,0,1:0:0:0:
58,73,183884,1,0,0:0:0:0:
55,169,184101,6,0,L|59:67,1,95.9999970703126,0|0,1:0|0:0,0:0:0:0:
63,40,184427,1,2,0:0:0:0:
63,40,184536,1,0,1:0:0:0:
195,29,184753,1,0,0:0:0:0:
279,60,184971,2,0,P|293:122|286:179,1,95.9999970703126,4|0,1:2|0:0,0:0:0:0:
222,201,185297,2,0,L|150:192,1,47.9999985351563,0|0,0:0|1:0,0:0:0:0:
249,301,185623,1,0,0:0:0:0:
272,284,185731,1,0,0:0:0:0:
296,268,185840,6,0,L|415:266,1,95.9999970703126,0|0,1:0|0:0,0:0:0:0:
497,145,186275,2,0,L|401:143,1,95.9999970703126,0|2,1:0|0:0,0:0:0:0:
309,135,186601,1,2,0:0:0:0:
309,135,186710,1,0,1:0:0:0:
221,291,186927,1,0,0:0:0:0:
161,137,187144,1,0,1:0:0:0:
86,224,187362,2,2,L|88:294,1,47.9999985351563
18,142,187579,6,0,L|201:136,1,143.999995605469,0|0,1:0|0:0,0:0:0:0:
196,136,188014,1,0,1:0:0:0:
378,130,188231,1,0,0:0:0:0:
304,83,188449,2,0,P|291:133|311:190,1,95.9999970703126,0|0,1:0|0:0,0:0:0:0:
423,271,188884,1,0,1:0:0:0:
473,126,189101,1,2,0:0:0:0:
473,126,189210,1,2,0:0:0:0:
473,126,189318,2,0,L|375:130,1,95.9999970703126,0|0,1:0|0:0,0:0:0:0:
94,206,189753,6,0,P|181:179|249:213,1,143.999995605469,4|0,1:2|0:0,0:0:0:0:
252,229,190188,2,0,L|245:337,1,95.9999970703126,4|0,1:2|0:0,0:0:0:0:
126,46,190623,2,0,L|132:141,1,95.9999970703126,0|0,1:0|0:0,0:0:0:0:
210,93,190949,1,2,0:0:0:0:
210,93,191058,2,0,P|262:77|321:111,1,95.9999970703126,0|0,1:0|0:0,0:0:0:0:
379,141,191384,1,0,0:0:0:0:
379,141,191492,6,0,L|386:46,1,95.9999970703126,4|0,1:2|0:0,0:0:0:0:
484,212,191927,2,0,L|490:307,1,95.9999970703126,4|0,1:2|0:0,0:0:0:0:
324,247,192362,1,0,1:0:0:0:
195,339,192579,1,2,0:0:0:0:
339,346,192797,6,0,L|177:339,1,143.999995605469,0|0,1:0|0:0,0:0:0:0:
126,288,193231,2,0,P|139:226|123:182,1,95.9999970703126,0|0,1:0|0:0,0:0:0:0:
40,16,193666,2,0,P|27:78|43:122,1,95.9999970703126,0|0,1:0|0:0,0:0:0:0:
130,195,194101,1,0,1:0:0:0:
225,121,194318,1,0,0:0:0:0:
130,195,194536,6,0,L|209:181,1,47.9999985351563,0|0,1:0|0:0,0:0:0:0:
225,121,194753,2,0,L|272:129,1,47.9999985351563,0|0,1:0|0:0,0:0:0:0:
301,200,194971,2,0,L|380:186,1,47.9999985351563,0|0,1:0|0:0,0:0:0:0:
388,127,195188,2,0,L|435:135,1,47.9999985351563,0|0,1:0|0:0,0:0:0:0:
473,140,195405,5,4,0:0:0:0:
399,258,195623,1,0,0:0:0:0:
301,200,195840,1,0,1:0:0:0:
210,259,196058,1,0,1:0:0:0:
210,259,196166,1,0,1:0:0:0:
210,259,196275,6,0,B|102:250|102:250|57:278,1,143.999995605469,4|0,1:0|0:0,0:0:0:0:
71,268,196710,2,0,P|91:215|46:157,1,95.9999970703126,0|0,1:0|0:0,0:0:0:0:
193,8,197144,2,0,L|196:122,1,95.9999970703126,0|0,1:0|0:0,0:0:0:0:
210,259,197579,1,0,1:0:0:0:
353,320,197797,1,2,0:0:0:0:
301,250,198014,6,0,P|242:244|198:269,1,95.9999970703126,0|0,1:0|0:0,0:0:0:0:
39,312,198449,2,0,P|83:328|130:320,1,95.9999970703126,0|0,1:0|0:0,0:0:0:0:
77,73,198884,2,0,P|56:138|80:220,1,143.999995605469,0|0,1:0|0:0,0:0:0:0:
90,238,199318,2,0,P|136:229|172:198,1,95.9999970703126,0|0,1:0|0:0,0:0:0:0:
277,8,199753,6,0,L|181:3,2,95.9999970703126,0|0|0,1:0|0:0|1:0,0:0:0:0:
446,113,200405,1,0,1:0:0:0:
446,113,200514,1,0,1:0:0:0:
446,113,200623,5,0,1:0:0:0:
322,98,200840,1,2,0:0:0:0:
174,233,201058,1,0,1:0:0:0:
265,222,201275,1,2,0:0:0:0:
364,323,201492,6,0,L|254:318,1,95.9999970703126,0|0,1:0|0:0,0:0:0:0:
188,351,201818,1,0,0:0:0:0:
188,351,201927,1,0,1:0:0:0:
265,222,202144,1,2,0:0:0:0:
166,158,202362,1,0,1:0:0:0:
168,177,202471,1,2,0:0:0:0:
170,195,202579,1,0,0:0:0:0:
172,214,202688,1,2,0:0:0:0:
174,233,202797,1,0,1:0:0:0:
268,318,203014,1,0,0:0:0:0:
372,194,203231,6,0,L|490:191,1,95.9999970703126,0|0,1:0|0:0,0:0:0:0:
232,32,203666,2,0,B|179:38|179:38|147:55|147:55|72:64,1,143.999995605469,4|0,1:2|0:0,0:0:0:0:
6,55,204101,2,0,L|15:178,1,95.9999970703126,4|0,1:2|0:0,0:0:0:0:
256,233,204536,1,0,1:0:0:0:
205,114,204753,1,0,0:0:0:0:
119,214,204971,2,0,P|106:273|131:316,1,95.9999970703126,0|0,1:0|0:0,0:0:0:0:
352,378,205405,6,0,P|367:308|339:244,1,143.999995605469,4|0,1:2|0:0,0:0:0:0:
256,233,205840,2,0,L|126:221,1,95.9999970703126,4|0,1:2|0:0,0:0:0:0:
95,78,206275,1,0,1:0:0:0:
218,25,206492,1,0,0:0:0:0:
95,78,206710,6,0,L|100:185,1,95.9999970703126,4|0,1:0|0:0,0:0:0:0:
22,202,207036,1,0,0:0:0:0:
43,239,207144,2,0,L|38:346,1,95.9999970703126,0|0,1:0|0:0,0:0:0:0:
238,220,207579,6,0,L|243:125,1,95.9999970703126,4|0,1:0|0:0,0:0:0:0:
310,318,207905,1,0,0:0:0:0:
330,281,208014,2,0,L|326:186,1,95.9999970703126,0|0,1:0|0:0,0:0:0:0:
248,43,208449,5,4,0:0:0:0:
256,192,208558,12,0,215405,0:0:0:0:
