osu file format v14

[General]
AudioFilename: audio.mp3
AudioLeadIn: 0
PreviewTime: 38084
Countdown: 0
SampleSet: Normal
StackLeniency: 0.7
Mode: 1
LetterboxInBreaks: 0
WidescreenStoryboard: 0

[Editor]
DistanceSpacing: 0.9
BeatDivisor: 4
GridSize: 32
TimelineZoom: 2.3

[Metadata]
Title:Hitomi ni Kakusareta Omoi
TitleUnicode:瞳に隠された想ヒ
Artist:senya
ArtistUnicode:senya
Creator:Prophecy
Version:Sur's Inner Oni
Source:東方Project
Tags:touhou ハルトマンの妖怪少女 hartmann's youkai girl komeiji koishi 古明地 こいし かませ虎 kamase-tora HiZuMi ikuo NEKO コミックマーケット89 c89 comiket 89 東方地霊殿 Subterranean Animism Yuuhei Satellite JuDa Judydanny Nardo Nardoxyribonucleic Surono ZUN
BeatmapID:963801
BeatmapSetID:440885

[Difficulty]
HPDrainRate:6
CircleSize:2
OverallDifficulty:6
ApproachRate:10
SliderMultiplier:1.4
SliderTickRate:1

[Events]
//Background and Video events
0,0,"BG.png",0,70
//Break Periods
//Storyboard Layer 0 (Background)
//Storyboard Layer 1 (Fail)
//Storyboard Layer 2 (Pass)
//Storyboard Layer 3 (Foreground)
//Storyboard Sound Samples

[TimingPoints]
584,375,4,1,0,60,1,0
584,-125,4,1,0,60,0,0
12584,-100,4,1,0,80,0,0
24584,-90.9090909090909,4,1,0,70,0,0
30396,-95.2380952380952,4,1,0,80,0,0
30771,-100,4,1,0,80,0,0
38084,-100,4,1,0,85,0,1
50084,-100,4,1,0,70,0,0
50459,-100,4,1,0,50,0,0
51584,-100,4,1,0,85,0,1
62084,-100,4,1,0,80,0,0
71084,-100,4,1,0,75,0,0
71834,-100,4,1,0,70,0,0
72584,-100,4,1,0,65,0,0
73334,-100,4,1,0,50,0,0

[HitObjects]
256,192,584,5,8,0:0:0:0:
256,192,959,1,0,0:0:0:0:
256,192,1146,1,0,0:0:0:0:
256,192,1334,1,8,0:0:0:0:
256,192,1521,1,0,0:0:0:0:
256,192,1709,1,0,0:0:0:0:
256,192,1896,1,8,0:0:0:0:
256,192,2084,1,0,0:0:0:0:
256,192,2459,1,0,0:0:0:0:
256,192,2646,1,0,0:0:0:0:
256,192,2834,1,8,0:0:0:0:
256,192,3021,1,8,0:0:0:0:
256,192,3209,1,0,0:0:0:0:
256,192,3396,1,8,0:0:0:0:
256,192,3584,1,0,0:0:0:0:
256,192,3959,1,0,0:0:0:0:
256,192,4146,1,0,0:0:0:0:
256,192,4334,1,8,0:0:0:0:
256,192,4709,1,8,0:0:0:0:
256,192,4896,1,8,0:0:0:0:
256,192,5084,1,0,0:0:0:0:
256,192,5365,1,8,0:0:0:0:
256,192,5646,1,0,0:0:0:0:
256,192,6021,1,0,0:0:0:0:
256,192,6209,1,0,0:0:0:0:
256,192,6396,1,0,0:0:0:0:
256,192,6584,1,8,0:0:0:0:
256,192,6959,1,0,0:0:0:0:
256,192,7146,1,8,0:0:0:0:
256,192,7334,1,0,0:0:0:0:
256,192,7521,1,0,0:0:0:0:
256,192,7709,1,8,0:0:0:0:
256,192,7896,1,0,0:0:0:0:
256,192,8084,1,8,0:0:0:0:
256,192,8459,1,0,0:0:0:0:
256,192,8646,1,0,0:0:0:0:
256,192,8834,1,8,0:0:0:0:
256,192,9021,1,0,0:0:0:0:
256,192,9209,1,8,0:0:0:0:
256,192,9396,1,8,0:0:0:0:
256,192,9584,1,0,0:0:0:0:
256,192,9959,1,0,0:0:0:0:
256,192,10146,1,0,0:0:0:0:
256,192,10334,1,0,0:0:0:0:
256,192,10709,1,8,0:0:0:0:
256,192,11084,1,0,0:0:0:0:
256,192,12584,1,4,0:0:0:0:
256,192,12959,1,8,0:0:0:0:
256,192,13146,1,0,0:0:0:0:
256,192,13240,1,0,0:0:0:0:
256,192,13334,1,0,0:0:0:0:
256,192,13521,1,0,0:0:0:0:
256,192,13615,1,0,0:0:0:0:
256,192,13709,1,8,0:0:0:0:
256,192,13802,1,0,0:0:0:0:
256,192,13896,1,8,0:0:0:0:
256,192,14084,1,0,0:0:0:0:
256,192,14365,1,0,0:0:0:0:
256,192,14459,1,8,0:0:0:0:
256,192,14646,1,8,0:0:0:0:
256,192,14740,1,0,0:0:0:0:
256,192,14834,1,8,0:0:0:0:
256,192,15021,1,0,0:0:0:0:
256,192,15209,1,8,0:0:0:0:
256,192,15302,1,0,0:0:0:0:
256,192,15396,1,8,0:0:0:0:
256,192,15490,1,8,0:0:0:0:
256,192,15584,1,0,0:0:0:0:
256,192,15771,1,0,0:0:0:0:
256,192,15865,1,0,0:0:0:0:
256,192,15959,1,8,0:0:0:0:
256,192,16146,1,0,0:0:0:0:
256,192,16334,1,0,0:0:0:0:
256,192,16427,1,0,0:0:0:0:
256,192,16615,1,0,0:0:0:0:
256,192,16709,1,8,0:0:0:0:
256,192,16896,1,8,0:0:0:0:
256,192,17084,1,4,0:0:0:0:
256,192,17365,1,4,0:0:0:0:
256,192,17646,1,12,0:0:0:0:
256,192,18021,1,8,0:0:0:0:
256,192,18115,1,8,0:0:0:0:
256,192,18209,1,0,0:0:0:0:
256,192,18302,1,0,0:0:0:0:
256,192,18396,1,8,0:0:0:0:
256,192,18584,1,4,0:0:0:0:
256,192,18959,1,8,0:0:0:0:
256,192,19146,1,8,0:0:0:0:
256,192,19240,1,8,0:0:0:0:
256,192,19334,1,0,0:0:0:0:
256,192,19521,1,0,0:0:0:0:
256,192,19615,1,0,0:0:0:0:
256,192,19709,1,8,0:0:0:0:
256,192,19896,1,8,0:0:0:0:
256,192,20084,1,0,0:0:0:0:
256,192,20365,1,0,0:0:0:0:
256,192,20459,1,8,0:0:0:0:
256,192,20646,1,0,0:0:0:0:
256,192,20740,1,0,0:0:0:0:
256,192,20834,1,8,0:0:0:0:
256,192,21021,1,8,0:0:0:0:
256,192,21115,1,8,0:0:0:0:
256,192,21209,1,8,0:0:0:0:
256,192,21302,1,0,0:0:0:0:
256,192,21396,1,0,0:0:0:0:
256,192,21490,1,0,0:0:0:0:
256,192,21584,1,8,0:0:0:0:
256,192,21771,1,0,0:0:0:0:
256,192,21865,1,0,0:0:0:0:
256,192,21959,1,8,0:0:0:0:
256,192,22146,1,8,0:0:0:0:
256,192,22334,1,0,0:0:0:0:
256,192,22521,1,0,0:0:0:0:
256,192,22615,1,8,0:0:0:0:
256,192,22709,1,8,0:0:0:0:
256,192,22896,1,8,0:0:0:0:
256,192,23084,1,4,0:0:0:0:
256,192,23271,1,4,0:0:0:0:
256,192,23459,1,4,0:0:0:0:
256,192,23646,1,4,0:0:0:0:
256,192,23834,1,12,0:0:0:0:
256,192,24021,1,0,0:0:0:0:
256,192,24115,1,0,0:0:0:0:
256,192,24209,1,8,0:0:0:0:
256,192,24302,1,8,0:0:0:0:
256,192,24396,1,0,0:0:0:0:
256,192,24584,1,12,0:0:0:0:
256,192,24959,1,8,0:0:0:0:
256,192,25334,1,0,0:0:0:0:
256,192,25521,1,0,0:0:0:0:
256,192,25709,1,8,0:0:0:0:
256,192,26084,1,0,0:0:0:0:
256,192,26459,1,8,0:0:0:0:
256,192,26646,1,8,0:0:0:0:
256,192,26834,1,0,0:0:0:0:
256,192,27209,1,8,0:0:0:0:
256,192,27584,1,0,0:0:0:0:
256,192,27959,1,8,0:0:0:0:
256,192,28146,1,0,0:0:0:0:
256,192,28334,1,0,0:0:0:0:
256,192,28521,1,0,0:0:0:0:
256,192,28709,1,8,0:0:0:0:
256,192,29084,1,4,0:0:0:0:
256,192,29459,1,4,0:0:0:0:
256,192,29834,1,12,0:0:0:0:
256,192,30021,1,12,0:0:0:0:
256,192,30209,1,12,0:0:0:0:
256,192,30584,1,4,0:0:0:0:
256,192,30865,1,0,0:0:0:0:
256,192,30959,1,8,0:0:0:0:
256,192,31146,1,8,0:0:0:0:
256,192,31334,1,0,0:0:0:0:
256,192,31427,1,8,0:0:0:0:
256,192,31521,1,0,0:0:0:0:
256,192,31615,1,0,0:0:0:0:
256,192,31709,1,8,0:0:0:0:
256,192,32084,1,0,0:0:0:0:
256,192,32271,1,0,0:0:0:0:
256,192,32365,1,0,0:0:0:0:
256,192,32459,1,8,0:0:0:0:
256,192,32646,1,8,0:0:0:0:
256,192,32834,1,8,0:0:0:0:
256,192,32927,1,8,0:0:0:0:
256,192,33021,1,0,0:0:0:0:
256,192,33115,1,0,0:0:0:0:
256,192,33209,1,8,0:0:0:0:
256,192,33584,1,0,0:0:0:0:
256,192,33771,1,8,0:0:0:0:
256,192,33959,1,8,0:0:0:0:
256,192,34052,1,8,0:0:0:0:
256,192,34146,1,0,0:0:0:0:
256,192,34334,1,8,0:0:0:0:
256,192,34427,1,0,0:0:0:0:
256,192,34521,1,0,0:0:0:0:
256,192,34615,1,0,0:0:0:0:
256,192,34709,1,8,0:0:0:0:
256,192,35084,1,4,0:0:0:0:
256,192,35271,1,4,0:0:0:0:
256,192,35459,1,12,0:0:0:0:
256,192,35646,1,12,0:0:0:0:
256,192,35834,1,4,0:0:0:0:
256,192,36021,1,0,0:0:0:0:
256,192,36115,1,0,0:0:0:0:
256,192,36209,1,8,0:0:0:0:
256,192,36302,1,0,0:0:0:0:
256,192,36396,1,0,0:0:0:0:
256,192,36490,1,8,0:0:0:0:
256,192,38084,1,12,0:0:0:0:
256,192,38271,1,0,0:0:0:0:
256,192,38459,1,8,0:0:0:0:
256,192,38552,1,0,0:0:0:0:
256,192,38646,1,8,0:0:0:0:
256,192,38740,1,8,0:0:0:0:
256,192,38834,1,0,0:0:0:0:
256,192,39021,1,0,0:0:0:0:
256,192,39209,1,8,0:0:0:0:
256,192,39396,1,0,0:0:0:0:
256,192,39490,1,8,0:0:0:0:
256,192,39584,1,0,0:0:0:0:
256,192,39771,1,0,0:0:0:0:
256,192,39865,1,0,0:0:0:0:
256,192,39959,1,8,0:0:0:0:
256,192,40146,1,8,0:0:0:0:
256,192,40240,1,8,0:0:0:0:
256,192,40334,1,8,0:0:0:0:
256,192,40521,1,0,0:0:0:0:
256,192,40709,1,8,0:0:0:0:
256,192,40896,1,8,0:0:0:0:
256,192,40990,1,8,0:0:0:0:
256,192,41084,1,0,0:0:0:0:
256,192,41271,1,0,0:0:0:0:
256,192,41365,1,0,0:0:0:0:
256,192,41459,1,8,0:0:0:0:
256,192,41646,1,8,0:0:0:0:
256,192,41834,1,0,0:0:0:0:
256,192,41927,1,0,0:0:0:0:
256,192,42021,1,8,0:0:0:0:
256,192,42115,1,8,0:0:0:0:
256,192,42209,1,0,0:0:0:0:
256,192,42396,1,8,0:0:0:0:
256,192,42584,1,4,0:0:0:0:
256,192,42959,1,12,0:0:0:0:
256,192,43334,1,12,0:0:0:0:
256,192,43521,1,0,0:0:0:0:
256,192,43615,1,0,0:0:0:0:
256,192,43709,1,8,0:0:0:0:
256,192,43802,1,0,0:0:0:0:
256,192,43896,1,8,0:0:0:0:
256,192,43990,1,8,0:0:0:0:
256,192,44084,1,0,0:0:0:0:
256,192,44271,1,0,0:0:0:0:
256,192,44459,1,8,0:0:0:0:
256,192,44646,1,8,0:0:0:0:
256,192,44740,1,8,0:0:0:0:
256,192,44834,1,0,0:0:0:0:
256,192,45021,1,0,0:0:0:0:
256,192,45115,1,0,0:0:0:0:
256,192,45209,1,8,0:0:0:0:
256,192,45302,1,0,0:0:0:0:
256,192,45396,1,0,0:0:0:0:
256,192,45584,1,8,0:0:0:0:
256,192,45677,1,8,0:0:0:0:
256,192,45771,1,0,0:0:0:0:
256,192,45959,1,8,0:0:0:0:
256,192,46146,1,8,0:0:0:0:
256,192,46334,1,0,0:0:0:0:
256,192,46615,1,0,0:0:0:0:
256,192,46709,1,8,0:0:0:0:
256,192,46896,1,8,0:0:0:0:
256,192,47084,1,0,0:0:0:0:
256,192,47177,1,0,0:0:0:0:
256,192,47271,1,0,0:0:0:0:
256,192,47365,1,0,0:0:0:0:
256,192,47459,1,8,0:0:0:0:
256,192,47646,1,0,0:0:0:0:
256,192,47834,1,8,0:0:0:0:
256,192,47927,1,8,0:0:0:0:
256,192,48021,1,0,0:0:0:0:
256,192,48115,1,0,0:0:0:0:
256,192,48209,1,8,0:0:0:0:
257,195,48396,1,0,0:0:0:0:
257,195,48584,1,12,0:0:0:0:
257,195,48771,1,12,0:0:0:0:
257,195,48959,1,4,0:0:0:0:
257,195,49146,1,12,0:0:0:0:
257,195,49334,1,4,0:0:0:0:
257,195,49521,1,0,0:0:0:0:
257,195,49615,1,0,0:0:0:0:
257,195,49709,1,8,0:0:0:0:
257,195,49802,1,8,0:0:0:0:
257,195,49896,1,8,0:0:0:0:
257,195,49990,1,8,0:0:0:0:
256,192,50084,1,0,0:0:0:0:
257,195,50834,1,0,0:0:0:0:
257,195,51021,1,0,0:0:0:0:
256,192,51209,1,8,0:0:0:0:
256,192,51302,1,8,0:0:0:0:
256,192,51396,1,0,0:0:0:0:
256,192,51490,1,8,0:0:0:0:
256,192,51584,1,0,0:0:0:0:
256,192,51771,1,0,0:0:0:0:
256,192,51865,1,0,0:0:0:0:
256,192,51959,1,8,0:0:0:0:
256,192,52146,1,0,0:0:0:0:
256,192,52240,1,8,0:0:0:0:
256,192,52334,1,8,0:0:0:0:
256,192,52427,1,8,0:0:0:0:
256,192,52521,1,0,0:0:0:0:
256,192,52709,1,8,0:0:0:0:
256,192,52896,1,0,0:0:0:0:
256,192,52990,1,0,0:0:0:0:
256,192,53084,1,8,0:0:0:0:
256,192,53271,1,8,0:0:0:0:
256,192,53365,1,0,0:0:0:0:
256,192,53459,1,8,0:0:0:0:
256,192,53646,1,0,0:0:0:0:
256,192,53834,1,8,0:0:0:0:
256,192,53927,1,0,0:0:0:0:
256,192,54021,1,0,0:0:0:0:
256,192,54115,1,0,0:0:0:0:
256,192,54209,1,8,0:0:0:0:
256,192,54396,1,0,0:0:0:0:
256,192,54584,1,12,0:0:0:0:
256,192,54959,1,4,0:0:0:0:
256,192,55334,1,4,0:0:0:0:
256,192,55521,1,0,0:0:0:0:
256,192,55615,1,0,0:0:0:0:
256,192,55709,1,8,0:0:0:0:
256,192,55802,1,0,0:0:0:0:
256,192,55896,1,8,0:0:0:0:
256,192,55990,1,8,0:0:0:0:
256,192,56084,1,0,0:0:0:0:
256,192,56271,1,0,0:0:0:0:
256,192,56459,1,8,0:0:0:0:
256,192,56646,1,8,0:0:0:0:
256,192,56740,1,0,0:0:0:0:
256,192,56834,1,0,0:0:0:0:
256,192,57021,1,0,0:0:0:0:
256,192,57115,1,0,0:0:0:0:
256,192,57209,1,8,0:0:0:0:
257,195,57302,1,8,0:0:0:0:
257,195,57396,1,0,0:0:0:0:
257,195,57584,1,8,0:0:0:0:
256,192,57677,1,0,0:0:0:0:
257,195,57771,1,0,0:0:0:0:
257,195,57959,1,8,0:0:0:0:
257,195,58146,1,8,0:0:0:0:
257,195,58334,1,0,0:0:0:0:
257,195,58615,1,0,0:0:0:0:
257,195,58709,1,8,0:0:0:0:
257,195,58896,1,8,0:0:0:0:
257,195,59084,1,0,0:0:0:0:
257,195,59177,1,0,0:0:0:0:
257,195,59271,1,0,0:0:0:0:
257,195,59365,1,0,0:0:0:0:
257,195,59459,1,8,0:0:0:0:
257,195,59646,1,0,0:0:0:0:
257,195,59834,1,8,0:0:0:0:
257,195,59927,1,8,0:0:0:0:
257,195,60021,1,0,0:0:0:0:
257,195,60115,1,0,0:0:0:0:
257,195,60209,1,8,0:0:0:0:
257,195,60396,1,8,0:0:0:0:
257,195,60584,1,4,0:0:0:0:
257,195,60771,1,12,0:0:0:0:
257,195,60959,1,4,0:0:0:0:
257,195,61146,1,12,0:0:0:0:
257,195,61334,1,12,0:0:0:0:
257,195,61521,1,0,0:0:0:0:
257,195,61615,1,0,0:0:0:0:
257,195,61709,1,8,0:0:0:0:
257,195,61802,1,8,0:0:0:0:
257,195,61896,1,8,0:0:0:0:
257,195,61990,1,8,0:0:0:0:
257,195,62084,1,0,0:0:0:0:
257,195,62459,1,8,0:0:0:0:
257,195,62646,1,8,0:0:0:0:
257,195,62740,1,8,0:0:0:0:
257,195,62834,1,0,0:0:0:0:
257,195,62927,1,0,0:0:0:0:
257,195,63021,1,0,0:0:0:0:
257,195,63115,1,0,0:0:0:0:
257,195,63209,1,8,0:0:0:0:
257,195,63396,1,0,0:0:0:0:
257,195,63490,1,8,0:0:0:0:
257,195,63584,1,0,0:0:0:0:
257,195,63771,1,0,0:0:0:0:
257,195,63959,1,8,0:0:0:0:
257,195,64334,1,0,0:0:0:0:
257,195,64521,1,0,0:0:0:0:
257,195,64709,1,8,0:0:0:0:
257,195,64896,1,0,0:0:0:0:
257,195,64990,1,8,0:0:0:0:
257,195,65084,5,8,0:0:0:0:
257,195,65177,1,0,0:0:0:0:
257,195,65271,1,8,0:0:0:0:
257,195,65459,1,8,0:0:0:0:
257,195,65646,1,0,0:0:0:0:
257,195,65740,1,8,0:0:0:0:
257,195,65834,1,8,0:0:0:0:
257,195,66021,1,0,0:0:0:0:
257,195,66115,1,0,0:0:0:0:
257,195,66209,1,8,0:0:0:0:
257,195,66396,1,8,0:0:0:0:
257,195,66584,1,4,0:0:0:0:
257,195,66959,1,4,0:0:0:0:
257,195,67334,1,12,0:0:0:0:
256,192,67521,5,8,0:0:0:0:
256,192,67615,1,8,0:0:0:0:
256,192,67709,1,0,0:0:0:0:
256,192,67802,1,8,0:0:0:0:
256,192,67896,1,8,0:0:0:0:
256,192,67990,1,8,0:0:0:0:
257,195,68084,1,0,0:0:0:0:
257,195,68459,1,8,0:0:0:0:
257,195,68646,1,8,0:0:0:0:
257,195,68740,1,8,0:0:0:0:
257,195,68834,1,0,0:0:0:0:
257,195,69021,1,0,0:0:0:0:
257,195,69209,1,8,0:0:0:0:
257,195,69396,1,0,0:0:0:0:
257,195,69490,1,0,0:0:0:0:
257,195,69584,1,8,0:0:0:0:
257,195,69771,1,0,0:0:0:0:
257,195,69959,1,8,0:0:0:0:
257,195,70240,1,8,0:0:0:0:
257,195,70334,1,8,0:0:0:0:
257,195,70521,1,0,0:0:0:0:
257,195,70709,1,8,0:0:0:0:
257,195,70802,1,8,0:0:0:0:
257,195,70896,1,0,0:0:0:0:
257,195,71084,5,0,0:0:0:0:
257,195,71177,1,8,0:0:0:0:
257,195,71271,1,8,0:0:0:0:
257,195,71365,1,0,0:0:0:0:
257,195,71459,1,8,0:0:0:0:
256,192,71552,1,8,0:0:0:0:
257,195,71646,1,0,0:0:0:0:
257,195,71834,1,8,0:0:0:0:
257,195,71927,1,0,0:0:0:0:
257,195,72021,1,0,0:0:0:0:
257,195,72115,1,8,0:0:0:0:
257,195,72209,1,0,0:0:0:0:
256,192,72302,1,0,0:0:0:0:
257,195,72396,1,8,0:0:0:0:
257,195,72584,1,4,0:0:0:0:
257,195,72771,1,0,0:0:0:0:
257,195,72959,1,12,0:0:0:0:
257,195,73146,1,8,0:0:0:0:
257,195,73334,2,0,L|0:64,1,280
