osu file format v14

[General]
AudioFilename: audio.mp3
AudioLeadIn: 0
PreviewTime: 38084
Countdown: 0
SampleSet: Normal
StackLeniency: 0.7
Mode: 1
LetterboxInBreaks: 0
WidescreenStoryboard: 0

[Editor]
DistanceSpacing: 0.9
BeatDivisor: 4
GridSize: 32
TimelineZoom: 1

[Metadata]
Title:Hitomi ni Kakusareta Omoi
TitleUnicode:瞳に隠された想ヒ
Artist:senya
ArtistUnicode:senya
Creator:Prophecy
Version:Nardo's Oni
Source:東方Project
Tags:touhou ハルトマンの妖怪少女 hartmann's youkai girl komeiji koishi 古明地 こいし かませ虎 kamase-tora HiZuMi ikuo NEKO コミックマーケット89 c89 comiket 89 東方地霊殿 Subterranean Animism Yuuhei Satellite JuDa Judydanny Nardo Nardoxyribonucleic Surono ZUN
BeatmapID:948469
BeatmapSetID:440885

[Difficulty]
HPDrainRate:6
CircleSize:2
OverallDifficulty:5
ApproachRate:5
SliderMultiplier:1.4
SliderTickRate:1

[Events]
//Background and Video events
0,0,"BG.png",0,70
//Break Periods
//Storyboard Layer 0 (Background)
//Storyboard Layer 1 (Fail)
//Storyboard Layer 2 (Pass)
//Storyboard Layer 3 (Foreground)
//Storyboard Sound Samples

[TimingPoints]
584,375,4,1,0,60,1,0
12584,-100,4,1,0,80,0,0
24584,-100,4,1,0,70,0,0
30584,-100,4,1,0,80,0,0
38084,-100,4,1,0,85,0,1
50084,-100,4,1,0,70,0,0
51584,-100,4,1,0,85,0,1
62084,-100,4,1,0,80,0,0
71084,-100,4,1,0,75,0,0
71834,-100,4,1,0,70,0,0
72584,-100,4,1,0,65,0,0
73334,-100,4,1,0,60,0,0

[HitObjects]
256,192,584,5,8,0:0:0:0:
256,192,959,1,8,0:0:0:0:
256,192,1146,1,0,0:0:0:0:
256,192,1521,1,8,0:0:0:0:
256,192,1709,1,8,0:0:0:0:
256,192,1896,1,0,0:0:0:0:
256,192,2084,1,0,0:0:0:0:
256,192,3584,1,0,0:0:0:0:
256,192,4334,1,0,0:0:0:0:
256,192,4615,1,8,0:0:0:0:
256,192,4896,1,8,0:0:0:0:
256,192,5084,1,0,0:0:0:0:
256,192,5365,1,8,0:0:0:0:
256,192,5646,1,0,0:0:0:0:
256,192,6209,1,0,0:0:0:0:
256,192,6396,1,0,0:0:0:0:
256,192,6584,1,8,0:0:0:0:
256,192,7709,1,8,0:0:0:0:
256,192,8084,1,0,0:0:0:0:
256,192,8834,1,0,0:0:0:0:
256,192,9115,1,8,0:0:0:0:
256,192,9396,1,8,0:0:0:0:
256,192,9584,1,8,0:0:0:0:
256,192,10709,1,0,0:0:0:0:
256,192,11084,1,0,0:0:0:0:
256,192,12584,1,4,0:0:0:0:
256,192,12959,1,8,0:0:0:0:
256,192,13146,1,0,0:0:0:0:
256,192,13240,1,0,0:0:0:0:
256,192,13334,1,0,0:0:0:0:
256,192,13521,1,8,0:0:0:0:
256,192,13615,1,0,0:0:0:0:
256,192,13709,1,8,0:0:0:0:
256,192,13896,1,8,0:0:0:0:
256,192,14084,1,0,0:0:0:0:
256,192,14459,1,0,0:0:0:0:
256,192,14646,1,0,0:0:0:0:
256,192,14740,1,0,0:0:0:0:
256,192,14834,1,8,0:0:0:0:
256,192,15021,1,0,0:0:0:0:
256,192,15209,1,8,0:0:0:0:
256,192,15396,1,8,0:0:0:0:
256,192,15584,1,0,0:0:0:0:
256,192,15959,1,8,0:0:0:0:
256,192,16146,1,0,0:0:0:0:
256,192,16240,1,0,0:0:0:0:
256,192,16334,1,8,0:0:0:0:
256,192,16615,1,0,0:0:0:0:
256,192,16709,1,8,0:0:0:0:
256,192,16896,1,8,0:0:0:0:
256,192,17084,1,4,0:0:0:0:
256,192,17365,1,12,0:0:0:0:
256,192,17646,1,4,0:0:0:0:
256,192,18021,1,0,0:0:0:0:
256,192,18115,1,0,0:0:0:0:
256,192,18209,1,0,0:0:0:0:
256,192,18396,1,0,0:0:0:0:
256,192,18584,1,8,0:0:0:0:
256,192,18959,1,8,0:0:0:0:
256,192,19146,1,0,0:0:0:0:
256,192,19240,1,0,0:0:0:0:
256,192,19334,1,8,0:0:0:0:
256,192,19521,1,0,0:0:0:0:
256,192,19709,1,8,0:0:0:0:
256,192,19896,1,8,0:0:0:0:
256,192,20084,1,0,0:0:0:0:
256,192,20459,1,8,0:0:0:0:
256,192,20646,1,0,0:0:0:0:
256,192,20740,1,0,0:0:0:0:
256,192,20834,1,0,0:0:0:0:
256,192,21021,1,0,0:0:0:0:
256,192,21209,1,8,0:0:0:0:
256,192,21396,1,0,0:0:0:0:
256,192,21584,1,8,0:0:0:0:
256,192,21959,1,8,0:0:0:0:
256,192,22334,1,0,0:0:0:0:
256,192,22521,1,0,0:0:0:0:
256,192,22709,1,8,0:0:0:0:
256,192,22896,1,0,0:0:0:0:
288,192,22990,1,0,0:0:0:0:
256,192,23084,1,8,0:0:0:0:
256,192,23271,1,0,0:0:0:0:
256,192,23459,1,8,0:0:0:0:
256,192,23646,1,8,0:0:0:0:
256,192,23834,1,8,0:0:0:0:
256,192,24021,1,0,0:0:0:0:
256,192,24115,1,0,0:0:0:0:
256,192,24209,1,8,0:0:0:0:
256,192,24396,1,8,0:0:0:0:
256,192,24490,1,8,0:0:0:0:
256,192,24584,1,0,0:0:0:0:
256,192,24771,1,0,0:0:0:0:
256,192,24959,1,8,0:0:0:0:
256,192,25334,1,0,0:0:0:0:
256,192,25521,1,0,0:0:0:0:
256,192,25709,1,8,0:0:0:0:
256,192,26084,1,0,0:0:0:0:
256,192,26271,1,0,0:0:0:0:
256,192,26459,1,8,0:0:0:0:
256,192,26646,1,8,0:0:0:0:
256,192,26834,1,0,0:0:0:0:
256,192,27021,1,0,0:0:0:0:
256,192,27209,1,8,0:0:0:0:
256,192,27584,1,8,0:0:0:0:
256,192,27771,1,0,0:0:0:0:
256,192,27959,1,8,0:0:0:0:
256,192,28146,1,8,0:0:0:0:
256,192,28334,1,0,0:0:0:0:
256,192,28521,1,0,0:0:0:0:
256,192,28709,1,8,0:0:0:0:
256,192,29084,1,4,0:0:0:0:
256,192,29459,1,4,0:0:0:0:
256,192,29834,1,12,0:0:0:0:
256,192,30021,1,12,0:0:0:0:
256,192,30209,1,12,0:0:0:0:
256,192,30584,1,0,0:0:0:0:
256,192,30771,1,0,0:0:0:0:
256,192,30865,1,0,0:0:0:0:
256,192,30959,1,8,0:0:0:0:
256,192,31334,1,0,0:0:0:0:
256,192,31521,1,0,0:0:0:0:
256,192,31615,1,0,0:0:0:0:
256,192,31709,1,8,0:0:0:0:
256,192,32084,1,0,0:0:0:0:
256,192,32271,1,0,0:0:0:0:
256,192,32365,1,0,0:0:0:0:
256,192,32459,1,8,0:0:0:0:
256,192,32646,1,8,0:0:0:0:
256,192,32834,1,0,0:0:0:0:
256,192,33021,1,0,0:0:0:0:
256,192,33209,1,8,0:0:0:0:
256,192,33584,1,8,0:0:0:0:
256,192,33771,1,0,0:0:0:0:
256,192,33959,1,8,0:0:0:0:
256,192,34146,1,8,0:0:0:0:
256,192,34240,1,8,0:0:0:0:
256,192,34334,1,0,0:0:0:0:
256,192,34521,1,0,0:0:0:0:
256,192,34709,1,8,0:0:0:0:
256,192,35084,1,12,0:0:0:0:
256,192,35271,1,12,0:0:0:0:
256,192,35459,1,12,0:0:0:0:
256,192,35646,1,12,0:0:0:0:
256,192,35834,1,0,0:0:0:0:
256,192,35927,1,0,0:0:0:0:
256,192,36021,1,0,0:0:0:0:
256,192,36115,1,0,0:0:0:0:
256,192,36209,1,8,0:0:0:0:
256,192,38084,1,4,0:0:0:0:
256,192,38271,1,0,0:0:0:0:
256,192,38365,1,0,0:0:0:0:
256,192,38459,1,8,0:0:0:0:
256,192,38646,1,8,0:0:0:0:
256,192,38834,1,0,0:0:0:0:
256,192,38927,1,0,0:0:0:0:
256,192,39021,1,0,0:0:0:0:
256,192,39209,1,8,0:0:0:0:
256,192,39396,1,0,0:0:0:0:
256,192,39490,1,8,0:0:0:0:
256,192,39584,1,0,0:0:0:0:
256,192,39771,1,0,0:0:0:0:
256,192,39959,1,8,0:0:0:0:
256,192,40334,1,8,0:0:0:0:
256,192,40521,1,0,0:0:0:0:
256,192,40709,1,8,0:0:0:0:
256,192,41084,1,0,0:0:0:0:
256,192,41271,1,0,0:0:0:0:
256,192,41459,1,8,0:0:0:0:
256,192,41646,1,8,0:0:0:0:
256,192,41740,1,8,0:0:0:0:
256,192,41834,1,0,0:0:0:0:
256,192,42021,1,0,0:0:0:0:
256,192,42209,1,8,0:0:0:0:
256,192,42396,1,0,0:0:0:0:
256,192,42490,1,0,0:0:0:0:
256,192,42584,1,0,0:0:0:0:
256,192,42771,1,0,0:0:0:0:
256,192,42959,1,8,0:0:0:0:
256,192,43334,1,8,0:0:0:0:
256,192,43521,1,0,0:0:0:0:
256,192,43615,1,0,0:0:0:0:
256,192,43709,1,8,0:0:0:0:
256,192,43802,1,8,0:0:0:0:
256,192,43896,1,0,0:0:0:0:
256,192,44084,1,8,0:0:0:0:
256,192,44271,1,0,0:0:0:0:
256,192,44365,1,0,0:0:0:0:
256,192,44459,1,8,0:0:0:0:
256,192,44646,1,8,0:0:0:0:
256,192,44834,1,0,0:0:0:0:
256,192,45021,1,0,0:0:0:0:
256,192,45115,1,0,0:0:0:0:
256,192,45209,1,8,0:0:0:0:
256,192,45396,1,0,0:0:0:0:
256,192,45584,1,8,0:0:0:0:
256,192,45771,1,8,0:0:0:0:
256,192,45865,1,8,0:0:0:0:
256,192,45959,1,0,0:0:0:0:
256,192,46146,1,8,0:0:0:0:
256,192,46334,1,0,0:0:0:0:
256,192,46521,1,0,0:0:0:0:
256,192,46709,1,8,0:0:0:0:
256,192,47084,1,0,0:0:0:0:
256,192,47271,1,0,0:0:0:0:
256,192,47459,1,8,0:0:0:0:
256,192,47646,1,8,0:0:0:0:
256,192,47740,1,8,0:0:0:0:
256,192,47834,1,0,0:0:0:0:
256,192,48021,1,0,0:0:0:0:
256,192,48115,1,0,0:0:0:0:
256,192,48209,1,8,0:0:0:0:
256,192,48396,1,0,0:0:0:0:
256,192,48584,1,12,0:0:0:0:
256,192,48771,1,12,0:0:0:0:
256,192,48959,1,4,0:0:0:0:
256,192,49146,1,4,0:0:0:0:
256,192,49334,1,12,0:0:0:0:
256,192,50084,1,0,0:0:0:0:
256,192,50834,1,8,0:0:0:0:
256,192,51209,1,8,0:0:0:0:
256,192,51584,1,4,0:0:0:0:
256,192,51771,1,0,0:0:0:0:
256,192,51865,1,0,0:0:0:0:
256,192,51959,1,8,0:0:0:0:
256,192,52146,1,0,0:0:0:0:
256,192,52334,1,8,0:0:0:0:
256,192,52427,1,8,0:0:0:0:
256,192,52521,1,0,0:0:0:0:
256,192,52615,1,0,0:0:0:0:
256,192,52709,1,8,0:0:0:0:
256,192,53084,1,0,0:0:0:0:
256,192,53271,1,0,0:0:0:0:
256,192,53365,1,0,0:0:0:0:
256,192,53459,1,8,0:0:0:0:
256,192,53646,1,8,0:0:0:0:
256,192,53740,1,8,0:0:0:0:
256,192,53834,1,0,0:0:0:0:
256,192,54021,1,0,0:0:0:0:
256,192,54209,1,8,0:0:0:0:
256,192,54396,1,0,0:0:0:0:
256,192,54490,1,0,0:0:0:0:
256,192,54584,1,0,0:0:0:0:
256,192,54771,1,0,0:0:0:0:
256,192,54959,1,8,0:0:0:0:
256,192,55334,1,8,0:0:0:0:
256,192,55521,1,0,0:0:0:0:
256,192,55615,1,0,0:0:0:0:
256,192,55709,1,8,0:0:0:0:
256,192,55802,1,8,0:0:0:0:
256,192,55896,1,0,0:0:0:0:
256,192,56084,1,8,0:0:0:0:
256,192,56271,1,0,0:0:0:0:
256,192,56365,1,0,0:0:0:0:
256,192,56459,1,8,0:0:0:0:
256,192,56646,1,8,0:0:0:0:
256,192,56834,1,0,0:0:0:0:
256,192,57021,1,0,0:0:0:0:
256,192,57115,1,0,0:0:0:0:
256,192,57209,1,8,0:0:0:0:
256,192,57396,1,0,0:0:0:0:
256,192,57584,1,8,0:0:0:0:
256,192,57677,1,0,0:0:0:0:
256,192,57771,1,8,0:0:0:0:
256,192,57865,1,8,0:0:0:0:
256,192,57959,1,0,0:0:0:0:
256,192,58146,1,8,0:0:0:0:
256,192,58334,1,0,0:0:0:0:
256,192,58521,1,0,0:0:0:0:
256,192,58709,1,8,0:0:0:0:
256,192,59084,1,0,0:0:0:0:
256,192,59271,1,0,0:0:0:0:
256,192,59459,1,8,0:0:0:0:
256,192,59646,1,8,0:0:0:0:
256,192,59740,1,8,0:0:0:0:
256,192,59834,1,0,0:0:0:0:
256,192,60021,1,0,0:0:0:0:
256,192,60115,1,0,0:0:0:0:
256,192,60209,1,8,0:0:0:0:
256,192,60396,1,0,0:0:0:0:
256,192,60584,1,12,0:0:0:0:
256,192,60771,1,12,0:0:0:0:
256,192,60959,1,4,0:0:0:0:
256,192,61146,1,4,0:0:0:0:
256,192,61334,1,12,0:0:0:0:
256,192,62084,1,4,0:0:0:0:
256,192,62459,1,8,0:0:0:0:
256,192,62646,1,8,0:0:0:0:
256,192,62740,1,8,0:0:0:0:
256,192,62834,1,0,0:0:0:0:
256,192,63021,1,0,0:0:0:0:
256,192,63209,1,8,0:0:0:0:
256,192,63584,1,8,0:0:0:0:
256,192,63771,1,0,0:0:0:0:
256,192,63959,1,8,0:0:0:0:
256,192,64146,1,8,0:0:0:0:
256,192,64240,1,8,0:0:0:0:
256,192,64334,1,8,0:0:0:0:
256,192,64521,1,8,0:0:0:0:
256,192,64709,1,0,0:0:0:0:
256,192,64896,1,0,0:0:0:0:
256,192,64990,1,8,0:0:0:0:
256,192,65084,1,8,0:0:0:0:
256,192,65271,1,0,0:0:0:0:
256,192,65459,1,8,0:0:0:0:
256,192,65646,1,0,0:0:0:0:
256,192,65740,1,0,0:0:0:0:
256,192,65834,1,8,0:0:0:0:
256,192,66209,1,8,0:0:0:0:
256,192,66396,1,0,0:0:0:0:
256,192,66584,1,4,0:0:0:0:
256,192,66959,1,12,0:0:0:0:
256,192,67334,1,4,0:0:0:0:
256,192,67521,1,8,0:0:0:0:
256,192,67615,1,8,0:0:0:0:
256,192,67709,1,0,0:0:0:0:
256,192,67802,1,0,0:0:0:0:
256,192,67896,1,0,0:0:0:0:
256,192,68084,1,4,0:0:0:0:
256,192,68459,1,8,0:0:0:0:
256,192,68646,1,8,0:0:0:0:
256,192,68740,1,8,0:0:0:0:
256,192,68834,1,0,0:0:0:0:
256,192,69021,1,0,0:0:0:0:
256,192,69209,1,8,0:0:0:0:
256,192,69584,1,8,0:0:0:0:
256,192,69771,1,0,0:0:0:0:
256,192,69959,1,8,0:0:0:0:
256,192,70146,1,0,0:0:0:0:
256,192,70240,1,8,0:0:0:0:
256,192,70334,1,0,0:0:0:0:
256,192,70521,1,0,0:0:0:0:
256,192,70709,1,8,0:0:0:0:
256,192,71084,1,8,0:0:0:0:
256,192,71271,1,0,0:0:0:0:
256,192,71459,1,8,0:0:0:0:
256,192,71646,1,0,0:0:0:0:
256,192,71740,1,0,0:0:0:0:
256,192,71834,1,8,0:0:0:0:
256,192,72115,1,0,0:0:0:0:
256,192,72396,1,8,0:0:0:0:
256,192,72584,1,12,0:0:0:0:
256,192,72959,1,4,0:0:0:0:
256,192,73334,1,12,0:0:0:0:
