osu file format v14

[General]
AudioFilename: audio.mp3
AudioLeadIn: 0
PreviewTime: 38084
Countdown: 0
SampleSet: Normal
StackLeniency: 0.7
Mode: 1
LetterboxInBreaks: 0
WidescreenStoryboard: 0

[Editor]
DistanceSpacing: 0.9
BeatDivisor: 4
GridSize: 32
TimelineZoom: 0.9

[Metadata]
Title:Hitomi ni Kakusareta Omoi
TitleUnicode:瞳に隠された想ヒ
Artist:senya
ArtistUnicode:senya
Creator:Prophecy
Version:Muzukashii
Source:東方Project
Tags:touhou ハルトマンの妖怪少女 hartmann's youkai girl komeiji koishi 古明地 こいし かませ虎 kamase-tora HiZuMi ikuo NEKO コミックマーケット89 c89 comiket 89 東方地霊殿 Subterranean Animism Yuuhei Satellite JuDa Judydanny Nardo Nardoxyribonucleic Surono ZUN
BeatmapID:948468
BeatmapSetID:440885

[Difficulty]
HPDrainRate:5
CircleSize:2
OverallDifficulty:5
ApproachRate:4
SliderMultiplier:1.4
SliderTickRate:1

[Events]
//Background and Video events
0,0,"BG.png",0,70
//Break Periods
//Storyboard Layer 0 (Background)
//Storyboard Layer 1 (Fail)
//Storyboard Layer 2 (Pass)
//Storyboard Layer 3 (Foreground)
//Storyboard Sound Samples

[TimingPoints]
584,375,4,1,0,60,1,0
12584,-100,4,1,0,80,0,0
24584,-100,4,1,0,70,0,0
30584,-100,4,1,0,80,0,0
38084,-100,4,1,0,85,0,1
50084,-100,4,1,0,70,0,0
51584,-100,4,1,0,85,0,1
62084,-100,4,1,0,80,0,0
71084,-100,4,1,0,75,0,0
71834,-100,4,1,0,70,0,0
72584,-100,4,1,0,65,0,0
73334,-100,4,1,0,60,0,0

[HitObjects]
256,191,584,5,8,0:0:0:0:
256,191,959,1,8,0:0:0:0:
256,191,1146,1,0,0:0:0:0:
256,191,1521,1,8,0:0:0:0:
256,191,1896,1,0,0:0:0:0:
256,191,2084,1,0,0:0:0:0:
256,191,3584,1,0,0:0:0:0:
256,191,4334,1,0,0:0:0:0:
256,191,4615,1,8,0:0:0:0:
256,191,4896,1,8,0:0:0:0:
256,191,5084,1,0,0:0:0:0:
256,191,5365,1,8,0:0:0:0:
256,191,5646,1,0,0:0:0:0:
256,191,6209,1,0,0:0:0:0:
256,191,6396,1,0,0:0:0:0:
256,191,6584,1,8,0:0:0:0:
256,191,7709,1,8,0:0:0:0:
256,191,8084,1,0,0:0:0:0:
256,191,8834,1,0,0:0:0:0:
256,191,9115,1,0,0:0:0:0:
256,191,9396,1,8,0:0:0:0:
256,191,9584,1,8,0:0:0:0:
256,191,10709,1,8,0:0:0:0:
256,191,11084,1,8,0:0:0:0:
256,191,12584,1,4,0:0:0:0:
256,191,12959,1,8,0:0:0:0:
256,191,13146,1,0,0:0:0:0:
256,191,13521,1,8,0:0:0:0:
256,191,13709,1,8,0:0:0:0:
256,191,13896,1,8,0:0:0:0:
256,191,14084,1,0,0:0:0:0:
256,191,14459,1,0,0:0:0:0:
256,191,14834,1,8,0:0:0:0:
256,191,15021,1,8,0:0:0:0:
256,191,15209,1,8,0:0:0:0:
256,191,15396,1,8,0:0:0:0:
256,191,15584,1,0,0:0:0:0:
256,191,15959,1,8,0:0:0:0:
256,191,16334,1,0,0:0:0:0:
256,191,16709,1,8,0:0:0:0:
256,191,16896,1,8,0:0:0:0:
256,191,17084,1,4,0:0:0:0:
256,191,17365,1,12,0:0:0:0:
256,191,17646,1,4,0:0:0:0:
256,191,18209,1,0,0:0:0:0:
256,191,18396,1,8,0:0:0:0:
256,191,18584,1,4,0:0:0:0:
256,191,18959,1,8,0:0:0:0:
256,191,19334,1,0,0:0:0:0:
256,191,19709,1,8,0:0:0:0:
256,191,19896,1,8,0:0:0:0:
256,191,20084,1,0,0:0:0:0:
256,191,20459,1,8,0:0:0:0:
256,191,20834,1,0,0:0:0:0:
256,191,21209,1,8,0:0:0:0:
256,191,21396,1,8,0:0:0:0:
256,191,21584,1,8,0:0:0:0:
256,191,21959,1,8,0:0:0:0:
256,191,22334,1,0,0:0:0:0:
256,191,22521,1,0,0:0:0:0:
256,191,22709,1,8,0:0:0:0:
256,191,23084,1,4,0:0:0:0:
256,191,23271,1,4,0:0:0:0:
256,191,23459,1,12,0:0:0:0:
256,191,23646,1,4,0:0:0:0:
256,191,23834,1,12,0:0:0:0:
256,191,24584,1,4,0:0:0:0:
256,191,24959,1,8,0:0:0:0:
256,191,25334,1,0,0:0:0:0:
256,191,25521,1,0,0:0:0:0:
256,191,25709,1,8,0:0:0:0:
256,191,26084,1,0,0:0:0:0:
256,191,26459,1,8,0:0:0:0:
256,191,26647,1,8,0:0:0:0:
256,191,26834,1,0,0:0:0:0:
256,191,27209,1,8,0:0:0:0:
256,191,27584,1,0,0:0:0:0:
256,191,27959,1,8,0:0:0:0:
256,191,28146,1,8,0:0:0:0:
256,191,28334,1,0,0:0:0:0:
256,191,28709,1,8,0:0:0:0:
256,191,29084,1,4,0:0:0:0:
256,191,29459,1,4,0:0:0:0:
256,191,29834,1,12,0:0:0:0:
256,191,30021,1,12,0:0:0:0:
256,191,30209,1,12,0:0:0:0:
256,191,30584,1,0,0:0:0:0:
256,191,30959,1,0,0:0:0:0:
256,191,31334,1,0,0:0:0:0:
256,191,31521,1,0,0:0:0:0:
256,191,31709,1,8,0:0:0:0:
256,191,32084,1,0,0:0:0:0:
256,191,32459,1,8,0:0:0:0:
256,191,32646,1,8,0:0:0:0:
256,191,32834,1,0,0:0:0:0:
256,191,33021,1,8,0:0:0:0:
256,191,33209,1,0,0:0:0:0:
256,191,33584,1,8,0:0:0:0:
256,191,33959,1,8,0:0:0:0:
256,191,34146,1,8,0:0:0:0:
256,191,34334,1,0,0:0:0:0:
256,191,34521,1,0,0:0:0:0:
256,191,34709,1,8,0:0:0:0:
256,191,35084,1,8,0:0:0:0:
256,191,35271,1,0,0:0:0:0:
256,191,35459,1,8,0:0:0:0:
256,191,35646,1,0,0:0:0:0:
256,191,35834,1,8,0:0:0:0:
256,191,36021,1,8,0:0:0:0:
256,191,36115,1,8,0:0:0:0:
256,191,36209,1,8,0:0:0:0:
256,191,38084,1,4,0:0:0:0:
256,191,38271,1,0,0:0:0:0:
256,191,38459,1,8,0:0:0:0:
256,191,38834,1,0,0:0:0:0:
256,191,39021,1,0,0:0:0:0:
256,191,39209,1,8,0:0:0:0:
256,191,39396,1,0,0:0:0:0:
256,191,39490,1,0,0:0:0:0:
256,191,39584,1,0,0:0:0:0:
256,191,39959,1,8,0:0:0:0:
256,191,40334,1,0,0:0:0:0:
256,191,40709,1,8,0:0:0:0:
256,191,41084,1,0,0:0:0:0:
256,191,41271,1,0,0:0:0:0:
256,191,41459,1,8,0:0:0:0:
256,191,41646,1,8,0:0:0:0:
256,191,41834,1,0,0:0:0:0:
256,191,42021,1,0,0:0:0:0:
256,191,42209,1,8,0:0:0:0:
256,191,42584,1,4,0:0:0:0:
256,191,42959,1,12,0:0:0:0:
256,191,43334,1,12,0:0:0:0:
256,191,44084,1,8,0:0:0:0:
256,191,44271,1,0,0:0:0:0:
256,191,44459,1,8,0:0:0:0:
256,191,44834,1,0,0:0:0:0:
256,191,45021,1,0,0:0:0:0:
256,191,45209,1,8,0:0:0:0:
256,191,45396,1,0,0:0:0:0:
256,191,45584,1,8,0:0:0:0:
256,191,45959,1,0,0:0:0:0:
256,191,46146,1,8,0:0:0:0:
256,191,46334,1,0,0:0:0:0:
256,191,46709,1,8,0:0:0:0:
256,192,47084,1,0,0:0:0:0:
256,192,47271,1,0,0:0:0:0:
256,192,47459,1,8,0:0:0:0:
256,192,47646,1,8,0:0:0:0:
256,192,47834,1,0,0:0:0:0:
256,192,48209,1,8,0:0:0:0:
256,192,48584,1,12,0:0:0:0:
256,192,48771,1,12,0:0:0:0:
256,192,48959,1,4,0:0:0:0:
256,192,49146,1,4,0:0:0:0:
256,192,49334,1,12,0:0:0:0:
256,191,50084,1,0,0:0:0:0:
256,191,50834,1,8,0:0:0:0:
256,191,51209,1,8,0:0:0:0:
256,192,51584,1,4,0:0:0:0:
256,192,51959,1,8,0:0:0:0:
256,192,52146,1,8,0:0:0:0:
256,192,52334,1,0,0:0:0:0:
256,192,52427,1,0,0:0:0:0:
256,192,52521,1,0,0:0:0:0:
256,192,52709,1,8,0:0:0:0:
256,192,53084,1,0,0:0:0:0:
256,192,53271,1,0,0:0:0:0:
256,192,53459,1,8,0:0:0:0:
256,192,53646,1,8,0:0:0:0:
256,192,53834,1,0,0:0:0:0:
256,192,54021,1,0,0:0:0:0:
256,192,54209,1,8,0:0:0:0:
256,192,54584,1,4,0:0:0:0:
256,192,54959,1,12,0:0:0:0:
256,191,55334,1,12,0:0:0:0:
256,191,56084,1,8,0:0:0:0:
256,191,56271,1,0,0:0:0:0:
256,191,56459,1,8,0:0:0:0:
256,191,56834,1,0,0:0:0:0:
256,191,57021,1,0,0:0:0:0:
256,191,57209,1,8,0:0:0:0:
256,191,57396,1,0,0:0:0:0:
256,191,57584,1,8,0:0:0:0:
256,191,57959,1,0,0:0:0:0:
256,191,58146,1,8,0:0:0:0:
256,191,58334,1,0,0:0:0:0:
256,192,58709,1,8,0:0:0:0:
256,192,59084,1,0,0:0:0:0:
256,192,59271,1,0,0:0:0:0:
256,192,59459,1,8,0:0:0:0:
256,192,59646,1,8,0:0:0:0:
256,192,59834,1,0,0:0:0:0:
256,192,60209,1,8,0:0:0:0:
256,192,60584,1,12,0:0:0:0:
256,192,60771,1,12,0:0:0:0:
256,192,60959,1,4,0:0:0:0:
256,192,61146,1,4,0:0:0:0:
256,192,61334,1,12,0:0:0:0:
256,192,62084,1,4,0:0:0:0:
256,192,62459,1,8,0:0:0:0:
256,192,62834,1,0,0:0:0:0:
256,192,63021,1,0,0:0:0:0:
256,192,63209,1,8,0:0:0:0:
256,192,63584,1,8,0:0:0:0:
256,192,63959,1,8,0:0:0:0:
256,192,64334,1,8,0:0:0:0:
256,192,64521,1,8,0:0:0:0:
256,192,64709,1,0,0:0:0:0:
256,192,65084,1,8,0:0:0:0:
256,192,65271,1,0,0:0:0:0:
256,192,65459,1,0,0:0:0:0:
256,192,65834,1,8,0:0:0:0:
256,192,66209,1,8,0:0:0:0:
256,192,66396,1,8,0:0:0:0:
256,192,66584,1,4,0:0:0:0:
256,192,66959,1,12,0:0:0:0:
256,192,67334,1,4,0:0:0:0:
256,192,68084,1,4,0:0:0:0:
256,192,68459,1,8,0:0:0:0:
256,192,68834,1,0,0:0:0:0:
256,192,69021,1,0,0:0:0:0:
256,192,69209,1,8,0:0:0:0:
256,192,69396,1,0,0:0:0:0:
256,192,69584,1,8,0:0:0:0:
256,192,69959,1,8,0:0:0:0:
256,192,70146,1,8,0:0:0:0:
256,192,70334,1,0,0:0:0:0:
256,192,70709,1,8,0:0:0:0:
256,192,71084,1,8,0:0:0:0:
256,192,71365,1,0,0:0:0:0:
256,192,71646,1,0,0:0:0:0:
256,192,71834,1,8,0:0:0:0:
256,192,72115,1,0,0:0:0:0:
256,192,72396,1,8,0:0:0:0:
256,192,72584,1,12,0:0:0:0:
256,192,72959,1,4,0:0:0:0:
256,192,73334,1,12,0:0:0:0:
