osu file format v14

[General]
AudioFilename: audio.mp3
AudioLeadIn: 0
PreviewTime: 38084
Countdown: 0
SampleSet: Normal
StackLeniency: 0.7
Mode: 1
LetterboxInBreaks: 0
WidescreenStoryboard: 0

[Editor]
DistanceSpacing: 0.9
BeatDivisor: 1
GridSize: 32
TimelineZoom: 0.3999999

[Metadata]
Title:Hitomi ni Kakusareta Omoi
TitleUnicode:瞳に隠された想ヒ
Artist:senya
ArtistUnicode:senya
Creator:Prophecy
Version:Kantan
Source:東方Project
Tags:touhou ハルトマンの妖怪少女 hartmann's youkai girl komeiji koishi 古明地 こいし かませ虎 kamase-tora HiZuMi ikuo NEKO コミックマーケット89 c89 comiket 89 東方地霊殿 Subterranean Animism Yuuhei Satellite JuDa Judydanny Nardo Nardoxyribonucleic Surono ZUN
BeatmapID:954243
BeatmapSetID:440885

[Difficulty]
HPDrainRate:7
CircleSize:2
OverallDifficulty:3
ApproachRate:0
SliderMultiplier:1.4
SliderTickRate:1

[Events]
//Background and Video events
0,0,"BG.png",0,70
//Break Periods
//Storyboard Layer 0 (Background)
//Storyboard Layer 1 (Fail)
//Storyboard Layer 2 (Pass)
//Storyboard Layer 3 (Foreground)
//Storyboard Sound Samples

[TimingPoints]
584,375,4,1,0,60,1,0
12584,-100,4,1,0,80,0,0
24584,-100,4,1,0,70,0,0
30584,-100,4,1,0,80,0,0
38084,-100,4,1,0,85,0,1
50084,-100,4,1,0,70,0,0
51584,-100,4,1,0,85,0,1
62084,-100,4,1,0,80,0,0
71084,-100,4,1,0,75,0,0
71834,-100,4,1,0,70,0,0
72584,-100,4,1,0,65,0,0
73334,-100,4,1,0,60,0,0

[HitObjects]
256,191,584,5,8,0:0:0:0:
256,191,2084,1,8,0:0:0:0:
256,191,3584,1,0,0:0:0:0:
256,191,5084,1,0,0:0:0:0:
256,191,6209,1,0,0:0:0:0:
256,191,6584,1,8,0:0:0:0:
256,191,8084,1,0,0:0:0:0:
256,191,9584,1,8,0:0:0:0:
256,191,10709,1,8,0:0:0:0:
256,191,11084,1,8,0:0:0:0:
256,191,12584,5,4,0:0:0:0:
256,191,13334,1,8,0:0:0:0:
256,191,13709,1,8,0:0:0:0:
256,191,14084,1,0,0:0:0:0:
256,191,14834,1,8,0:0:0:0:
256,191,15584,1,0,0:0:0:0:
256,191,16334,1,8,0:0:0:0:
256,191,17084,1,4,0:0:0:0:
256,191,17646,1,12,0:0:0:0:
256,191,18584,1,0,0:0:0:0:
256,191,19334,1,8,0:0:0:0:
256,191,19709,1,0,0:0:0:0:
256,191,20084,1,8,0:0:0:0:
256,191,20834,1,0,0:0:0:0:
256,191,21584,1,8,0:0:0:0:
256,191,23084,1,4,0:0:0:0:
256,191,23459,1,12,0:0:0:0:
256,191,23834,1,12,0:0:0:0:
256,191,24584,1,4,0:0:0:0:
256,191,25334,1,8,0:0:0:0:
256,191,26084,1,0,0:0:0:0:
256,191,27584,1,0,0:0:0:0:
256,191,28334,1,8,0:0:0:0:
256,191,29084,1,4,0:0:0:0:
256,191,29834,1,12,0:0:0:0:
256,191,30209,1,12,0:0:0:0:
256,191,30584,1,0,0:0:0:0:
256,191,31334,1,8,0:0:0:0:
256,191,32084,1,0,0:0:0:0:
256,191,32834,1,0,0:0:0:0:
256,191,33209,1,8,0:0:0:0:
256,191,33584,1,0,0:0:0:0:
256,191,34334,1,8,0:0:0:0:
256,191,35084,1,0,0:0:0:0:
256,191,35459,1,0,0:0:0:0:
256,191,35834,1,8,0:0:0:0:
256,191,36209,1,8,0:0:0:0:
256,191,38084,1,4,0:0:0:0:
256,191,38834,1,8,0:0:0:0:
256,191,39584,1,0,0:0:0:0:
256,191,39959,1,8,0:0:0:0:
256,191,40334,1,8,0:0:0:0:
256,191,40709,1,0,0:0:0:0:
256,191,41084,1,0,0:0:0:0:
256,191,41834,1,8,0:0:0:0:
256,191,42584,1,4,0:0:0:0:
256,191,42959,1,12,0:0:0:0:
256,191,43334,1,12,0:0:0:0:
256,191,44084,1,8,0:0:0:0:
256,191,44834,1,0,0:0:0:0:
256,191,45584,1,8,0:0:0:0:
256,191,45959,1,0,0:0:0:0:
256,191,46334,1,0,0:0:0:0:
256,192,47084,1,0,0:0:0:0:
256,192,47834,1,8,0:0:0:0:
256,192,48584,1,12,0:0:0:0:
256,192,48959,1,4,0:0:0:0:
256,192,49334,1,12,0:0:0:0:
256,191,50084,1,0,0:0:0:0:
256,192,51584,1,4,0:0:0:0:
256,192,51959,1,8,0:0:0:0:
256,192,52334,1,8,0:0:0:0:
256,192,52709,1,8,0:0:0:0:
256,192,53084,1,0,0:0:0:0:
256,192,53834,1,8,0:0:0:0:
256,192,54584,1,4,0:0:0:0:
256,192,54959,1,12,0:0:0:0:
256,191,55334,1,12,0:0:0:0:
256,192,56084,1,8,0:0:0:0:
256,192,56834,1,0,0:0:0:0:
256,192,57584,1,8,0:0:0:0:
256,192,57959,1,0,0:0:0:0:
256,192,58334,1,0,0:0:0:0:
256,191,59084,1,0,0:0:0:0:
256,191,59834,1,8,0:0:0:0:
256,191,60584,1,12,0:0:0:0:
256,191,60959,1,4,0:0:0:0:
256,191,61334,1,12,0:0:0:0:
256,192,62084,5,4,0:0:0:0:
256,192,62834,1,0,0:0:0:0:
256,192,63584,1,8,0:0:0:0:
256,192,65084,1,0,0:0:0:0:
256,192,65834,1,8,0:0:0:0:
256,192,66584,1,4,0:0:0:0:
256,192,66959,1,12,0:0:0:0:
256,192,67334,1,4,0:0:0:0:
256,192,68084,1,4,0:0:0:0:
256,192,68834,1,0,0:0:0:0:
256,192,69584,1,8,0:0:0:0:
256,192,71084,1,8,0:0:0:0:
256,192,71834,1,0,0:0:0:0:
256,192,72584,1,12,0:0:0:0:
256,192,72959,1,4,0:0:0:0:
256,192,73334,1,12,0:0:0:0:
