osu file format v14

[General]
AudioFilename: audio.mp3
AudioLeadIn: 0
PreviewTime: 38084
Countdown: 0
SampleSet: Normal
StackLeniency: 0.7
Mode: 1
LetterboxInBreaks: 0
WidescreenStoryboard: 0

[Editor]
DistanceSpacing: 0.9
BeatDivisor: 4
GridSize: 32
TimelineZoom: 2.599999

[Metadata]
Title:Hitomi ni Kakusareta Omoi
TitleUnicode:瞳に隠された想ヒ
Artist:senya
ArtistUnicode:senya
Creator:Prophecy
Version:JuDa's Inner Oni
Source:東方Project
Tags:touhou ハルトマンの妖怪少女 hartmann's youkai girl komeiji koishi 古明地 こいし かませ虎 kamase-tora HiZuMi ikuo NEKO コミックマーケット89 c89 comiket 89 東方地霊殿 Subterranean Animism Yuuhei Satellite JuDa Judydanny Nardo Nardoxyribonucleic Surono ZUN
BeatmapID:1089110
BeatmapSetID:440885

[Difficulty]
HPDrainRate:6
CircleSize:4
OverallDifficulty:6
ApproachRate:5
SliderMultiplier:1.4
SliderTickRate:1

[Events]
//Background and Video events
0,0,"BG.png",0,70
//Break Periods
//Storyboard Layer 0 (Background)
//Storyboard Layer 1 (Fail)
//Storyboard Layer 2 (Pass)
//Storyboard Layer 3 (Foreground)
//Storyboard Sound Samples

[TimingPoints]
584,375,4,1,0,70,1,0
12584,-100,4,1,0,80,0,0
24584,-100,4,1,0,70,0,0
29084,-100,4,1,0,80,0,0
38084,-100,4,1,0,80,0,1
50084,-100,4,1,0,70,0,0
51584,-100,4,1,0,80,0,1
62084,-100,4,1,0,80,0,0
71084,-100,4,1,0,75,0,0
71271,-100,4,1,0,70,0,0
71459,-100,4,1,0,65,0,0
71646,-100,4,1,0,60,0,0
71834,-100,4,1,0,55,0,0
72021,-100,4,1,0,50,0,0
72209,-100,4,1,0,45,0,0
72396,-100,4,1,0,40,0,0
72584,-100,4,1,0,35,0,0
72771,-100,4,1,0,30,0,0
72959,-100,4,1,0,25,0,0
73146,-100,4,1,0,20,0,0
73334,-100,4,1,0,15,0,0

[HitObjects]
224,160,584,5,0,0:0:0:0:
128,96,959,1,8,0:0:0:0:
192,128,1146,1,0,0:0:0:0:
192,64,1521,1,8,0:0:0:0:
160,128,1709,1,8,0:0:0:0:
192,64,1896,1,8,0:0:0:0:
192,64,2084,1,0,0:0:0:0:
160,128,2459,1,0,0:0:0:0:
160,128,2646,1,0,0:0:0:0:
192,64,2834,1,8,0:0:0:0:
192,0,3021,1,8,0:0:0:0:
192,64,3209,1,8,0:0:0:0:
192,0,3396,1,8,0:0:0:0:
224,192,3584,1,0,0:0:0:0:
256,96,3959,1,0,0:0:0:0:
192,32,4146,1,0,0:0:0:0:
192,64,4334,1,8,0:0:0:0:
192,32,4615,1,8,0:0:0:0:
192,32,4896,1,8,0:0:0:0:
224,192,5084,1,0,0:0:0:0:
192,96,5365,1,0,0:0:0:0:
192,64,5646,1,0,0:0:0:0:
192,32,6209,1,8,0:0:0:0:
192,32,6396,1,8,0:0:0:0:
192,32,6584,1,0,0:0:0:0:
192,32,6959,1,0,0:0:0:0:
192,32,7146,1,0,0:0:0:0:
192,32,7334,1,8,0:0:0:0:
192,32,7521,1,0,0:0:0:0:
192,64,7709,1,8,0:0:0:0:
192,32,7896,1,8,0:0:0:0:
192,64,8084,1,0,0:0:0:0:
192,32,8459,1,0,0:0:0:0:
192,32,8646,1,0,0:0:0:0:
192,32,8834,1,8,0:0:0:0:
192,64,9115,1,8,0:0:0:0:
192,64,9396,1,0,0:0:0:0:
192,64,9584,1,8,0:0:0:0:
192,32,9959,1,8,0:0:0:0:
192,32,10146,1,8,0:0:0:0:
192,32,10334,1,0,0:0:0:0:
192,32,10521,1,0,0:0:0:0:
192,64,10709,5,8,0:0:0:0:
192,32,10896,1,0,0:0:0:0:
192,32,11084,1,8,0:0:0:0:
192,32,11459,1,0,0:0:0:0:
192,64,11834,1,8,0:0:0:0:
192,32,12021,1,0,0:0:0:0:
192,64,12209,1,8,0:0:0:0:
224,192,12584,5,4,0:0:0:0:
256,96,12959,1,8,0:0:0:0:
192,96,13146,1,0,0:0:0:0:
256,192,13334,1,0,0:0:0:0:
224,160,13427,1,0,0:0:0:0:
192,160,13521,1,8,0:0:0:0:
160,128,13615,1,8,0:0:0:0:
160,128,13709,1,0,0:0:0:0:
224,64,13896,1,8,0:0:0:0:
224,192,14084,1,0,0:0:0:0:
192,128,14271,1,0,0:0:0:0:
192,128,14365,1,0,0:0:0:0:
192,320,14459,1,8,0:0:0:0:
192,128,14646,1,0,0:0:0:0:
192,128,14834,1,8,0:0:0:0:
192,128,15021,1,8,0:0:0:0:
192,128,15115,1,8,0:0:0:0:
192,128,15209,1,0,0:0:0:0:
192,64,15396,1,8,0:0:0:0:
224,192,15584,1,0,0:0:0:0:
192,64,15771,1,0,0:0:0:0:
192,64,15865,1,0,0:0:0:0:
192,320,15959,1,8,0:0:0:0:
192,64,16146,1,0,0:0:0:0:
192,128,16334,1,0,0:0:0:0:
192,96,16427,1,8,0:0:0:0:
224,192,16521,1,0,0:0:0:0:
192,64,16615,1,0,0:0:0:0:
256,64,16709,1,8,0:0:0:0:
192,32,16896,1,8,0:0:0:0:
224,192,17084,1,4,0:0:0:0:
224,128,17365,1,4,0:0:0:0:
224,96,17646,1,4,0:0:0:0:
224,64,18021,1,2,0:0:0:0:
224,64,18115,1,2,0:0:0:0:
224,128,18209,1,0,0:0:0:0:
224,64,18396,1,8,0:0:0:0:
224,96,18490,1,8,0:0:0:0:
224,96,18584,1,0,0:0:0:0:
224,160,18959,1,8,0:0:0:0:
192,32,19146,1,0,0:0:0:0:
192,32,19240,1,0,0:0:0:0:
192,32,19334,1,2,0:0:0:0:
192,32,19427,1,2,0:0:0:0:
192,32,19521,1,0,0:0:0:0:
192,32,19709,1,8,0:0:0:0:
224,64,19896,1,2,0:0:0:0:
224,64,19990,1,2,0:0:0:0:
192,32,20084,1,0,0:0:0:0:
224,96,20271,1,0,0:0:0:0:
224,160,20459,1,8,0:0:0:0:
224,64,20646,1,0,0:0:0:0:
192,32,20834,1,0,0:0:0:0:
224,64,20927,1,0,0:0:0:0:
224,96,21021,1,2,0:0:0:0:
224,32,21115,1,0,0:0:0:0:
224,32,21209,1,2,0:0:0:0:
224,96,21396,1,2,0:0:0:0:
192,64,21584,1,0,0:0:0:0:
192,64,21771,1,0,0:0:0:0:
224,64,21959,1,8,0:0:0:0:
192,64,22052,1,2,0:0:0:0:
224,64,22146,1,2,0:0:0:0:
224,64,22240,1,2,0:0:0:0:
224,64,22334,1,0,0:0:0:0:
192,0,22521,1,0,0:0:0:0:
224,160,22709,1,2,0:0:0:0:
224,128,22802,1,2,0:0:0:0:
224,96,22896,1,2,0:0:0:0:
224,160,23084,1,4,0:0:0:0:
256,96,23271,1,4,0:0:0:0:
224,160,23459,1,4,0:0:0:0:
224,96,23646,1,4,0:0:0:0:
224,160,23834,1,4,0:0:0:0:
224,64,24021,1,2,0:0:0:0:
224,64,24115,1,2,0:0:0:0:
224,64,24209,1,0,0:0:0:0:
224,64,24302,1,2,0:0:0:0:
224,64,24396,1,2,0:0:0:0:
192,32,24490,1,2,0:0:0:0:
224,160,24584,1,0,0:0:0:0:
224,96,24771,1,0,0:0:0:0:
224,32,24959,1,8,0:0:0:0:
192,32,25334,1,0,0:0:0:0:
192,32,25521,1,0,0:0:0:0:
192,32,25709,1,8,0:0:0:0:
224,160,26084,1,0,0:0:0:0:
192,32,26271,1,0,0:0:0:0:
192,32,26459,1,8,0:0:0:0:
192,32,26646,1,0,0:0:0:0:
192,32,26834,1,0,0:0:0:0:
192,32,27021,1,0,0:0:0:0:
192,32,27209,1,8,0:0:0:0:
224,160,27584,1,0,0:0:0:0:
192,32,27771,1,0,0:0:0:0:
224,160,27959,1,8,0:0:0:0:
192,32,28146,1,8,0:0:0:0:
192,32,28334,1,0,0:0:0:0:
192,32,28521,1,0,0:0:0:0:
224,160,28709,1,8,0:0:0:0:
224,160,29084,1,4,0:0:0:0:
192,32,29271,1,4,0:0:0:0:
224,160,29459,1,12,0:0:0:0:
224,160,29834,1,4,0:0:0:0:
224,160,30021,1,12,0:0:0:0:
224,160,30209,1,12,0:0:0:0:
224,160,30584,1,4,0:0:0:0:
224,96,30771,1,0,0:0:0:0:
224,160,30959,1,8,0:0:0:0:
192,64,31052,1,8,0:0:0:0:
224,96,31146,1,0,0:0:0:0:
224,160,31334,1,2,0:0:0:0:
224,96,31521,1,0,0:0:0:0:
224,160,31709,1,2,0:0:0:0:
224,128,31802,1,2,0:0:0:0:
224,96,31896,1,8,0:0:0:0:
224,160,32084,1,0,0:0:0:0:
192,96,32271,1,0,0:0:0:0:
192,64,32459,1,2,0:0:0:0:
192,64,32552,1,2,0:0:0:0:
192,64,32646,1,0,0:0:0:0:
224,160,32834,1,2,0:0:0:0:
224,128,33021,1,0,0:0:0:0:
224,96,33115,1,0,0:0:0:0:
224,96,33209,1,2,0:0:0:0:
256,128,33396,1,8,0:0:0:0:
224,96,33490,1,2,0:0:0:0:
224,160,33584,1,0,0:0:0:0:
224,128,33771,1,0,0:0:0:0:
224,96,33959,1,2,0:0:0:0:
256,128,34052,1,8,0:0:0:0:
224,96,34146,1,0,0:0:0:0:
224,32,34334,1,2,0:0:0:0:
224,64,34427,1,0,0:0:0:0:
256,128,34521,1,0,0:0:0:0:
224,64,34615,1,0,0:0:0:0:
224,160,34709,1,8,0:0:0:0:
256,96,34896,1,8,0:0:0:0:
224,160,35084,1,4,0:0:0:0:
256,128,35271,1,4,0:0:0:0:
256,128,35459,1,12,0:0:0:0:
224,160,35646,1,12,0:0:0:0:
166,26,35834,1,0,0:0:0:0:
166,26,35927,1,2,0:0:0:0:
166,26,36021,1,0,0:0:0:0:
166,26,36115,1,0,0:0:0:0:
224,160,36209,1,8,0:0:0:0:
224,96,36302,1,0,0:0:0:0:
224,96,36396,1,8,0:0:0:0:
224,96,36490,1,8,0:0:0:0:
256,192,36584,12,0,37709,0:0:0:0:
224,160,38084,5,4,0:0:0:0:
160,128,38271,1,0,0:0:0:0:
192,128,38459,1,8,0:0:0:0:
192,96,38552,1,0,0:0:0:0:
224,192,38646,1,8,0:0:0:0:
224,160,38740,1,8,0:0:0:0:
192,128,38834,1,0,0:0:0:0:
224,192,39021,1,0,0:0:0:0:
192,96,39115,1,0,0:0:0:0:
192,128,39209,1,8,0:0:0:0:
224,192,39396,1,0,0:0:0:0:
160,128,39490,1,8,0:0:0:0:
160,128,39584,1,0,0:0:0:0:
224,192,39771,1,0,0:0:0:0:
192,160,39959,1,8,0:0:0:0:
224,160,40052,1,8,0:0:0:0:
192,160,40146,1,0,0:0:0:0:
192,160,40334,1,8,0:0:0:0:
160,128,40427,1,0,0:0:0:0:
192,160,40521,1,0,0:0:0:0:
160,128,40615,1,0,0:0:0:0:
192,160,40709,1,8,0:0:0:0:
192,160,40896,1,8,0:0:0:0:
192,160,40990,1,8,0:0:0:0:
192,160,41084,1,0,0:0:0:0:
160,96,41271,1,0,0:0:0:0:
160,96,41459,1,2,0:0:0:0:
160,64,41552,1,8,0:0:0:0:
160,96,41646,1,2,0:0:0:0:
160,64,41740,1,8,0:0:0:0:
160,96,41834,1,0,0:0:0:0:
160,64,41927,1,0,0:0:0:0:
160,64,42021,1,0,0:0:0:0:
192,32,42115,1,0,0:0:0:0:
160,96,42209,1,2,0:0:0:0:
160,96,42396,1,8,0:0:0:0:
96,64,42584,1,4,0:0:0:0:
128,64,42771,1,8,0:0:0:0:
224,128,42959,1,4,0:0:0:0:
128,64,43146,1,8,0:0:0:0:
128,64,43334,1,0,0:0:0:0:
128,64,43427,1,0,0:0:0:0:
128,64,43521,1,8,0:0:0:0:
128,64,43615,1,0,0:0:0:0:
192,96,43709,1,8,0:0:0:0:
128,64,43802,1,8,0:0:0:0:
128,64,43896,1,2,0:0:0:0:
128,64,43990,1,8,0:0:0:0:
192,96,44084,1,0,0:0:0:0:
192,96,44271,1,0,0:0:0:0:
192,96,44459,1,8,0:0:0:0:
160,32,44552,1,8,0:0:0:0:
192,32,44646,1,0,0:0:0:0:
192,96,44740,1,0,0:0:0:0:
192,32,44834,1,8,0:0:0:0:
160,32,45021,1,0,0:0:0:0:
192,32,45115,1,0,0:0:0:0:
192,32,45209,1,8,0:0:0:0:
160,32,45396,1,0,0:0:0:0:
192,96,45584,1,8,0:0:0:0:
160,64,45771,1,0,0:0:0:0:
192,32,45865,1,8,0:0:0:0:
224,96,45959,1,0,0:0:0:0:
160,64,46146,1,8,0:0:0:0:
224,96,46334,1,0,0:0:0:0:
96,64,46709,1,8,0:0:0:0:
128,32,46802,1,0,0:0:0:0:
192,32,46896,1,8,0:0:0:0:
160,32,46990,1,8,0:0:0:0:
224,96,47084,1,0,0:0:0:0:
160,64,47271,1,0,0:0:0:0:
224,128,47459,1,8,0:0:0:0:
192,64,47646,1,0,0:0:0:0:
192,32,47740,1,2,0:0:0:0:
192,96,47834,1,0,0:0:0:0:
192,96,47927,1,0,0:0:0:0:
192,96,48021,1,8,0:0:0:0:
192,64,48115,1,0,0:0:0:0:
192,96,48209,1,8,0:0:0:0:
192,96,48396,1,0,0:0:0:0:
192,96,48584,1,12,0:0:0:0:
192,96,48771,1,12,0:0:0:0:
192,96,48959,1,4,0:0:0:0:
192,96,49146,1,4,0:0:0:0:
192,96,49334,1,12,0:0:0:0:
192,96,49521,1,8,0:0:0:0:
192,96,49615,1,8,0:0:0:0:
192,96,49709,1,0,0:0:0:0:
224,96,49802,1,0,0:0:0:0:
224,96,49896,1,8,0:0:0:0:
192,96,49990,1,8,0:0:0:0:
192,96,50084,1,0,0:0:0:0:
192,96,50459,1,8,0:0:0:0:
224,32,50646,1,8,0:0:0:0:
192,64,50834,1,0,0:0:0:0:
224,32,51021,1,0,0:0:0:0:
192,96,51115,1,0,0:0:0:0:
192,96,51209,1,8,0:0:0:0:
192,96,51302,1,8,0:0:0:0:
192,96,51396,1,8,0:0:0:0:
192,96,51490,1,8,0:0:0:0:
192,96,51584,1,0,0:0:0:0:
192,96,51771,1,0,0:0:0:0:
192,96,51959,1,12,0:0:0:0:
192,96,52146,1,0,0:0:0:0:
192,96,52334,1,12,0:0:0:0:
192,96,52521,1,0,0:0:0:0:
192,96,52615,1,0,0:0:0:0:
192,96,52709,1,8,0:0:0:0:
192,96,52802,1,0,0:0:0:0:
192,96,52896,1,8,0:0:0:0:
160,96,52990,1,8,0:0:0:0:
192,96,53084,1,0,0:0:0:0:
192,96,53271,1,0,0:0:0:0:
192,32,53459,1,8,0:0:0:0:
192,32,53552,1,0,0:0:0:0:
192,32,53646,1,8,0:0:0:0:
192,96,53834,1,0,0:0:0:0:
192,32,53927,1,8,0:0:0:0:
192,32,54021,1,0,0:0:0:0:
192,32,54115,1,0,0:0:0:0:
192,32,54209,1,8,0:0:0:0:
192,32,54396,1,8,0:0:0:0:
192,32,54584,1,4,0:0:0:0:
192,32,54771,1,8,0:0:0:0:
192,32,54959,1,4,0:0:0:0:
192,32,55146,1,8,0:0:0:0:
192,32,55334,1,0,0:0:0:0:
192,32,55427,1,0,0:0:0:0:
192,32,55521,1,0,0:0:0:0:
192,32,55615,1,0,0:0:0:0:
192,32,55709,1,8,0:0:0:0:
192,32,55802,1,8,0:0:0:0:
192,32,55896,1,8,0:0:0:0:
192,32,55990,1,8,0:0:0:0:
192,32,56084,1,0,0:0:0:0:
192,32,56271,1,0,0:0:0:0:
192,32,56459,1,8,0:0:0:0:
192,32,56552,1,0,0:0:0:0:
192,32,56646,1,8,0:0:0:0:
192,32,56834,1,0,0:0:0:0:
192,32,57021,1,0,0:0:0:0:
192,32,57209,1,8,0:0:0:0:
192,32,57302,1,8,0:0:0:0:
192,32,57396,1,8,0:0:0:0:
192,32,57490,1,0,0:0:0:0:
192,32,57584,1,8,0:0:0:0:
192,32,57771,1,8,0:0:0:0:
192,32,57865,1,8,0:0:0:0:
192,32,57959,1,0,0:0:0:0:
192,32,58146,1,8,0:0:0:0:
192,32,58334,1,0,0:0:0:0:
192,32,58709,1,8,0:0:0:0:
192,32,58802,1,0,0:0:0:0:
192,32,58896,1,8,0:0:0:0:
192,32,58990,1,8,0:0:0:0:
192,32,59084,1,0,0:0:0:0:
192,32,59271,1,0,0:0:0:0:
192,32,59459,1,8,0:0:0:0:
192,32,59646,1,0,0:0:0:0:
192,32,59834,1,0,0:0:0:0:
192,32,59927,1,0,0:0:0:0:
192,32,60021,1,8,0:0:0:0:
192,32,60115,1,0,0:0:0:0:
192,32,60209,1,8,0:0:0:0:
192,32,60396,1,0,0:0:0:0:
192,32,60584,1,12,0:0:0:0:
192,32,60771,1,12,0:0:0:0:
192,32,60959,1,4,0:0:0:0:
192,32,61146,1,4,0:0:0:0:
192,32,61334,1,12,0:0:0:0:
192,32,61521,1,0,0:0:0:0:
192,32,61615,1,0,0:0:0:0:
192,32,61709,1,8,0:0:0:0:
192,32,61802,1,8,0:0:0:0:
192,32,61896,1,8,0:0:0:0:
192,32,61990,1,8,0:0:0:0:
192,32,62084,1,0,0:0:0:0:
192,32,62271,1,0,0:0:0:0:
160,0,62459,1,8,0:0:0:0:
192,32,62552,1,8,0:0:0:0:
192,32,62646,1,8,0:0:0:0:
192,32,62834,1,0,0:0:0:0:
192,32,62927,1,0,0:0:0:0:
192,32,63021,1,0,0:0:0:0:
192,32,63115,1,0,0:0:0:0:
192,32,63209,1,8,0:0:0:0:
192,32,63396,1,8,0:0:0:0:
192,32,63584,1,0,0:0:0:0:
192,32,63771,1,0,0:0:0:0:
192,32,63959,1,8,0:0:0:0:
192,32,64052,1,8,0:0:0:0:
192,32,64146,1,8,0:0:0:0:
192,32,64240,1,8,0:0:0:0:
192,32,64334,1,0,0:0:0:0:
192,32,64521,1,8,0:0:0:0:
192,32,64615,1,8,0:0:0:0:
192,32,64709,1,0,0:0:0:0:
192,32,64802,1,8,0:0:0:0:
192,32,64896,1,0,0:0:0:0:
192,32,64990,1,0,0:0:0:0:
192,32,65084,1,8,0:0:0:0:
192,32,65271,1,0,0:0:0:0:
192,32,65365,1,0,0:0:0:0:
192,32,65459,1,8,0:0:0:0:
192,32,65646,1,0,0:0:0:0:
192,32,65834,1,0,0:0:0:0:
192,32,65927,1,8,0:0:0:0:
192,32,66021,1,0,0:0:0:0:
192,32,66115,1,0,0:0:0:0:
192,32,66209,1,8,0:0:0:0:
192,32,66396,1,8,0:0:0:0:
192,32,66584,1,4,0:0:0:0:
192,32,66771,1,8,0:0:0:0:
192,32,66959,1,4,0:0:0:0:
192,32,67146,1,8,0:0:0:0:
192,32,67334,1,0,0:0:0:0:
192,32,67427,1,0,0:0:0:0:
192,32,67521,1,8,0:0:0:0:
192,32,67615,1,0,0:0:0:0:
192,32,67709,1,8,0:0:0:0:
192,32,67802,1,8,0:0:0:0:
192,32,67896,1,8,0:0:0:0:
192,32,67990,1,8,0:0:0:0:
192,32,68084,1,0,0:0:0:0:
192,32,68271,1,0,0:0:0:0:
192,32,68459,1,8,0:0:0:0:
192,32,68552,1,8,0:0:0:0:
192,32,68646,1,8,0:0:0:0:
192,32,68834,1,0,0:0:0:0:
192,32,68927,1,0,0:0:0:0:
192,32,69021,1,0,0:0:0:0:
192,32,69115,1,0,0:0:0:0:
192,32,69209,1,8,0:0:0:0:
192,32,69396,1,0,0:0:0:0:
192,0,69490,1,8,0:0:0:0:
192,32,69584,1,8,0:0:0:0:
192,32,69771,1,0,0:0:0:0:
192,32,69959,1,8,0:0:0:0:
192,32,70052,1,8,0:0:0:0:
192,32,70146,1,8,0:0:0:0:
192,32,70240,1,8,0:0:0:0:
192,32,70334,1,0,0:0:0:0:
192,32,70521,1,0,0:0:0:0:
192,32,70709,1,8,0:0:0:0:
192,32,70802,1,8,0:0:0:0:
192,32,70896,1,0,0:0:0:0:
192,32,70990,1,0,0:0:0:0:
192,32,71084,1,8,0:0:0:0:
128,64,71271,1,8,0:0:0:0:
128,64,71365,1,0,0:0:0:0:
128,64,71459,1,8,0:0:0:0:
160,32,71552,1,8,0:0:0:0:
192,32,71646,1,0,0:0:0:0:
192,32,71834,1,0,0:0:0:0:
192,32,71927,1,8,0:0:0:0:
192,32,72021,1,0,0:0:0:0:
192,32,72115,1,0,0:0:0:0:
192,32,72209,1,8,0:0:0:0:
192,32,72396,1,0,0:0:0:0:
192,32,72584,1,8,0:0:0:0:
192,32,72677,1,0,0:0:0:0:
192,32,72771,1,0,0:0:0:0:
192,32,72865,1,0,0:0:0:0:
192,32,72959,1,8,0:0:0:0:
192,64,73052,1,8,0:0:0:0:
192,32,73146,1,0,0:0:0:0:
192,32,73240,1,0,0:0:0:0:
192,64,73334,1,8,0:0:0:0:
192,64,73521,1,0,0:0:0:0:
192,64,73709,1,8,0:0:0:0:
