osu file format v14

[General]
AudioFilename: senya+-+Cinderella+Avatar.mp3
AudioLeadIn: 0
PreviewTime: 54922
Countdown: 0
SampleSet: Normal
StackLeniency: 0.7
Mode: 1
LetterboxInBreaks: 0
WidescreenStoryboard: 1

[Editor]
Bookmarks: 28853
DistanceSpacing: 0.1
BeatDivisor: 4
GridSize: 32
TimelineZoom: 2.199999

[Metadata]
Title:Cinderella Avatar
TitleUnicode:シンデレラアバター
Artist:senya
ArtistUnicode:senya
Creator:Envory
Version:yzrin's Muzukashii
Source:東方風神録 ~ Mountain of Faith.
Tags:yuuhei satellite th10 mountain of faith native moriya suwako iceon kamase-tora 幽閉サテライト ネイティブフェイス 東方風神録 Verniy_Chan FAMoss yuzu__rinrin [R] atian540 - Ly0572 - Syadow-
BeatmapID:1445418
BeatmapSetID:665542

[Difficulty]
HPDrainRate:7
CircleSize:2
OverallDifficulty:4
ApproachRate:10
SliderMultiplier:1.4
SliderTickRate:1

[Events]
//Background and Video events
0,0,"696623.jpg",0,0
//Break Periods
//Storyboard Layer 0 (Background)
//Storyboard Layer 1 (Fail)
//Storyboard Layer 2 (Pass)
//Storyboard Layer 3 (Foreground)
//Storyboard Layer 4 (Overlay)
//Storyboard Sound Samples

[TimingPoints]
716,413.793103448276,4,1,0,50,1,0
54922,-100,4,1,0,70,0,0
55129,-100,4,1,0,70,0,0
55233,-100,4,1,0,70,0,0
55336,-100,4,1,0,80,0,1
65060,-100,4,1,0,80,0,1
65164,-100,4,1,0,80,0,1
65267,-100,4,1,0,80,0,1
65474,-100,4,1,0,80,0,1
65578,-100,4,1,0,80,0,1
65681,-100,4,1,0,80,0,1
65888,-100,4,1,0,80,0,1
65991,-100,4,1,0,80,0,1
66095,-100,4,1,0,80,0,1
67750,-100,4,1,0,70,0,0
68578,-100,4,1,0,80,0,1
78302,-100,4,1,0,80,0,1
78405,-100,4,1,0,80,0,1
78509,-100,4,1,0,80,0,1
78716,-100,4,1,0,80,0,1
78819,-100,4,1,0,80,0,1
78922,-100,4,1,0,80,0,1
79129,-100,4,1,0,80,0,1
79233,-100,4,1,0,80,0,1
79336,-100,4,1,0,80,0,1
81819,-100,4,1,0,70,0,0
95060,-100,4,1,0,70,0,1
104784,-100,4,1,0,70,0,1
104888,-100,4,1,0,70,0,1
104991,-100,4,1,0,70,0,1
105198,-100,4,1,0,70,0,1
105302,-100,4,1,0,70,0,1
105405,-100,4,1,0,70,0,1
105612,-100,4,1,0,70,0,1
105716,-100,4,1,0,70,0,1
105819,-100,4,1,0,70,0,1
108302,-100,4,1,0,70,0,0
109957,416.666666666667,4,1,0,40,1,0
109957,-100,4,1,0,70,0,0
114123,461.538461538462,4,1,0,30,1,0
114123,-117.647058823529,4,1,0,30,0,0
115046,480,4,1,0,20,1,0
115046,-125,4,1,0,20,0,0
115526,517.241379310345,4,1,0,10,1,0
115526,-135.135135135135,4,1,0,10,0,0
115784,600,4,1,0,10,1,0
115784,-133.333333333333,4,1,0,10,0,0

[HitObjects]
256,192,716,12,0,2164,0:0:0:0:
256,192,2371,5,4,0:0:0:0:
256,192,2784,1,0,0:0:0:0:
256,192,2991,1,0,0:0:0:0:
256,192,3198,1,8,0:0:0:0:
256,192,3612,1,8,0:0:0:0:
256,192,3819,1,8,0:0:0:0:
256,192,4026,1,0,0:0:0:0:
256,192,4336,1,8,0:0:0:0:
256,192,4440,1,8,0:0:0:0:
256,192,4647,1,0,0:0:0:0:
256,192,4853,1,8,0:0:0:0:
256,192,5267,1,0,0:0:0:0:
256,192,5474,1,8,0:0:0:0:
256,192,5681,1,0,0:0:0:0:
256,192,6095,1,0,0:0:0:0:
256,192,6302,1,0,0:0:0:0:
256,192,6509,1,8,0:0:0:0:
256,192,6819,1,8,0:0:0:0:
256,192,6922,1,8,0:0:0:0:
256,192,7129,1,8,0:0:0:0:
256,192,7336,1,0,0:0:0:0:
256,192,8164,1,8,0:0:0:0:
256,192,8474,1,0,0:0:0:0:
256,192,8578,1,0,0:0:0:0:
256,192,8784,1,8,0:0:0:0:
256,192,8991,1,4,0:0:0:0:
256,192,9405,1,0,0:0:0:0:
256,192,9612,1,0,0:0:0:0:
256,192,9819,1,8,0:0:0:0:
256,192,10129,1,0,0:0:0:0:
256,192,10233,1,0,0:0:0:0:
256,192,10440,1,8,0:0:0:0:
256,192,10647,1,0,0:0:0:0:
256,192,10957,1,8,0:0:0:0:
256,192,11060,1,8,0:0:0:0:
256,192,11267,1,8,0:0:0:0:
256,192,11474,1,0,0:0:0:0:
256,192,11784,1,0,0:0:0:0:
256,192,11888,1,0,0:0:0:0:
256,192,12095,1,8,0:0:0:0:
256,192,12302,1,4,0:0:0:0:
256,192,12716,1,8,0:0:0:0:
256,192,13129,1,4,0:0:0:0:
256,192,13440,1,8,0:0:0:0:
256,192,13750,1,8,0:0:0:0:
256,192,13957,1,4,0:0:0:0:
256,192,14371,1,8,0:0:0:0:
256,192,14784,1,0,0:0:0:0:
256,192,14991,1,8,0:0:0:0:
256,192,15198,1,8,0:0:0:0:
256,192,15302,1,8,0:0:0:0:
256,192,15405,1,8,0:0:0:0:
256,192,15612,1,4,0:0:0:0:
256,192,16026,1,8,0:0:0:0:
256,192,16233,1,0,0:0:0:0:
256,192,16336,1,0,0:0:0:0:
256,192,16440,1,0,0:0:0:0:
256,192,16750,1,8,0:0:0:0:
256,192,17060,1,8,0:0:0:0:
256,192,17267,1,0,0:0:0:0:
256,192,17681,1,0,0:0:0:0:
256,192,17888,1,8,0:0:0:0:
256,192,18095,1,0,0:0:0:0:
256,192,18405,1,8,0:0:0:0:
256,192,18716,1,8,0:0:0:0:
256,192,18922,1,0,0:0:0:0:
256,192,19233,1,8,0:0:0:0:
256,192,19336,1,8,0:0:0:0:
256,192,19543,1,8,0:0:0:0:
256,192,19750,1,0,0:0:0:0:
256,192,20164,1,0,0:0:0:0:
256,192,20371,1,8,0:0:0:0:
256,192,20578,1,0,0:0:0:0:
256,192,20888,1,8,0:0:0:0:
256,192,20991,1,8,0:0:0:0:
256,192,21198,1,8,0:0:0:0:
256,192,21405,1,0,0:0:0:0:
256,192,21819,1,8,0:0:0:0:
256,192,21922,1,8,0:0:0:0:
256,192,22026,1,8,0:0:0:0:
256,192,22233,1,4,0:0:0:0:
256,192,22647,1,8,0:0:0:0:
256,192,22854,1,0,0:0:0:0:
256,192,22957,1,0,0:0:0:0:
256,192,23061,1,0,0:0:0:0:
256,192,23371,1,8,0:0:0:0:
256,192,23681,1,8,0:0:0:0:
256,192,23888,1,0,0:0:0:0:
256,192,24302,1,0,0:0:0:0:
256,192,24509,1,8,0:0:0:0:
256,192,24716,1,0,0:0:0:0:
256,192,25129,1,8,0:0:0:0:
256,192,25337,1,8,0:0:0:0:
256,192,25543,1,0,0:0:0:0:
256,192,25854,1,8,0:0:0:0:
256,192,25957,1,8,0:0:0:0:
256,192,26164,1,8,0:0:0:0:
256,192,26371,1,0,0:0:0:0:
256,192,26785,1,0,0:0:0:0:
256,192,26992,1,8,0:0:0:0:
256,192,27198,1,4,0:0:0:0:
256,192,27405,1,4,0:0:0:0:
256,192,27612,1,8,0:0:0:0:
256,192,27716,1,8,0:0:0:0:
256,192,27922,1,4,0:0:0:0:
256,192,28233,1,0,0:0:0:0:
256,192,28440,1,8,0:0:0:0:
256,192,28543,1,8,0:0:0:0:
256,192,28647,1,8,0:0:0:0:
256,192,28853,1,4,0:0:0:0:
256,192,29267,1,0,0:0:0:0:
256,192,29474,1,0,0:0:0:0:
256,192,29681,1,8,0:0:0:0:
256,192,30095,1,8,0:0:0:0:
256,192,30509,1,0,0:0:0:0:
256,192,30922,1,8,0:0:0:0:
256,192,31129,1,8,0:0:0:0:
256,192,31336,1,0,0:0:0:0:
256,192,31647,1,8,0:0:0:0:
256,192,31750,1,8,0:0:0:0:
256,192,31957,1,8,0:0:0:0:
256,192,32164,1,0,0:0:0:0:
256,192,32578,1,0,0:0:0:0:
256,192,32784,1,8,0:0:0:0:
256,192,32991,1,0,0:0:0:0:
256,192,33302,1,0,0:0:0:0:
256,192,33405,1,0,0:0:0:0:
256,192,33612,1,8,0:0:0:0:
256,192,33819,1,0,0:0:0:0:
256,192,34440,1,0,0:0:0:0:
256,192,34647,1,8,0:0:0:0:
256,192,35060,1,0,0:0:0:0:
256,192,35267,1,0,0:0:0:0:
256,192,35474,1,12,0:0:0:0:
256,192,35888,1,8,0:0:0:0:
256,192,36095,1,8,0:0:0:0:
256,192,36302,1,0,0:0:0:0:
256,192,36716,1,8,0:0:0:0:
256,192,37129,1,0,0:0:0:0:
256,192,37543,1,0,0:0:0:0:
256,192,37750,1,0,0:0:0:0:
256,192,37957,1,8,0:0:0:0:
256,192,38267,1,8,0:0:0:0:
256,192,38371,1,8,0:0:0:0:
256,192,38578,1,0,0:0:0:0:
256,192,38784,1,8,0:0:0:0:
256,192,39198,1,0,0:0:0:0:
256,192,39612,1,8,0:0:0:0:
256,192,39922,1,0,0:0:0:0:
256,192,40026,1,0,0:0:0:0:
256,192,40233,1,0,0:0:0:0:
256,192,40440,1,12,0:0:0:0:
256,192,40853,1,0,0:0:0:0:
256,192,41267,1,12,0:0:0:0:
256,192,41578,1,12,0:0:0:0:
256,192,41888,1,12,0:0:0:0:
256,192,42095,1,4,0:0:0:0:
256,192,42509,1,0,0:0:0:0:
256,192,42716,1,0,0:0:0:0:
256,192,42923,1,8,0:0:0:0:
256,192,43337,1,8,0:0:0:0:
256,192,43751,1,0,0:0:0:0:
256,192,44164,1,8,0:0:0:0:
256,192,44371,1,8,0:0:0:0:
256,192,44578,1,0,0:0:0:0:
256,192,44889,1,8,0:0:0:0:
256,192,44992,1,8,0:0:0:0:
256,192,45199,1,8,0:0:0:0:
256,192,45406,1,0,0:0:0:0:
256,192,45820,1,0,0:0:0:0:
256,192,46026,1,8,0:0:0:0:
256,192,46233,1,0,0:0:0:0:
256,192,46544,1,0,0:0:0:0:
256,192,46647,1,0,0:0:0:0:
256,192,46854,1,8,0:0:0:0:
256,192,47061,1,4,0:0:0:0:
256,192,47474,1,8,0:0:0:0:
256,192,48302,1,12,0:0:0:0:
256,192,48716,1,4,0:0:0:0:
256,192,49130,1,8,0:0:0:0:
256,192,49337,1,8,0:0:0:0:
256,192,49544,1,0,0:0:0:0:
256,192,49958,1,8,0:0:0:0:
256,192,50371,1,0,0:0:0:0:
256,192,50785,1,0,0:0:0:0:
256,192,50992,1,0,0:0:0:0:
256,192,51199,1,8,0:0:0:0:
256,192,51509,1,8,0:0:0:0:
256,192,51613,1,8,0:0:0:0:
256,192,51820,1,0,0:0:0:0:
256,192,52026,1,12,0:0:0:0:
256,192,52440,1,0,0:0:0:0:
256,192,52854,1,12,0:0:0:0:
256,192,53268,1,0,0:0:0:0:
256,192,53475,1,0,0:0:0:0:
256,192,53682,1,12,0:0:0:0:
256,192,53888,1,8,0:0:0:0:
256,192,54095,1,0,0:0:0:0:
256,192,54302,1,0,0:0:0:0:
256,192,54509,1,12,0:0:0:0:
256,192,54612,1,8,0:0:0:0:
256,192,54716,1,8,0:0:0:0:
256,192,54922,1,8,0:0:0:0:
256,192,55337,1,4,0:0:0:0:
256,192,55750,1,0,0:0:0:0:
256,192,55957,1,0,0:0:0:0:
256,192,56164,1,8,0:0:0:0:
256,192,56578,1,8,0:0:0:0:
256,192,56784,1,8,0:0:0:0:
256,192,56991,1,0,0:0:0:0:
256,192,57302,1,0,0:0:0:0:
256,192,57405,1,0,0:0:0:0:
256,192,57612,1,8,0:0:0:0:
256,192,57819,1,0,0:0:0:0:
256,192,58233,1,0,0:0:0:0:
256,192,58440,1,0,0:0:0:0:
256,192,58647,1,8,0:0:0:0:
256,192,59060,1,8,0:0:0:0:
256,192,59267,1,0,0:0:0:0:
256,192,59474,1,8,0:0:0:0:
256,192,59578,1,8,0:0:0:0:
256,192,59784,1,0,0:0:0:0:
256,192,59888,1,0,0:0:0:0:
256,192,60095,1,0,0:0:0:0:
256,192,60302,1,8,0:0:0:0:
256,192,61129,1,8,0:0:0:0:
256,192,61543,1,0,0:0:0:0:
256,192,61750,1,0,0:0:0:0:
256,192,61957,1,12,0:0:0:0:
256,192,62371,1,8,0:0:0:0:
256,192,62578,1,8,0:0:0:0:
256,192,62784,1,0,0:0:0:0:
256,192,63095,1,8,0:0:0:0:
256,192,63198,1,8,0:0:0:0:
256,192,63405,1,8,0:0:0:0:
256,192,63612,1,0,0:0:0:0:
256,192,63922,1,0,0:0:0:0:
256,192,64026,1,0,0:0:0:0:
256,192,64233,1,0,0:0:0:0:
256,192,64440,1,8,0:0:0:0:
256,192,64853,1,8,0:0:0:0:
256,192,65060,1,8,0:0:0:0:
256,192,65267,1,4,0:0:0:0:
256,192,65681,1,8,0:0:0:0:
256,192,66095,1,4,0:0:0:0:
256,192,66405,1,8,0:0:0:0:
256,192,66716,1,8,0:0:0:0:
256,192,66922,1,4,0:0:0:0:
256,192,67336,1,0,0:0:0:0:
256,192,67543,1,8,0:0:0:0:
256,192,67750,1,0,0:0:0:0:
256,192,67853,1,0,0:0:0:0:
256,192,67957,1,0,0:0:0:0:
256,192,68164,1,8,0:0:0:0:
256,192,68578,1,4,0:0:0:0:
256,192,68991,1,0,0:0:0:0:
256,192,69198,1,0,0:0:0:0:
256,192,69405,1,8,0:0:0:0:
256,192,69819,1,8,0:0:0:0:
256,192,70025,1,8,0:0:0:0:
256,192,70232,1,0,0:0:0:0:
256,192,70543,1,0,0:0:0:0:
256,192,70646,1,0,0:0:0:0:
256,192,70853,1,8,0:0:0:0:
256,192,71060,1,0,0:0:0:0:
256,192,71474,1,0,0:0:0:0:
256,192,71681,1,0,0:0:0:0:
256,192,71888,1,8,0:0:0:0:
256,192,72301,1,8,0:0:0:0:
256,192,72508,1,0,0:0:0:0:
256,192,72715,1,8,0:0:0:0:
256,192,72819,1,8,0:0:0:0:
256,192,73025,1,0,0:0:0:0:
256,192,73129,1,0,0:0:0:0:
256,192,73336,1,0,0:0:0:0:
256,192,73543,1,8,0:0:0:0:
256,192,74370,1,8,0:0:0:0:
256,192,74784,1,0,0:0:0:0:
256,192,74991,1,0,0:0:0:0:
256,192,75198,1,12,0:0:0:0:
256,192,75612,1,8,0:0:0:0:
256,192,75819,1,8,0:0:0:0:
256,192,76025,1,0,0:0:0:0:
256,192,76336,1,8,0:0:0:0:
256,192,76439,1,8,0:0:0:0:
256,192,76646,1,8,0:0:0:0:
256,192,76853,1,0,0:0:0:0:
256,192,77163,1,0,0:0:0:0:
256,192,77267,1,0,0:0:0:0:
256,192,77474,1,0,0:0:0:0:
256,192,77681,1,8,0:0:0:0:
256,192,78094,1,8,0:0:0:0:
256,192,78301,1,8,0:0:0:0:
256,192,78508,1,4,0:0:0:0:
256,192,78922,1,8,0:0:0:0:
256,192,79336,1,4,0:0:0:0:
256,192,79646,1,8,0:0:0:0:
256,192,79957,1,8,0:0:0:0:
256,192,80163,1,4,0:0:0:0:
256,192,80577,1,0,0:0:0:0:
256,192,80784,1,8,0:0:0:0:
256,192,80991,1,0,0:0:0:0:
256,192,81095,1,0,0:0:0:0:
256,192,81198,1,0,0:0:0:0:
256,192,81405,1,8,0:0:0:0:
256,192,81509,1,8,0:0:0:0:
256,192,81612,1,8,0:0:0:0:
256,192,81819,1,4,0:0:0:0:
256,192,82233,1,0,0:0:0:0:
256,192,82440,1,0,0:0:0:0:
256,192,82647,1,8,0:0:0:0:
256,192,82750,1,8,0:0:0:0:
256,192,82957,1,8,0:0:0:0:
256,192,83060,1,8,0:0:0:0:
256,192,83267,1,8,0:0:0:0:
256,192,83474,1,0,0:0:0:0:
256,192,83888,1,0,0:0:0:0:
256,192,84095,1,8,0:0:0:0:
256,192,84302,1,0,0:0:0:0:
256,192,84405,1,0,0:0:0:0:
256,192,84612,1,0,0:0:0:0:
256,192,84716,1,0,0:0:0:0:
256,192,84922,1,8,0:0:0:0:
256,192,85129,1,0,0:0:0:0:
256,192,85543,1,0,0:0:0:0:
256,192,85957,1,8,0:0:0:0:
256,192,86164,1,0,0:0:0:0:
256,192,86371,1,8,0:0:0:0:
256,192,86474,1,8,0:0:0:0:
256,192,86578,1,8,0:0:0:0:
256,192,86784,1,0,0:0:0:0:
256,192,87198,1,8,0:0:0:0:
256,192,87612,1,8,0:0:0:0:
256,192,87819,1,0,0:0:0:0:
256,192,88026,1,8,0:0:0:0:
256,192,88129,1,8,0:0:0:0:
256,192,88233,1,8,0:0:0:0:
256,192,88440,1,4,0:0:0:0:
256,192,88853,1,8,0:0:0:0:
256,192,89060,1,8,0:0:0:0:
256,192,89266,1,0,0:0:0:0:
256,192,89577,1,8,0:0:0:0:
256,192,89680,1,8,0:0:0:0:
256,192,89887,1,8,0:0:0:0:
256,192,90094,1,0,0:0:0:0:
256,192,90404,1,0,0:0:0:0:
256,192,90508,1,0,0:0:0:0:
256,192,90715,1,0,0:0:0:0:
256,192,90922,1,8,0:0:0:0:
256,192,91335,1,8,0:0:0:0:
256,192,91542,1,8,0:0:0:0:
256,192,91749,1,4,0:0:0:0:
256,192,92163,1,8,0:0:0:0:
256,192,92577,1,4,0:0:0:0:
256,192,92887,1,8,0:0:0:0:
256,192,93198,1,8,0:0:0:0:
256,192,93404,1,4,0:0:0:0:
256,192,93818,1,0,0:0:0:0:
256,192,94025,1,8,0:0:0:0:
256,192,94232,1,0,0:0:0:0:
256,192,94335,1,0,0:0:0:0:
256,192,94439,1,0,0:0:0:0:
256,192,94646,1,8,0:0:0:0:
256,192,95060,1,4,0:0:0:0:
256,192,95473,1,0,0:0:0:0:
256,192,95680,1,0,0:0:0:0:
256,192,95887,1,8,0:0:0:0:
256,192,96301,1,8,0:0:0:0:
256,192,96509,1,8,0:0:0:0:
256,192,96716,1,0,0:0:0:0:
256,192,97025,1,0,0:0:0:0:
256,192,97128,1,0,0:0:0:0:
256,192,97335,1,8,0:0:0:0:
256,192,97542,1,0,0:0:0:0:
256,192,97957,1,8,0:0:0:0:
256,192,98164,1,8,0:0:0:0:
256,192,98371,1,0,0:0:0:0:
256,192,98785,1,0,0:0:0:0:
256,192,98992,1,8,0:0:0:0:
256,192,99199,1,8,0:0:0:0:
256,192,99406,1,0,0:0:0:0:
256,192,99613,1,8,0:0:0:0:
256,192,99716,1,8,0:0:0:0:
256,192,99820,1,8,0:0:0:0:
256,192,100026,1,0,0:0:0:0:
256,192,100440,1,8,0:0:0:0:
256,192,100647,1,0,0:0:0:0:
256,192,100854,1,8,0:0:0:0:
256,192,101061,1,0,0:0:0:0:
256,192,101268,1,8,0:0:0:0:
256,192,101371,1,8,0:0:0:0:
256,192,101475,1,8,0:0:0:0:
256,192,101681,1,4,0:0:0:0:
256,192,102095,1,8,0:0:0:0:
256,192,102302,1,8,0:0:0:0:
256,192,102508,1,0,0:0:0:0:
256,192,102819,1,8,0:0:0:0:
256,192,102922,1,8,0:0:0:0:
256,192,103129,1,8,0:0:0:0:
256,192,103336,1,0,0:0:0:0:
256,192,103646,1,0,0:0:0:0:
256,192,103750,1,0,0:0:0:0:
256,192,103957,1,0,0:0:0:0:
256,192,104164,1,8,0:0:0:0:
256,192,104577,1,8,0:0:0:0:
256,192,104784,1,8,0:0:0:0:
256,192,104991,1,4,0:0:0:0:
256,192,105405,1,8,0:0:0:0:
256,192,105819,1,4,0:0:0:0:
256,192,106129,1,8,0:0:0:0:
256,192,106440,1,8,0:0:0:0:
256,192,106646,1,4,0:0:0:0:
256,192,107060,1,0,0:0:0:0:
256,192,107267,1,8,0:0:0:0:
256,192,107474,1,0,0:0:0:0:
256,192,107577,1,0,0:0:0:0:
256,192,107681,1,0,0:0:0:0:
256,192,107888,1,8,0:0:0:0:
256,192,107991,1,8,0:0:0:0:
256,192,108095,1,8,0:0:0:0:
256,192,108302,1,12,0:0:0:0:
256,192,109957,1,0,0:0:0:0:
256,192,110790,1,8,0:0:0:0:
256,192,111623,1,0,0:0:0:0:
256,192,112040,1,0,0:0:0:0:
256,192,112457,1,8,0:0:0:0:
256,192,112873,1,8,0:0:0:0:
256,192,113290,1,0,0:0:0:0:
256,192,114123,1,8,0:0:0:0:
256,192,115046,12,8,116084,0:0:0:0:
