osu file format v14

[General]
AudioFilename: senya+-+Cinderella+Avatar.mp3
AudioLeadIn: 0
PreviewTime: 54922
Countdown: 0
SampleSet: Soft
StackLeniency: 0.7
Mode: 1
LetterboxInBreaks: 0
WidescreenStoryboard: 0

[Editor]
Bookmarks: 28853
DistanceSpacing: 0.5
BeatDivisor: 4
GridSize: 32
TimelineZoom: 2.199999

[Metadata]
Title:Cinderella Avatar
TitleUnicode:シンデレラアバター
Artist:senya
ArtistUnicode:senya
Creator:Envory
Version:yzrin's Inner Oni
Source:東方風神録 ~ Mountain of Faith.
Tags:yuuhei satellite th10 mountain of faith native moriya suwako iceon kamase-tora 幽閉サテライト ネイティブフェイス 東方風神録 Verniy_Chan FAMoss yuzu__rinrin [R] atian540 - Ly0572 - Syadow-
BeatmapID:1417540
BeatmapSetID:665542

[Difficulty]
HPDrainRate:6
CircleSize:2
OverallDifficulty:6
ApproachRate:10
SliderMultiplier:1.4
SliderTickRate:1

[Events]
//Background and Video events
0,0,"696623.jpg",0,0
//Break Periods
//Storyboard Layer 0 (Background)
//Storyboard Layer 1 (Fail)
//Storyboard Layer 2 (Pass)
//Storyboard Layer 3 (Foreground)
//Storyboard Layer 4 (Overlay)
//Storyboard Sound Samples

[TimingPoints]
716,413.793103448276,4,2,1,50,1,0
54922,-100,4,1,0,70,0,0
55129,-100,4,1,0,70,0,0
55233,-100,4,1,0,70,0,0
55336,-100,4,1,0,80,0,1
65060,-100,4,1,0,80,0,1
65164,-100,4,1,0,80,0,1
65267,-100,4,1,0,80,0,1
65474,-100,4,1,0,80,0,1
65578,-100,4,1,0,80,0,1
65681,-100,4,1,0,80,0,1
65888,-100,4,1,0,80,0,1
65991,-100,4,1,0,80,0,1
66095,-100,4,1,0,80,0,1
67750,-100,4,1,0,70,0,0
68578,-100,4,1,0,80,0,1
78302,-100,4,1,0,80,0,1
78405,-100,4,1,0,80,0,1
78509,-100,4,1,0,80,0,1
78716,-100,4,1,0,80,0,1
78819,-100,4,1,0,80,0,1
78922,-100,4,1,0,80,0,1
79129,-100,4,1,0,80,0,1
79233,-100,4,1,0,80,0,1
79336,-100,4,1,0,80,0,1
81819,-100,4,1,0,70,0,0
95060,-100,4,1,0,70,0,1
104784,-100,4,1,0,70,0,1
104888,-100,4,1,0,70,0,1
104991,-100,4,1,0,70,0,1
105198,-100,4,1,0,70,0,1
105302,-100,4,1,0,70,0,1
105405,-100,4,1,0,70,0,1
105612,-100,4,1,0,70,0,1
105716,-100,4,1,0,70,0,1
105819,-100,4,1,0,70,0,1
108302,-100,4,1,0,70,0,0
109957,416.666666666667,4,2,1,40,1,0
109957,-100,4,1,0,70,0,0
113707,-111.111111111111,4,1,0,70,0,0
114123,461.538461538462,4,1,0,30,1,0
114123,-117.647058823529,4,1,0,30,0,0
115046,480,4,1,0,20,1,0
115046,-125,4,1,0,20,0,0
115526,517.241379310345,4,1,0,10,1,0
115526,-135.135135135135,4,1,0,10,0,0
115784,600,4,1,0,10,1,0
115784,-133.333333333333,4,1,0,10,0,0

[HitObjects]
256,192,819,12,0,2267,0:0:0:0:
256,192,2371,5,4,0:0:0:0:
256,192,2578,1,0,0:0:0:0:
256,192,2681,1,0,0:0:0:0:
256,192,2784,1,8,0:0:0:0:
256,192,2991,1,0,0:0:0:0:
256,192,3198,1,8,0:0:0:0:
256,192,3302,1,0,0:0:0:0:
256,192,3405,1,0,0:0:0:0:
256,192,3509,1,8,0:0:0:0:
256,192,3612,1,0,0:0:0:0:
256,192,3819,1,8,0:0:0:0:
256,192,4026,1,0,0:0:0:0:
256,192,4336,1,8,0:0:0:0:
256,192,4440,1,0,0:0:0:0:
256,192,4647,1,8,0:0:0:0:
256,192,4853,1,0,0:0:0:0:
256,192,5060,1,8,0:0:0:0:
256,192,5164,1,0,0:0:0:0:
256,192,5267,1,8,0:0:0:0:
256,192,5371,1,8,0:0:0:0:
256,192,5474,1,0,0:0:0:0:
256,192,5578,1,0,0:0:0:0:
256,192,5681,1,8,0:0:0:0:
256,192,5888,1,0,0:0:0:0:
256,192,5991,1,8,0:0:0:0:
256,192,6095,1,0,0:0:0:0:
256,192,6302,1,8,0:0:0:0:
256,192,6509,1,0,0:0:0:0:
256,192,6612,1,0,0:0:0:0:
256,192,6819,1,8,0:0:0:0:
256,192,6922,1,0,0:0:0:0:
256,192,7129,1,0,0:0:0:0:
256,192,7336,1,8,0:0:0:0:
256,192,7543,1,0,0:0:0:0:
256,192,7647,1,8,0:0:0:0:
256,192,7750,1,0,0:0:0:0:
256,192,7853,1,0,0:0:0:0:
256,192,7957,1,8,0:0:0:0:
256,192,8164,1,0,0:0:0:0:
256,192,8267,1,8,0:0:0:0:
256,192,8474,1,8,0:0:0:0:
256,192,8578,1,0,0:0:0:0:
256,192,8681,1,0,0:0:0:0:
256,192,8784,1,8,0:0:0:0:
256,192,8991,1,4,0:0:0:0:
256,192,9198,1,0,0:0:0:0:
256,192,9302,1,0,0:0:0:0:
256,192,9405,1,8,0:0:0:0:
256,192,9612,1,0,0:0:0:0:
256,192,9716,1,0,0:0:0:0:
256,192,9819,1,8,0:0:0:0:
256,192,9922,1,0,0:0:0:0:
256,192,10129,1,0,0:0:0:0:
256,192,10233,1,8,0:0:0:0:
256,192,10336,1,8,0:0:0:0:
256,192,10440,1,0,0:0:0:0:
256,192,10543,1,8,0:0:0:0:
256,192,10647,1,0,0:0:0:0:
256,192,10853,1,8,0:0:0:0:
256,192,10956,1,8,0:0:0:0:
256,192,11060,1,0,0:0:0:0:
256,192,11267,1,0,0:0:0:0:
256,192,11474,1,8,0:0:0:0:
256,192,11784,1,8,0:0:0:0:
256,192,11888,1,0,0:0:0:0:
256,192,12095,1,0,0:0:0:0:
256,192,12302,1,12,0:0:0:0:
256,192,12509,1,0,0:0:0:0:
256,192,12612,1,0,0:0:0:0:
256,192,12716,1,8,0:0:0:0:
256,192,12922,1,0,0:0:0:0:
256,192,13129,1,12,0:0:0:0:
256,192,13440,1,8,0:0:0:0:
256,192,13543,1,0,0:0:0:0:
256,192,13750,1,0,0:0:0:0:
256,192,13957,1,12,0:0:0:0:
256,192,14164,1,0,0:0:0:0:
256,192,14267,1,0,0:0:0:0:
256,192,14371,1,8,0:0:0:0:
256,192,14474,1,0,0:0:0:0:
256,192,14578,1,8,0:0:0:0:
256,192,14681,1,8,0:0:0:0:
256,192,14784,1,0,0:0:0:0:
256,192,14888,1,8,0:0:0:0:
256,192,14991,1,8,0:0:0:0:
256,192,15095,1,0,0:0:0:0:
256,192,15198,1,8,0:0:0:0:
256,192,15302,1,8,0:0:0:0:
256,192,15405,1,0,0:0:0:0:
256,192,15612,1,12,0:0:0:0:
256,192,15819,1,0,0:0:0:0:
256,192,15922,1,0,0:0:0:0:
256,192,16026,1,8,0:0:0:0:
256,192,16129,1,0,0:0:0:0:
256,192,16233,1,8,0:0:0:0:
256,192,16336,1,8,0:0:0:0:
256,192,16440,1,0,0:0:0:0:
256,192,16750,1,8,0:0:0:0:
256,192,16853,1,0,0:0:0:0:
256,192,17060,1,8,0:0:0:0:
256,192,17267,1,0,0:0:0:0:
256,192,17371,1,8,0:0:0:0:
256,192,17474,1,0,0:0:0:0:
256,192,17681,1,8,0:0:0:0:
256,192,17784,1,0,0:0:0:0:
256,192,17888,1,8,0:0:0:0:
256,192,17991,1,8,0:0:0:0:
256,192,18095,1,0,0:0:0:0:
256,192,18198,1,8,0:0:0:0:
256,192,18405,1,8,0:0:0:0:
256,192,18509,1,0,0:0:0:0:
256,192,18716,1,8,0:0:0:0:
256,192,18922,1,0,0:0:0:0:
256,192,19026,1,0,0:0:0:0:
256,192,19129,1,8,0:0:0:0:
256,192,19233,1,0,0:0:0:0:
256,192,19440,1,0,0:0:0:0:
256,192,19543,1,8,0:0:0:0:
256,192,19750,1,8,0:0:0:0:
256,192,19853,1,0,0:0:0:0:
256,192,19957,1,8,0:0:0:0:
256,192,20060,1,8,0:0:0:0:
256,192,20164,1,0,0:0:0:0:
256,192,20267,1,8,0:0:0:0:
256,192,20371,1,8,0:0:0:0:
256,192,20578,1,8,0:0:0:0:
256,192,20682,1,8,0:0:0:0:
256,192,20785,1,0,0:0:0:0:
256,192,20888,1,8,0:0:0:0:
256,192,21095,1,0,0:0:0:0:
256,192,21198,1,8,0:0:0:0:
256,192,21405,1,0,0:0:0:0:
256,192,21509,1,0,0:0:0:0:
256,192,21612,1,8,0:0:0:0:
256,192,21716,1,0,0:0:0:0:
256,192,21819,1,0,0:0:0:0:
256,192,21922,1,8,0:0:0:0:
256,192,22026,1,0,0:0:0:0:
256,192,22233,1,12,0:0:0:0:
256,192,22543,1,8,0:0:0:0:
256,192,22647,1,0,0:0:0:0:
256,192,22853,1,8,0:0:0:0:
256,192,23060,1,0,0:0:0:0:
256,192,23164,1,0,0:0:0:0:
256,192,23267,1,8,0:0:0:0:
256,192,23371,1,0,0:0:0:0:
256,192,23474,1,0,0:0:0:0:
256,192,23578,1,8,0:0:0:0:
256,192,23681,1,8,0:0:0:0:
256,192,23888,1,8,0:0:0:0:
256,192,23991,1,8,0:0:0:0:
256,192,24095,1,0,0:0:0:0:
256,192,24198,1,8,0:0:0:0:
256,192,24405,1,8,0:0:0:0:
256,192,24509,1,8,0:0:0:0:
256,192,24612,1,8,0:0:0:0:
256,192,24716,1,0,0:0:0:0:
256,192,24922,1,0,0:0:0:0:
256,192,25026,1,8,0:0:0:0:
256,192,25233,1,8,0:0:0:0:
256,192,25336,1,8,0:0:0:0:
256,192,25440,1,0,0:0:0:0:
256,192,25543,1,0,0:0:0:0:
256,192,25750,1,0,0:0:0:0:
256,192,25853,1,0,0:0:0:0:
256,192,25957,1,8,0:0:0:0:
256,192,26060,1,0,0:0:0:0:
256,192,26164,1,8,0:0:0:0:
256,192,26267,1,8,0:0:0:0:
256,192,26371,1,0,0:0:0:0:
256,192,26578,1,0,0:0:0:0:
256,192,26681,1,8,0:0:0:0:
256,192,26784,1,0,0:0:0:0:
256,192,26888,1,8,0:0:0:0:
256,192,26991,1,8,0:0:0:0:
256,192,27198,1,4,0:0:0:0:
256,192,27405,1,4,0:0:0:0:
256,192,27612,1,8,0:0:0:0:
256,192,27716,1,0,0:0:0:0:
256,192,27922,1,12,0:0:0:0:
256,192,28129,1,0,0:0:0:0:
256,192,28233,1,8,0:0:0:0:
256,192,28336,1,0,0:0:0:0:
256,192,28440,1,8,0:0:0:0:
256,192,28543,1,8,0:0:0:0:
256,192,28647,1,0,0:0:0:0:
256,192,28853,1,4,0:0:0:0:
256,192,29164,1,8,0:0:0:0:
256,192,29267,1,0,0:0:0:0:
256,192,29474,1,0,0:0:0:0:
256,192,29681,1,8,0:0:0:0:
256,192,29888,1,0,0:0:0:0:
256,192,29991,1,0,0:0:0:0:
256,192,30095,1,8,0:0:0:0:
256,192,30302,1,0,0:0:0:0:
256,192,30509,1,8,0:0:0:0:
256,192,30819,1,8,0:0:0:0:
256,192,30922,1,0,0:0:0:0:
256,192,31129,1,0,0:0:0:0:
256,192,31336,1,8,0:0:0:0:
256,192,31647,1,8,0:0:0:0:
256,192,31750,1,8,0:0:0:0:
256,192,31957,1,0,0:0:0:0:
256,192,32164,1,0,0:0:0:0:
256,192,32474,1,0,0:0:0:0:
256,192,32578,1,8,0:0:0:0:
256,192,32784,1,0,0:0:0:0:
256,192,32991,1,8,0:0:0:0:
256,192,33198,1,0,0:0:0:0:
256,192,33302,1,8,0:0:0:0:
256,192,33405,1,0,0:0:0:0:
256,192,33612,1,0,0:0:0:0:
256,192,33819,1,8,0:0:0:0:
256,192,34233,1,8,0:0:0:0:
256,192,34440,1,0,0:0:0:0:
256,192,34647,1,8,0:0:0:0:
256,192,34957,1,8,0:0:0:0:
256,192,35060,1,8,0:0:0:0:
256,192,35164,1,8,0:0:0:0:
256,192,35267,1,0,0:0:0:0:
256,192,35474,1,4,0:0:0:0:
256,192,35784,1,8,0:0:0:0:
256,192,35888,1,0,0:0:0:0:
256,192,36095,1,8,0:0:0:0:
256,192,36302,1,0,0:0:0:0:
256,192,36405,1,0,0:0:0:0:
256,192,36509,1,0,0:0:0:0:
256,192,36716,1,8,0:0:0:0:
256,192,36922,1,0,0:0:0:0:
256,192,37026,1,0,0:0:0:0:
256,192,37129,1,8,0:0:0:0:
256,192,37440,1,8,0:0:0:0:
256,192,37543,1,0,0:0:0:0:
256,192,37750,1,8,0:0:0:0:
256,192,37957,1,0,0:0:0:0:
256,192,38060,1,8,0:0:0:0:
256,192,38267,1,8,0:0:0:0:
256,192,38371,1,8,0:0:0:0:
256,192,38474,1,8,0:0:0:0:
256,192,38578,1,0,0:0:0:0:
256,192,38784,1,8,0:0:0:0:
256,192,39095,1,0,0:0:0:0:
256,192,39198,1,8,0:0:0:0:
256,192,39405,1,0,0:0:0:0:
256,192,39612,1,8,0:0:0:0:
256,192,39716,1,0,0:0:0:0:
256,192,39922,1,8,0:0:0:0:
256,192,40026,1,0,0:0:0:0:
256,192,40233,1,0,0:0:0:0:
256,192,40440,1,12,0:0:0:0:
256,192,40647,1,0,0:0:0:0:
256,192,40750,1,0,0:0:0:0:
256,192,40853,1,8,0:0:0:0:
256,192,41060,1,0,0:0:0:0:
256,192,41267,1,12,0:0:0:0:
256,192,41578,1,12,0:0:0:0:
256,192,41784,1,8,0:0:0:0:
256,192,41888,1,8,0:0:0:0:
256,192,42095,1,4,0:0:0:0:
256,192,42405,1,8,0:0:0:0:
256,192,42509,1,0,0:0:0:0:
256,192,42716,1,0,0:0:0:0:
256,192,42922,1,8,0:0:0:0:
256,192,43129,1,0,0:0:0:0:
256,192,43233,1,0,0:0:0:0:
256,192,43336,1,8,0:0:0:0:
256,192,43543,1,8,0:0:0:0:
256,192,43750,1,0,0:0:0:0:
256,192,44060,1,0,0:0:0:0:
256,192,44164,1,0,0:0:0:0:
256,192,44371,1,8,0:0:0:0:
256,192,44578,1,0,0:0:0:0:
256,192,44784,1,8,0:0:0:0:
256,192,44888,1,0,0:0:0:0:
256,192,44991,1,8,0:0:0:0:
256,192,45095,1,8,0:0:0:0:
256,192,45198,1,0,0:0:0:0:
256,192,45405,1,8,0:0:0:0:
256,192,45716,1,8,0:0:0:0:
256,192,45819,1,0,0:0:0:0:
256,192,46026,1,0,0:0:0:0:
256,192,46233,1,8,0:0:0:0:
256,192,46440,1,0,0:0:0:0:
256,192,46543,1,8,0:0:0:0:
256,192,46647,1,0,0:0:0:0:
256,192,46853,1,8,0:0:0:0:
256,192,47060,1,4,0:0:0:0:
256,192,47474,1,8,0:0:0:0:
256,192,47681,1,0,0:0:0:0:
256,192,47784,1,0,0:0:0:0:
256,192,47888,1,8,0:0:0:0:
256,192,48095,1,0,0:0:0:0:
256,192,48302,1,12,0:0:0:0:
256,192,48716,1,4,0:0:0:0:
256,192,49026,1,8,0:0:0:0:
256,192,49129,1,0,0:0:0:0:
256,192,49336,1,8,0:0:0:0:
256,192,49543,1,0,0:0:0:0:
256,192,49647,1,0,0:0:0:0:
256,192,49750,1,0,0:0:0:0:
256,192,49957,1,8,0:0:0:0:
256,192,50164,1,0,0:0:0:0:
256,192,50371,1,8,0:0:0:0:
256,192,50474,1,0,0:0:0:0:
256,192,50681,1,0,0:0:0:0:
256,192,50784,1,8,0:0:0:0:
256,192,50888,1,8,0:0:0:0:
256,192,50991,1,0,0:0:0:0:
256,192,51198,1,8,0:0:0:0:
256,192,51509,1,8,0:0:0:0:
256,192,51612,1,0,0:0:0:0:
256,192,51819,1,8,0:0:0:0:
256,192,52026,1,0,0:0:0:0:
256,192,52129,1,0,0:0:0:0:
256,192,52233,1,8,0:0:0:0:
256,192,52336,1,0,0:0:0:0:
256,192,52440,1,8,0:0:0:0:
256,192,52543,1,8,0:0:0:0:
256,192,52647,1,0,0:0:0:0:
256,192,52750,1,8,0:0:0:0:
256,192,52853,1,0,0:0:0:0:
256,192,52957,1,0,0:0:0:0:
256,192,53060,1,8,0:0:0:0:
256,192,53164,1,0,0:0:0:0:
256,192,53267,1,8,0:0:0:0:
256,192,53371,1,0,0:0:0:0:
256,192,53474,1,0,0:0:0:0:
256,192,53578,1,8,0:0:0:0:
256,192,53681,1,0,0:0:0:0:
256,192,53784,1,8,0:0:0:0:
256,192,53888,1,8,0:0:0:0:
256,192,53991,1,8,0:0:0:0:
256,192,54095,1,0,0:0:0:0:
256,192,54198,1,8,0:0:0:0:
256,192,54302,1,8,0:0:0:0:
256,192,54405,1,8,0:0:0:0:
256,192,54509,1,0,0:0:0:0:
256,192,54612,1,8,0:0:0:0:
256,192,54716,1,8,0:0:0:0:
256,192,54819,1,0,0:0:0:0:
256,192,54922,1,8,0:0:0:0:
256,192,55129,1,8,0:0:0:0:
256,192,55336,1,4,0:0:0:0:
256,192,55647,1,8,0:0:0:0:
256,192,55750,1,0,0:0:0:0:
256,192,55957,1,8,0:0:0:0:
256,192,56164,1,0,0:0:0:0:
256,192,56267,1,8,0:0:0:0:
256,192,56474,1,8,0:0:0:0:
256,192,56578,1,0,0:0:0:0:
256,192,56681,1,0,0:0:0:0:
256,192,56784,1,8,0:0:0:0:
256,192,56888,1,8,0:0:0:0:
256,192,56991,1,0,0:0:0:0:
256,192,57302,1,8,0:0:0:0:
256,192,57405,1,0,0:0:0:0:
256,192,57612,1,0,0:0:0:0:
256,192,57819,1,8,0:0:0:0:
256,192,58026,1,0,0:0:0:0:
256,192,58129,1,0,0:0:0:0:
256,192,58233,1,8,0:0:0:0:
256,192,58440,1,0,0:0:0:0:
256,192,58647,1,8,0:0:0:0:
256,192,58853,1,0,0:0:0:0:
256,192,58957,1,8,0:0:0:0:
256,192,59060,1,8,0:0:0:0:
256,192,59267,1,0,0:0:0:0:
256,192,59474,1,8,0:0:0:0:
256,192,59578,1,0,0:0:0:0:
256,192,59681,1,0,0:0:0:0:
256,192,59784,1,8,0:0:0:0:
256,192,59888,1,0,0:0:0:0:
256,192,59991,1,0,0:0:0:0:
256,192,60095,1,8,0:0:0:0:
256,192,60198,1,0,0:0:0:0:
256,192,60302,1,8,0:0:0:0:
256,192,60509,1,0,0:0:0:0:
256,192,60716,1,8,0:0:0:0:
256,192,60922,1,0,0:0:0:0:
256,192,61026,1,0,0:0:0:0:
256,192,61129,1,8,0:0:0:0:
256,192,61336,1,0,0:0:0:0:
256,192,61440,1,0,0:0:0:0:
256,192,61543,1,8,0:0:0:0:
256,192,61647,1,8,0:0:0:0:
256,192,61750,1,0,0:0:0:0:
256,192,61957,1,12,0:0:0:0:
256,192,62164,1,0,0:0:0:0:
256,192,62371,1,8,0:0:0:0:
256,192,62578,1,0,0:0:0:0:
256,192,62681,1,0,0:0:0:0:
256,192,62784,1,8,0:0:0:0:
256,192,62888,1,8,0:0:0:0:
256,192,63095,1,8,0:0:0:0:
256,192,63198,1,0,0:0:0:0:
256,192,63405,1,8,0:0:0:0:
256,192,63612,1,0,0:0:0:0:
256,192,63716,1,0,0:0:0:0:
256,192,63922,1,8,0:0:0:0:
256,192,64026,1,0,0:0:0:0:
256,192,64233,1,0,0:0:0:0:
256,192,64440,1,8,0:0:0:0:
256,192,64543,1,0,0:0:0:0:
256,192,64647,1,0,0:0:0:0:
256,192,64750,1,8,0:0:0:0:
256,192,64853,1,8,0:0:0:0:
256,192,64957,1,8,0:0:0:0:
256,192,65060,1,0,0:0:0:0:
256,192,65267,1,12,0:0:0:0:
256,192,65474,1,0,0:0:0:0:
256,192,65578,1,0,0:0:0:0:
256,192,65681,1,8,0:0:0:0:
256,192,65888,1,0,0:0:0:0:
256,192,66095,1,12,0:0:0:0:
256,192,66302,1,0,0:0:0:0:
256,192,66405,1,8,0:0:0:0:
256,192,66612,1,8,0:0:0:0:
256,192,66716,1,0,0:0:0:0:
256,192,66922,1,12,0:0:0:0:
256,192,67129,1,0,0:0:0:0:
256,192,67233,1,8,0:0:0:0:
256,192,67440,1,8,0:0:0:0:
256,192,67543,1,0,0:0:0:0:
256,192,67647,1,8,0:0:0:0:
256,192,67750,1,0,0:0:0:0:
256,192,67853,1,0,0:0:0:0:
256,192,67957,1,8,0:0:0:0:
256,192,68060,1,0,0:0:0:0:
256,192,68164,1,8,0:0:0:0:
256,192,68267,1,8,0:0:0:0:
256,192,68371,1,8,0:0:0:0:
256,192,68578,1,4,0:0:0:0:
256,192,68888,1,8,0:0:0:0:
256,192,68991,1,0,0:0:0:0:
256,192,69198,1,8,0:0:0:0:
256,192,69405,1,0,0:0:0:0:
256,192,69508,1,8,0:0:0:0:
256,192,69715,1,8,0:0:0:0:
256,192,69819,1,0,0:0:0:0:
256,192,69922,1,8,0:0:0:0:
256,192,70025,1,8,0:0:0:0:
256,192,70129,1,8,0:0:0:0:
256,192,70232,1,0,0:0:0:0:
256,192,70543,1,8,0:0:0:0:
256,192,70646,1,0,0:0:0:0:
256,192,70853,1,0,0:0:0:0:
256,192,71060,1,8,0:0:0:0:
256,192,71267,1,0,0:0:0:0:
256,192,71370,1,0,0:0:0:0:
256,192,71474,1,8,0:0:0:0:
256,192,71681,1,0,0:0:0:0:
256,192,71888,1,8,0:0:0:0:
256,192,72094,1,0,0:0:0:0:
256,192,72198,1,8,0:0:0:0:
256,192,72301,1,8,0:0:0:0:
256,192,72508,1,0,0:0:0:0:
256,192,72715,1,8,0:0:0:0:
256,192,72819,1,0,0:0:0:0:
256,192,72922,1,0,0:0:0:0:
256,192,73025,1,8,0:0:0:0:
256,192,73129,1,0,0:0:0:0:
256,192,73232,1,0,0:0:0:0:
256,192,73336,1,8,0:0:0:0:
256,192,73439,1,0,0:0:0:0:
256,192,73543,1,8,0:0:0:0:
256,192,73750,1,0,0:0:0:0:
256,192,73957,1,8,0:0:0:0:
256,192,74163,1,0,0:0:0:0:
256,192,74267,1,0,0:0:0:0:
256,192,74370,1,8,0:0:0:0:
256,192,74577,1,0,0:0:0:0:
256,192,74681,1,8,0:0:0:0:
256,192,74784,1,8,0:0:0:0:
256,192,74888,1,8,0:0:0:0:
256,192,74991,1,0,0:0:0:0:
256,192,75198,1,12,0:0:0:0:
256,192,75405,1,0,0:0:0:0:
256,192,75612,1,8,0:0:0:0:
256,192,75819,1,0,0:0:0:0:
256,192,75922,1,0,0:0:0:0:
256,192,76025,1,8,0:0:0:0:
256,192,76129,1,8,0:0:0:0:
256,192,76336,1,8,0:0:0:0:
256,192,76439,1,0,0:0:0:0:
256,192,76646,1,8,0:0:0:0:
256,192,76853,1,0,0:0:0:0:
256,192,76957,1,0,0:0:0:0:
256,192,77163,1,8,0:0:0:0:
256,192,77267,1,0,0:0:0:0:
256,192,77474,1,0,0:0:0:0:
256,192,77681,1,8,0:0:0:0:
256,192,77784,1,0,0:0:0:0:
256,192,77888,1,0,0:0:0:0:
256,192,77991,1,8,0:0:0:0:
256,192,78094,1,8,0:0:0:0:
256,192,78198,1,8,0:0:0:0:
256,192,78301,1,0,0:0:0:0:
256,192,78508,1,12,0:0:0:0:
256,192,78715,1,0,0:0:0:0:
256,192,78819,1,0,0:0:0:0:
256,192,78922,1,8,0:0:0:0:
256,192,79129,1,0,0:0:0:0:
256,192,79336,1,12,0:0:0:0:
256,192,79543,1,0,0:0:0:0:
256,192,79646,1,8,0:0:0:0:
256,192,79853,1,8,0:0:0:0:
256,192,79957,1,0,0:0:0:0:
256,192,80163,1,12,0:0:0:0:
256,192,80370,1,0,0:0:0:0:
256,192,80474,1,8,0:0:0:0:
256,192,80681,1,8,0:0:0:0:
256,192,80784,1,0,0:0:0:0:
256,192,80991,1,8,0:0:0:0:
256,192,81095,1,0,0:0:0:0:
256,192,81198,1,0,0:0:0:0:
256,192,81302,1,8,0:0:0:0:
256,192,81405,1,0,0:0:0:0:
256,192,81509,1,8,0:0:0:0:
256,192,81612,1,0,0:0:0:0:
256,192,81819,1,4,0:0:0:0:
256,192,82026,1,0,0:0:0:0:
256,192,82129,1,0,0:0:0:0:
256,192,82233,1,8,0:0:0:0:
256,192,82336,1,0,0:0:0:0:
256,192,82440,1,8,0:0:0:0:
256,192,82543,1,8,0:0:0:0:
256,192,82647,1,0,0:0:0:0:
256,192,82750,1,8,0:0:0:0:
256,192,82957,1,8,0:0:0:0:
256,192,83060,1,0,0:0:0:0:
256,192,83164,1,0,0:0:0:0:
256,192,83267,1,8,0:0:0:0:
256,192,83371,1,8,0:0:0:0:
256,192,83474,1,0,0:0:0:0:
256,192,83578,1,8,0:0:0:0:
256,192,83681,1,8,0:0:0:0:
256,192,83784,1,0,0:0:0:0:
256,192,83888,1,8,0:0:0:0:
256,192,83991,1,0,0:0:0:0:
256,192,84095,1,0,0:0:0:0:
256,192,84198,1,8,0:0:0:0:
256,192,84302,1,0,0:0:0:0:
256,192,84405,1,8,0:0:0:0:
256,192,84612,1,8,0:0:0:0:
256,192,84819,1,8,0:0:0:0:
256,192,84922,1,0,0:0:0:0:
256,192,85026,1,8,0:0:0:0:
256,192,85129,1,0,0:0:0:0:
256,192,85233,1,0,0:0:0:0:
256,192,85440,1,8,0:0:0:0:
256,192,85647,1,8,0:0:0:0:
256,192,85750,1,8,0:0:0:0:
256,192,85854,1,8,0:0:0:0:
256,192,85957,1,0,0:0:0:0:
256,192,86060,1,8,0:0:0:0:
256,192,86164,1,8,0:0:0:0:
256,192,86267,1,0,0:0:0:0:
256,192,86474,1,0,0:0:0:0:
256,192,86578,1,8,0:0:0:0:
256,192,86681,1,8,0:0:0:0:
256,192,86784,1,0,0:0:0:0:
256,192,86888,1,0,0:0:0:0:
256,192,86991,1,8,0:0:0:0:
256,192,87095,1,0,0:0:0:0:
256,192,87198,1,8,0:0:0:0:
256,192,87302,1,8,0:0:0:0:
256,192,87405,1,0,0:0:0:0:
256,192,87509,1,8,0:0:0:0:
256,192,87612,1,0,0:0:0:0:
256,192,87716,1,8,0:0:0:0:
256,192,87922,1,8,0:0:0:0:
256,192,88026,1,8,0:0:0:0:
256,192,88129,1,0,0:0:0:0:
256,192,88233,1,0,0:0:0:0:
256,192,88440,1,4,0:0:0:0:
256,192,88647,1,0,0:0:0:0:
256,192,88854,1,8,0:0:0:0:
256,192,89061,1,0,0:0:0:0:
256,192,89164,1,0,0:0:0:0:
256,192,89267,1,8,0:0:0:0:
256,192,89371,1,8,0:0:0:0:
256,192,89578,1,8,0:0:0:0:
256,192,89681,1,0,0:0:0:0:
256,192,89888,1,8,0:0:0:0:
256,192,90095,1,0,0:0:0:0:
256,192,90199,1,0,0:0:0:0:
256,192,90405,1,8,0:0:0:0:
256,192,90509,1,0,0:0:0:0:
256,192,90716,1,0,0:0:0:0:
256,192,90923,1,8,0:0:0:0:
256,192,91026,1,0,0:0:0:0:
256,192,91130,1,0,0:0:0:0:
256,192,91233,1,0,0:0:0:0:
256,192,91336,1,8,0:0:0:0:
256,192,91440,1,8,0:0:0:0:
256,192,91543,1,0,0:0:0:0:
256,192,91750,1,12,0:0:0:0:
256,192,91957,1,0,0:0:0:0:
256,192,92061,1,0,0:0:0:0:
256,192,92164,1,8,0:0:0:0:
256,192,92371,1,0,0:0:0:0:
256,192,92578,1,12,0:0:0:0:
256,192,92785,1,8,0:0:0:0:
256,192,92888,1,0,0:0:0:0:
256,192,93095,1,8,0:0:0:0:
256,192,93199,1,8,0:0:0:0:
256,192,93405,1,12,0:0:0:0:
256,192,93612,1,0,0:0:0:0:
256,192,93716,1,8,0:0:0:0:
256,192,93819,1,8,0:0:0:0:
256,192,93923,1,0,0:0:0:0:
256,192,94026,1,0,0:0:0:0:
256,192,94130,1,8,0:0:0:0:
256,192,94233,1,0,0:0:0:0:
256,192,94336,1,0,0:0:0:0:
256,192,94440,1,8,0:0:0:0:
256,192,94543,1,0,0:0:0:0:
256,192,94647,1,8,0:0:0:0:
256,192,94750,1,8,0:0:0:0:
256,192,94854,1,8,0:0:0:0:
256,192,95060,1,4,0:0:0:0:
256,192,95370,1,8,0:0:0:0:
256,192,95473,1,0,0:0:0:0:
256,192,95680,1,8,0:0:0:0:
256,192,95887,1,0,0:0:0:0:
256,192,95990,1,8,0:0:0:0:
256,192,96197,1,8,0:0:0:0:
256,192,96301,1,0,0:0:0:0:
256,192,96404,1,8,0:0:0:0:
256,192,96509,1,8,0:0:0:0:
256,192,96611,1,0,0:0:0:0:
256,192,96716,1,8,0:0:0:0:
256,192,97025,1,8,0:0:0:0:
256,192,97128,1,0,0:0:0:0:
256,192,97335,1,0,0:0:0:0:
256,192,97542,1,8,0:0:0:0:
256,192,97647,1,0,0:0:0:0:
256,192,97852,1,0,0:0:0:0:
256,192,97956,1,8,0:0:0:0:
256,192,98060,1,8,0:0:0:0:
256,192,98163,1,0,0:0:0:0:
256,192,98267,1,8,0:0:0:0:
256,192,98371,1,0,0:0:0:0:
256,192,98474,1,0,0:0:0:0:
256,192,98680,1,8,0:0:0:0:
256,192,98888,1,8,0:0:0:0:
256,192,98990,1,0,0:0:0:0:
256,192,99197,1,8,0:0:0:0:
256,192,99301,1,0,0:0:0:0:
256,192,99404,1,0,0:0:0:0:
256,192,99509,1,8,0:0:0:0:
256,192,99611,1,0,0:0:0:0:
256,192,99716,1,0,0:0:0:0:
256,192,99818,1,8,0:0:0:0:
256,192,99921,1,0,0:0:0:0:
256,192,100025,1,8,0:0:0:0:
256,192,100129,1,8,0:0:0:0:
256,192,100232,1,0,0:0:0:0:
256,192,100336,1,0,0:0:0:0:
256,192,100439,1,8,0:0:0:0:
256,192,100647,1,0,0:0:0:0:
256,192,100749,1,0,0:0:0:0:
256,192,100852,1,8,0:0:0:0:
256,192,100957,1,0,0:0:0:0:
256,192,101059,1,0,0:0:0:0:
256,192,101164,1,0,0:0:0:0:
256,192,101266,1,8,0:0:0:0:
256,192,101370,1,8,0:0:0:0:
256,192,101473,1,0,0:0:0:0:
256,192,101680,1,12,0:0:0:0:
256,192,101887,1,0,0:0:0:0:
256,192,102094,1,8,0:0:0:0:
256,192,102301,1,0,0:0:0:0:
256,192,102404,1,0,0:0:0:0:
256,192,102509,1,8,0:0:0:0:
256,192,102611,1,8,0:0:0:0:
256,192,102818,1,8,0:0:0:0:
256,192,102921,1,0,0:0:0:0:
256,192,103128,1,8,0:0:0:0:
256,192,103335,1,0,0:0:0:0:
256,192,103439,1,0,0:0:0:0:
256,192,103647,1,8,0:0:0:0:
256,192,103749,1,0,0:0:0:0:
256,192,103956,1,0,0:0:0:0:
256,192,104163,1,8,0:0:0:0:
256,192,104266,1,0,0:0:0:0:
256,192,104370,1,0,0:0:0:0:
256,192,104473,1,8,0:0:0:0:
256,192,104578,1,8,0:0:0:0:
256,192,104680,1,8,0:0:0:0:
256,192,104783,1,0,0:0:0:0:
256,192,104990,1,12,0:0:0:0:
256,192,105197,1,0,0:0:0:0:
256,192,105301,1,0,0:0:0:0:
256,192,105404,1,8,0:0:0:0:
256,192,105509,1,8,0:0:0:0:
256,192,105611,1,0,0:0:0:0:
256,192,105818,1,12,0:0:0:0:
256,192,106025,1,0,0:0:0:0:
256,192,106128,1,8,0:0:0:0:
256,192,106233,1,0,0:0:0:0:
256,192,106335,1,8,0:0:0:0:
256,192,106439,1,0,0:0:0:0:
256,192,106647,1,12,0:0:0:0:
256,192,106852,1,0,0:0:0:0:
256,192,106956,1,8,0:0:0:0:
256,192,107163,1,8,0:0:0:0:
256,192,107266,1,0,0:0:0:0:
256,192,107473,1,8,0:0:0:0:
256,192,107577,1,0,0:0:0:0:
256,192,107680,1,0,0:0:0:0:
256,192,107784,1,8,0:0:0:0:
256,192,107887,1,0,0:0:0:0:
256,192,107991,1,8,0:0:0:0:
256,192,108094,1,0,0:0:0:0:
256,192,108302,1,12,0:0:0:0:
256,192,109957,1,0,0:0:0:0:
256,192,110790,1,8,0:0:0:0:
256,192,111623,1,0,0:0:0:0:
256,192,111936,1,0,0:0:0:0:
256,192,112248,1,0,0:0:0:0:
256,192,112457,1,8,0:0:0:0:
256,192,112769,1,8,0:0:0:0:
256,192,113082,1,8,0:0:0:0:
256,192,113290,1,0,0:0:0:0:
256,192,113707,1,8,0:0:0:0:
256,192,114123,1,0,0:0:0:0:
256,192,114469,1,8,0:0:0:0:
256,192,114786,1,8,0:0:0:0:
256,192,115046,12,8,116084,0:0:0:0:
