osu file format v14

[General]
AudioFilename: senya+-+Cinderella+Avatar.mp3
AudioLeadIn: 0
PreviewTime: 54922
Countdown: 0
SampleSet: Normal
StackLeniency: 0.7
Mode: 1
LetterboxInBreaks: 0
WidescreenStoryboard: 1

[Editor]
Bookmarks: 28853
DistanceSpacing: 0.1
BeatDivisor: 4
GridSize: 32
TimelineZoom: 1.599999

[Metadata]
Title:Cinderella Avatar
TitleUnicode:シンデレラアバター
Artist:senya
ArtistUnicode:senya
Creator:Envory
Version:Ron's Oni
Source:東方風神録 ~ Mountain of Faith.
Tags:yuuhei satellite th10 mountain of faith native moriya suwako iceon kamase-tora 幽閉サテライト ネイティブフェイス 東方風神録 Verniy_Chan FAMoss yuzu__rinrin [R] atian540 - Ly0572 - Syadow-
BeatmapID:1443840
BeatmapSetID:665542

[Difficulty]
HPDrainRate:6
CircleSize:2
OverallDifficulty:6
ApproachRate:10
SliderMultiplier:1.4
SliderTickRate:1

[Events]
//Background and Video events
0,0,"696623.jpg",0,0
//Break Periods
//Storyboard Layer 0 (Background)
//Storyboard Layer 1 (Fail)
//Storyboard Layer 2 (Pass)
//Storyboard Layer 3 (Foreground)
//Storyboard Layer 4 (Overlay)
//Storyboard Sound Samples

[TimingPoints]
716,413.793103448276,4,1,0,50,1,0
2371,-100,4,1,0,51,0,0
54922,-100,4,1,0,70,0,0
55129,-100,4,1,0,70,0,0
55233,-100,4,1,0,70,0,0
55336,-100,4,1,0,80,0,1
65060,-100,4,1,0,80,0,1
65164,-100,4,1,0,80,0,1
65267,-100,4,1,0,80,0,1
65474,-100,4,1,0,80,0,1
65578,-100,4,1,0,80,0,1
65681,-100,4,1,0,80,0,1
65888,-100,4,1,0,80,0,1
65991,-100,4,1,0,80,0,1
66095,-100,4,1,0,80,0,1
67750,-100,4,1,0,70,0,0
68578,-100,4,1,0,80,0,1
78302,-100,4,1,0,80,0,1
78405,-100,4,1,0,80,0,1
78509,-100,4,1,0,80,0,1
78716,-100,4,1,0,80,0,1
78819,-100,4,1,0,80,0,1
78922,-100,4,1,0,80,0,1
79129,-100,4,1,0,80,0,1
79233,-100,4,1,0,80,0,1
79336,-100,4,1,0,80,0,1
81819,-100,4,1,0,70,0,0
95060,-100,4,1,0,70,0,1
104784,-100,4,1,0,70,0,1
104888,-100,4,1,0,70,0,1
104991,-100,4,1,0,70,0,1
105198,-100,4,1,0,70,0,1
105302,-100,4,1,0,70,0,1
105405,-100,4,1,0,70,0,1
105612,-100,4,1,0,70,0,1
105716,-100,4,1,0,70,0,1
105819,-100,4,1,0,70,0,1
108302,-100,4,1,0,70,0,0
109957,416.666666666667,4,1,0,40,1,0
109957,-100,4,1,0,70,0,0
113915,-117.647058823529,4,1,0,70,0,0
114123,461.538461538462,4,1,0,30,1,0
114123,-117.647058823529,4,1,0,30,0,0
115046,480,4,1,0,20,1,0
115046,-125,4,1,0,20,0,0
115526,517.241379310345,4,1,0,10,1,0
115526,-135.135135135135,4,1,0,10,0,0
115784,600,4,1,0,10,1,0
115784,-133.333333333333,4,1,0,10,0,0

[HitObjects]
256,192,819,8,0,2164,0:0:0:0:
256,192,2371,5,4,0:0:0:0:
256,192,2784,1,8,0:0:0:0:
256,192,2991,1,0,0:0:0:0:
256,192,3198,1,8,0:0:0:0:
256,192,3302,1,8,0:0:0:0:
256,192,3405,1,0,0:0:0:0:
256,192,3509,1,0,0:0:0:0:
256,192,3612,1,8,0:0:0:0:
256,192,3819,1,0,0:0:0:0:
256,192,4026,1,8,0:0:0:0:
256,192,4233,1,0,0:0:0:0:
256,192,4336,1,8,0:0:0:0:
256,192,4440,1,0,0:0:0:0:
256,192,4647,1,8,0:0:0:0:
256,192,4853,1,0,0:0:0:0:
256,192,5267,1,8,0:0:0:0:
256,192,5474,1,0,0:0:0:0:
256,192,5681,1,8,0:0:0:0:
256,192,5888,1,0,0:0:0:0:
256,192,5991,1,8,0:0:0:0:
256,192,6095,1,0,0:0:0:0:
256,192,6302,1,8,0:0:0:0:
256,192,6509,1,0,0:0:0:0:
256,192,6612,1,0,0:0:0:0:
256,192,6716,1,8,0:0:0:0:
256,192,6819,1,8,0:0:0:0:
256,192,6922,1,0,0:0:0:0:
256,192,7129,1,8,0:0:0:0:
256,192,7336,1,0,0:0:0:0:
256,192,7543,1,0,0:0:0:0:
256,192,7647,1,0,0:0:0:0:
256,192,7750,1,8,0:0:0:0:
256,192,7957,1,0,0:0:0:0:
256,192,8164,1,8,0:0:0:0:
256,192,8267,1,0,0:0:0:0:
256,192,8371,1,8,0:0:0:0:
256,192,8474,1,8,0:0:0:0:
256,192,8578,1,0,0:0:0:0:
256,192,8784,1,8,0:0:0:0:
256,192,8991,1,4,0:0:0:0:
256,192,9405,1,8,0:0:0:0:
256,192,9612,1,0,0:0:0:0:
256,192,9716,1,0,0:0:0:0:
256,192,9819,1,8,0:0:0:0:
256,192,9922,1,0,0:0:0:0:
256,192,10129,1,0,0:0:0:0:
256,192,10233,1,8,0:0:0:0:
256,192,10440,1,0,0:0:0:0:
256,192,10647,1,8,0:0:0:0:
256,192,10750,1,8,0:0:0:0:
256,192,10957,1,0,0:0:0:0:
256,192,11060,1,8,0:0:0:0:
256,192,11267,1,0,0:0:0:0:
256,192,11474,1,8,0:0:0:0:
256,192,11681,1,0,0:0:0:0:
256,192,11784,1,8,0:0:0:0:
256,192,11888,1,0,0:0:0:0:
256,192,12095,1,0,0:0:0:0:
256,192,12302,1,12,0:0:0:0:
256,192,12716,1,8,0:0:0:0:
256,192,12922,1,0,0:0:0:0:
256,192,13129,1,12,0:0:0:0:
256,192,13336,1,0,0:0:0:0:
256,192,13440,1,0,0:0:0:0:
256,192,13543,1,8,0:0:0:0:
256,192,13750,1,0,0:0:0:0:
256,192,13957,1,12,0:0:0:0:
256,192,14164,1,8,0:0:0:0:
256,192,14267,1,8,0:0:0:0:
256,192,14371,1,0,0:0:0:0:
256,192,14578,1,0,0:0:0:0:
256,192,14784,1,8,0:0:0:0:
256,192,14888,1,0,0:0:0:0:
256,192,14991,1,8,0:0:0:0:
256,192,15095,1,8,0:0:0:0:
256,192,15198,1,0,0:0:0:0:
256,192,15302,1,0,0:0:0:0:
256,192,15405,1,0,0:0:0:0:
256,192,15612,1,12,0:0:0:0:
256,192,16026,1,0,0:0:0:0:
256,192,16233,1,8,0:0:0:0:
256,192,16336,1,8,0:0:0:0:
256,192,16440,1,8,0:0:0:0:
256,192,16543,1,0,0:0:0:0:
256,192,16750,1,0,0:0:0:0:
256,192,16853,1,8,0:0:0:0:
256,192,17060,1,8,0:0:0:0:
256,192,17267,1,0,0:0:0:0:
256,192,17474,1,8,0:0:0:0:
256,192,17578,1,8,0:0:0:0:
256,192,17681,1,0,0:0:0:0:
256,192,17888,1,8,0:0:0:0:
256,192,18095,1,0,0:0:0:0:
256,192,18198,1,8,0:0:0:0:
256,192,18302,1,0,0:0:0:0:
256,192,18509,1,8,0:0:0:0:
256,192,18716,1,0,0:0:0:0:
256,192,18922,1,8,0:0:0:0:
256,192,19336,1,0,0:0:0:0:
256,192,19543,1,8,0:0:0:0:
256,192,19750,1,0,0:0:0:0:
256,192,19853,1,8,0:0:0:0:
256,192,19957,1,0,0:0:0:0:
256,192,20060,1,0,0:0:0:0:
256,192,20164,1,8,0:0:0:0:
256,192,20371,1,8,0:0:0:0:
256,192,20578,1,0,0:0:0:0:
256,192,20784,1,0,0:0:0:0:
256,192,20888,1,8,0:0:0:0:
256,192,20991,1,0,0:0:0:0:
256,192,21198,1,0,0:0:0:0:
256,192,21405,1,8,0:0:0:0:
256,192,21509,1,8,0:0:0:0:
256,192,21612,1,0,0:0:0:0:
256,192,21716,1,0,0:0:0:0:
256,192,21819,1,8,0:0:0:0:
256,192,22026,1,0,0:0:0:0:
256,192,22233,1,12,0:0:0:0:
256,192,22543,1,8,0:0:0:0:
256,192,22647,1,0,0:0:0:0:
256,192,22854,1,8,0:0:0:0:
256,192,22957,1,8,0:0:0:0:
256,192,23061,1,8,0:0:0:0:
256,192,23268,1,0,0:0:0:0:
256,192,23475,1,8,0:0:0:0:
256,192,23682,1,8,0:0:0:0:
256,192,23784,1,8,0:0:0:0:
256,192,23888,1,0,0:0:0:0:
256,192,24095,1,0,0:0:0:0:
256,192,24198,1,8,0:0:0:0:
256,192,24302,1,0,0:0:0:0:
256,192,24509,1,8,0:0:0:0:
256,192,24716,1,0,0:0:0:0:
256,192,24922,1,8,0:0:0:0:
256,192,25129,1,0,0:0:0:0:
256,192,25233,1,0,0:0:0:0:
256,192,25336,1,8,0:0:0:0:
256,192,25440,1,8,0:0:0:0:
256,192,25543,1,0,0:0:0:0:
256,192,25957,1,0,0:0:0:0:
256,192,26164,1,8,0:0:0:0:
256,192,26267,1,8,0:0:0:0:
256,192,26371,1,0,0:0:0:0:
256,192,26578,1,8,0:0:0:0:
256,192,26784,1,8,0:0:0:0:
256,192,26888,1,0,0:0:0:0:
256,192,26991,1,8,0:0:0:0:
256,192,27198,1,4,0:0:0:0:
256,192,27405,1,4,0:0:0:0:
256,192,27612,1,8,0:0:0:0:
256,192,27716,1,0,0:0:0:0:
256,192,27922,1,12,0:0:0:0:
256,192,28129,1,0,0:0:0:0:
256,192,28233,1,0,0:0:0:0:
256,192,28336,1,0,0:0:0:0:
256,192,28440,1,8,0:0:0:0:
256,192,28853,1,4,0:0:0:0:
256,192,29164,1,8,0:0:0:0:
256,192,29474,1,0,0:0:0:0:
256,192,29681,1,8,0:0:0:0:
256,192,29888,1,0,0:0:0:0:
256,192,29991,1,0,0:0:0:0:
256,192,30095,1,8,0:0:0:0:
256,192,30302,1,0,0:0:0:0:
256,192,30509,1,8,0:0:0:0:
256,192,30819,1,0,0:0:0:0:
256,192,31129,1,8,0:0:0:0:
256,192,31336,1,0,0:0:0:0:
256,192,31543,1,8,0:0:0:0:
256,192,31647,1,8,0:0:0:0:
256,192,31750,1,0,0:0:0:0:
256,192,31957,1,8,0:0:0:0:
256,192,32164,1,0,0:0:0:0:
256,192,32474,1,0,0:0:0:0:
256,192,32578,1,8,0:0:0:0:
256,192,32784,1,0,0:0:0:0:
256,192,32991,1,8,0:0:0:0:
256,192,33302,1,8,0:0:0:0:
256,192,33405,1,0,0:0:0:0:
256,192,33612,1,0,0:0:0:0:
256,192,33819,1,8,0:0:0:0:
256,192,34233,1,8,0:0:0:0:
256,192,34440,1,0,0:0:0:0:
256,192,34647,1,8,0:0:0:0:
256,192,34853,1,0,0:0:0:0:
256,192,35060,1,8,0:0:0:0:
256,192,35164,1,8,0:0:0:0:
256,192,35267,1,0,0:0:0:0:
256,192,35474,1,4,0:0:0:0:
256,192,35784,1,8,0:0:0:0:
256,192,36094,1,0,0:0:0:0:
256,192,36301,1,8,0:0:0:0:
256,192,36508,1,0,0:0:0:0:
256,192,36611,1,0,0:0:0:0:
256,192,36715,1,8,0:0:0:0:
256,192,36922,1,0,0:0:0:0:
256,192,37129,1,8,0:0:0:0:
256,192,37439,1,0,0:0:0:0:
256,192,37749,1,8,0:0:0:0:
256,192,37956,1,0,0:0:0:0:
256,192,38163,1,8,0:0:0:0:
256,192,38267,1,8,0:0:0:0:
256,192,38370,1,0,0:0:0:0:
256,192,38577,1,8,0:0:0:0:
256,192,38784,1,0,0:0:0:0:
256,192,39198,1,8,0:0:0:0:
256,192,39611,1,0,0:0:0:0:
256,192,39819,1,8,0:0:0:0:
256,192,39922,1,8,0:0:0:0:
256,192,40025,1,0,0:0:0:0:
256,192,40232,1,0,0:0:0:0:
256,192,40439,1,8,0:0:0:0:
256,192,40647,1,0,0:0:0:0:
256,192,40750,1,0,0:0:0:0:
256,192,40853,1,8,0:0:0:0:
256,192,41060,1,0,0:0:0:0:
256,192,41267,1,8,0:0:0:0:
256,192,41371,1,0,0:0:0:0:
256,192,41474,1,0,0:0:0:0:
256,192,41578,1,0,0:0:0:0:
256,192,41680,1,8,0:0:0:0:
256,192,41887,1,0,0:0:0:0:
256,192,42095,1,4,0:0:0:0:
256,192,42406,1,8,0:0:0:0:
256,192,42716,1,0,0:0:0:0:
256,192,42923,1,8,0:0:0:0:
256,192,43130,1,0,0:0:0:0:
256,192,43233,1,0,0:0:0:0:
256,192,43337,1,8,0:0:0:0:
256,192,43544,1,0,0:0:0:0:
256,192,43751,1,8,0:0:0:0:
256,192,44061,1,0,0:0:0:0:
256,192,44371,1,8,0:0:0:0:
256,192,44578,1,0,0:0:0:0:
256,192,44785,1,8,0:0:0:0:
256,192,44889,1,8,0:0:0:0:
256,192,44992,1,0,0:0:0:0:
256,192,45199,1,8,0:0:0:0:
256,192,45406,1,0,0:0:0:0:
256,192,45716,1,0,0:0:0:0:
256,192,45820,1,8,0:0:0:0:
256,192,46026,1,0,0:0:0:0:
256,192,46233,1,8,0:0:0:0:
256,192,46544,1,8,0:0:0:0:
256,192,46647,1,0,0:0:0:0:
256,192,46854,1,0,0:0:0:0:
256,192,47061,1,8,0:0:0:0:
256,192,47475,1,8,0:0:0:0:
256,192,47682,1,0,0:0:0:0:
256,192,47889,1,8,0:0:0:0:
256,192,48095,1,0,0:0:0:0:
256,192,48302,1,8,0:0:0:0:
256,192,48406,1,8,0:0:0:0:
256,192,48509,1,0,0:0:0:0:
256,192,48716,1,4,0:0:0:0:
256,192,49026,1,8,0:0:0:0:
256,192,49336,1,0,0:0:0:0:
256,192,49543,1,8,0:0:0:0:
256,192,49750,1,0,0:0:0:0:
256,192,49853,1,0,0:0:0:0:
256,192,49957,1,8,0:0:0:0:
256,192,50164,1,0,0:0:0:0:
256,192,50371,1,8,0:0:0:0:
256,192,50681,1,0,0:0:0:0:
256,192,50991,1,8,0:0:0:0:
256,192,51198,1,0,0:0:0:0:
256,192,51405,1,8,0:0:0:0:
256,192,51509,1,8,0:0:0:0:
256,192,51612,1,0,0:0:0:0:
256,192,51819,1,8,0:0:0:0:
256,192,52026,1,0,0:0:0:0:
256,192,52233,1,0,0:0:0:0:
256,192,52336,1,0,0:0:0:0:
256,192,52440,1,8,0:0:0:0:
256,192,52646,1,0,0:0:0:0:
256,192,52853,1,8,0:0:0:0:
256,192,53060,1,0,0:0:0:0:
256,192,53164,1,8,0:0:0:0:
256,192,53267,1,0,0:0:0:0:
256,192,53474,1,0,0:0:0:0:
256,192,53681,1,8,0:0:0:0:
256,192,53888,1,8,0:0:0:0:
256,192,53991,1,0,0:0:0:0:
256,192,54095,1,8,0:0:0:0:
256,192,54302,1,0,0:0:0:0:
256,192,54509,1,8,0:0:0:0:
256,192,54612,1,8,0:0:0:0:
256,192,54716,1,0,0:0:0:0:
256,192,54820,1,0,0:0:0:0:
256,192,54922,1,8,0:0:0:0:
256,192,55129,1,0,0:0:0:0:
256,192,55336,1,4,0:0:0:0:
256,192,55750,1,0,0:0:0:0:
256,192,55957,1,8,0:0:0:0:
256,192,56164,1,0,0:0:0:0:
256,192,56267,1,8,0:0:0:0:
256,192,56371,1,8,0:0:0:0:
256,192,56474,1,8,0:0:0:0:
256,192,56578,1,0,0:0:0:0:
256,192,56784,1,8,0:0:0:0:
256,192,56991,1,0,0:0:0:0:
256,192,57302,1,8,0:0:0:0:
256,192,57405,1,0,0:0:0:0:
256,192,57612,1,0,0:0:0:0:
256,192,57819,1,8,0:0:0:0:
256,192,58026,1,0,0:0:0:0:
256,192,58129,1,0,0:0:0:0:
256,192,58233,1,8,0:0:0:0:
256,192,58440,1,0,0:0:0:0:
256,192,58647,1,8,0:0:0:0:
256,192,59060,1,8,0:0:0:0:
256,192,59267,1,0,0:0:0:0:
256,192,59474,1,8,0:0:0:0:
256,192,59681,1,0,0:0:0:0:
256,192,59784,1,8,0:0:0:0:
256,192,59888,1,0,0:0:0:0:
256,192,59991,1,0,0:0:0:0:
256,192,60095,1,8,0:0:0:0:
256,192,60302,1,8,0:0:0:0:
256,192,60612,1,0,0:0:0:0:
256,192,60716,1,8,0:0:0:0:
256,192,60922,1,0,0:0:0:0:
256,192,61129,1,8,0:0:0:0:
256,192,61233,1,8,0:0:0:0:
256,192,61336,1,0,0:0:0:0:
256,192,61440,1,0,0:0:0:0:
256,192,61543,1,8,0:0:0:0:
256,192,61750,1,0,0:0:0:0:
256,192,61957,1,12,0:0:0:0:
256,192,62371,1,8,0:0:0:0:
256,192,62578,1,0,0:0:0:0:
256,192,62681,1,0,0:0:0:0:
256,192,62784,1,8,0:0:0:0:
256,192,62991,1,8,0:0:0:0:
256,192,63095,1,8,0:0:0:0:
256,192,63198,1,0,0:0:0:0:
256,192,63405,1,8,0:0:0:0:
256,192,63612,1,0,0:0:0:0:
256,192,63922,1,8,0:0:0:0:
256,192,64026,1,0,0:0:0:0:
256,192,64233,1,0,0:0:0:0:
256,192,64440,1,8,0:0:0:0:
256,192,64543,1,0,0:0:0:0:
256,192,64750,1,8,0:0:0:0:
256,192,64853,1,8,0:0:0:0:
256,192,65060,1,0,0:0:0:0:
256,192,65267,1,12,0:0:0:0:
256,192,65681,1,0,0:0:0:0:
256,192,66095,1,12,0:0:0:0:
256,192,66302,1,0,0:0:0:0:
256,192,66405,1,8,0:0:0:0:
256,192,66612,1,8,0:0:0:0:
256,192,66716,1,0,0:0:0:0:
256,192,66922,1,12,0:0:0:0:
256,192,67129,1,0,0:0:0:0:
256,192,67233,1,8,0:0:0:0:
256,192,67440,1,8,0:0:0:0:
256,192,67543,1,0,0:0:0:0:
256,192,67750,1,0,0:0:0:0:
256,192,67853,1,0,0:0:0:0:
256,192,67957,1,8,0:0:0:0:
256,192,68060,1,0,0:0:0:0:
256,192,68164,1,8,0:0:0:0:
256,192,68371,1,8,0:0:0:0:
256,192,68578,1,4,0:0:0:0:
256,192,68992,1,0,0:0:0:0:
256,192,69199,1,8,0:0:0:0:
256,192,69406,1,0,0:0:0:0:
256,192,69509,1,0,0:0:0:0:
256,192,69613,1,8,0:0:0:0:
256,192,69716,1,8,0:0:0:0:
256,192,69820,1,0,0:0:0:0:
256,192,70026,1,8,0:0:0:0:
256,192,70233,1,0,0:0:0:0:
256,192,70544,1,8,0:0:0:0:
256,192,70647,1,0,0:0:0:0:
256,192,70854,1,0,0:0:0:0:
256,192,71061,1,8,0:0:0:0:
256,192,71268,1,0,0:0:0:0:
256,192,71371,1,8,0:0:0:0:
256,192,71475,1,8,0:0:0:0:
256,192,71682,1,0,0:0:0:0:
256,192,71889,1,8,0:0:0:0:
256,192,72302,1,8,0:0:0:0:
256,192,72509,1,0,0:0:0:0:
256,192,72716,1,8,0:0:0:0:
256,192,72923,1,0,0:0:0:0:
256,192,73026,1,8,0:0:0:0:
256,192,73130,1,8,0:0:0:0:
256,192,73233,1,0,0:0:0:0:
256,192,73337,1,8,0:0:0:0:
256,192,73544,1,8,0:0:0:0:
256,192,73854,1,0,0:0:0:0:
256,192,73958,1,8,0:0:0:0:
256,192,74164,1,0,0:0:0:0:
256,192,74371,1,8,0:0:0:0:
256,192,74475,1,0,0:0:0:0:
256,192,74578,1,0,0:0:0:0:
256,192,74682,1,0,0:0:0:0:
256,192,74785,1,8,0:0:0:0:
256,192,74992,1,0,0:0:0:0:
256,192,75199,1,12,0:0:0:0:
256,192,75613,1,8,0:0:0:0:
256,192,75820,1,0,0:0:0:0:
256,192,75923,1,8,0:0:0:0:
256,192,76026,1,8,0:0:0:0:
256,192,76233,1,8,0:0:0:0:
256,192,76337,1,0,0:0:0:0:
256,192,76440,1,0,0:0:0:0:
256,192,76647,1,8,0:0:0:0:
256,192,76854,1,0,0:0:0:0:
256,192,77164,1,8,0:0:0:0:
256,192,77268,1,0,0:0:0:0:
256,192,77475,1,0,0:0:0:0:
256,192,77682,1,8,0:0:0:0:
256,192,77785,1,0,0:0:0:0:
256,192,77992,1,8,0:0:0:0:
256,192,78095,1,8,0:0:0:0:
256,192,78302,1,0,0:0:0:0:
256,192,78509,1,12,0:0:0:0:
256,192,78923,1,0,0:0:0:0:
256,192,79337,1,12,0:0:0:0:
256,192,79544,1,0,0:0:0:0:
256,192,79647,1,8,0:0:0:0:
256,192,79854,1,8,0:0:0:0:
256,192,79958,1,0,0:0:0:0:
256,192,80164,1,12,0:0:0:0:
256,192,80371,1,0,0:0:0:0:
256,192,80475,1,8,0:0:0:0:
256,192,80682,1,8,0:0:0:0:
256,192,80785,1,0,0:0:0:0:
256,192,80992,1,0,0:0:0:0:
256,192,81095,1,8,0:0:0:0:
256,192,81199,1,8,0:0:0:0:
256,192,81302,1,0,0:0:0:0:
256,192,81406,1,8,0:0:0:0:
256,192,81613,5,8,0:0:0:0:
256,192,81820,1,4,0:0:0:0:
256,192,82026,1,0,0:0:0:0:
256,192,82129,1,0,0:0:0:0:
256,192,82233,1,8,0:0:0:0:
256,192,82440,1,8,0:0:0:0:
256,192,82543,1,8,0:0:0:0:
256,192,82647,1,0,0:0:0:0:
256,192,82853,1,8,0:0:0:0:
256,192,83060,1,8,0:0:0:0:
256,192,83164,1,8,0:0:0:0:
256,192,83267,1,0,0:0:0:0:
256,192,83371,1,0,0:0:0:0:
256,192,83474,1,8,0:0:0:0:
256,192,83681,1,0,0:0:0:0:
256,192,83888,1,8,0:0:0:0:
256,192,83991,1,0,0:0:0:0:
256,192,84095,1,0,0:0:0:0:
256,192,84198,1,0,0:0:0:0:
256,192,84302,1,8,0:0:0:0:
256,192,84509,1,0,0:0:0:0:
256,192,84716,1,8,0:0:0:0:
256,192,84922,1,0,0:0:0:0:
256,192,85026,1,0,0:0:0:0:
256,192,85129,1,8,0:0:0:0:
256,192,85543,1,0,0:0:0:0:
256,192,85750,1,8,0:0:0:0:
256,192,85854,1,8,0:0:0:0:
256,192,85957,1,0,0:0:0:0:
256,192,86164,1,8,0:0:0:0:
256,192,86371,1,8,0:0:0:0:
256,192,86474,1,8,0:0:0:0:
256,192,86578,1,0,0:0:0:0:
256,192,86681,1,0,0:0:0:0:
256,192,86784,1,8,0:0:0:0:
256,192,86991,1,0,0:0:0:0:
256,192,87198,1,8,0:0:0:0:
256,192,87302,1,8,0:0:0:0:
256,192,87405,1,0,0:0:0:0:
256,192,87612,1,0,0:0:0:0:
256,192,87716,1,8,0:0:0:0:
256,192,87819,1,0,0:0:0:0:
256,192,87922,1,0,0:0:0:0:
256,192,88026,1,8,0:0:0:0:
256,192,88233,1,0,0:0:0:0:
256,192,88440,1,12,0:0:0:0:
256,192,88854,1,8,0:0:0:0:
256,192,89061,1,0,0:0:0:0:
256,192,89164,1,0,0:0:0:0:
256,192,89267,1,8,0:0:0:0:
256,192,89474,1,8,0:0:0:0:
256,192,89578,1,8,0:0:0:0:
256,192,89681,1,0,0:0:0:0:
256,192,89888,1,8,0:0:0:0:
256,192,90095,1,0,0:0:0:0:
256,192,90199,1,0,0:0:0:0:
256,192,90405,1,8,0:0:0:0:
256,192,90509,1,0,0:0:0:0:
256,192,90716,1,0,0:0:0:0:
256,192,90923,1,8,0:0:0:0:
256,192,91026,1,0,0:0:0:0:
256,192,91233,1,0,0:0:0:0:
256,192,91336,1,8,0:0:0:0:
256,192,91440,1,8,0:0:0:0:
256,192,91543,1,0,0:0:0:0:
256,192,91750,1,12,0:0:0:0:
256,192,92164,1,8,0:0:0:0:
256,192,92371,1,0,0:0:0:0:
256,192,92578,1,12,0:0:0:0:
256,192,92785,1,0,0:0:0:0:
256,192,92888,1,8,0:0:0:0:
256,192,93095,1,8,0:0:0:0:
256,192,93199,1,0,0:0:0:0:
256,192,93405,1,12,0:0:0:0:
256,192,93612,1,8,0:0:0:0:
256,192,93819,1,8,0:0:0:0:
256,192,93923,1,0,0:0:0:0:
256,192,94130,1,8,0:0:0:0:
256,192,94336,1,0,0:0:0:0:
256,192,94440,1,0,0:0:0:0:
256,192,94543,1,0,0:0:0:0:
256,192,94647,1,8,0:0:0:0:
256,192,94854,1,8,0:0:0:0:
256,192,95060,5,4,0:0:0:0:
256,192,95473,1,8,0:0:0:0:
256,192,95680,1,0,0:0:0:0:
256,192,95887,1,8,0:0:0:0:
256,192,95991,1,8,0:0:0:0:
256,192,96094,1,0,0:0:0:0:
256,192,96198,1,0,0:0:0:0:
256,192,96301,1,8,0:0:0:0:
256,192,96508,1,0,0:0:0:0:
256,192,96715,1,8,0:0:0:0:
256,192,97025,1,8,0:0:0:0:
256,192,97129,1,0,0:0:0:0:
256,192,97336,1,8,0:0:0:0:
256,192,97542,1,0,0:0:0:0:
256,192,97956,1,8,0:0:0:0:
256,192,98163,1,0,0:0:0:0:
256,192,98370,1,8,0:0:0:0:
256,192,98784,1,0,0:0:0:0:
256,192,98991,1,8,0:0:0:0:
256,192,99198,1,0,0:0:0:0:
256,192,99301,1,0,0:0:0:0:
256,192,99405,1,8,0:0:0:0:
256,192,99508,1,8,0:0:0:0:
256,192,99611,1,0,0:0:0:0:
256,192,99818,1,8,0:0:0:0:
256,192,100025,1,0,0:0:0:0:
256,192,100439,1,8,0:0:0:0:
256,192,100646,1,0,0:0:0:0:
256,192,100853,1,8,0:0:0:0:
256,192,100956,1,8,0:0:0:0:
256,192,101060,1,0,0:0:0:0:
256,192,101163,1,8,0:0:0:0:
256,192,101267,1,0,0:0:0:0:
256,192,101473,1,8,0:0:0:0:
256,192,101680,1,4,0:0:0:0:
256,192,101991,1,0,0:0:0:0:
256,192,102094,1,8,0:0:0:0:
256,192,102301,1,0,0:0:0:0:
256,192,102405,1,0,0:0:0:0:
256,192,102508,1,8,0:0:0:0:
256,192,102715,1,0,0:0:0:0:
256,192,102922,1,8,0:0:0:0:
256,192,103025,1,8,0:0:0:0:
256,192,103129,1,8,0:0:0:0:
256,192,103336,1,0,0:0:0:0:
256,192,103542,1,8,0:0:0:0:
256,192,103646,1,8,0:0:0:0:
256,192,103749,1,0,0:0:0:0:
256,192,103956,1,0,0:0:0:0:
256,192,104163,1,8,0:0:0:0:
256,192,104370,1,0,0:0:0:0:
256,192,104473,1,8,0:0:0:0:
256,192,104577,1,0,0:0:0:0:
256,192,104784,1,8,0:0:0:0:
256,192,104991,1,4,0:0:0:0:
256,192,105301,1,0,0:0:0:0:
256,192,105405,1,8,0:0:0:0:
256,192,105611,1,0,0:0:0:0:
256,192,105818,1,12,0:0:0:0:
256,192,106025,1,0,0:0:0:0:
256,192,106129,1,0,0:0:0:0:
256,192,106232,1,8,0:0:0:0:
256,192,106439,1,8,0:0:0:0:
256,192,106646,1,4,0:0:0:0:
256,192,106853,1,0,0:0:0:0:
256,192,106956,1,8,0:0:0:0:
256,192,107060,1,8,0:0:0:0:
256,192,107267,1,0,0:0:0:0:
256,192,107473,1,8,0:0:0:0:
256,192,107577,1,0,0:0:0:0:
256,192,107680,1,0,0:0:0:0:
256,192,107784,1,8,0:0:0:0:
256,192,107887,1,0,0:0:0:0:
256,192,108094,1,0,0:0:0:0:
256,192,108302,1,12,0:0:0:0:
256,192,109957,5,0,0:0:0:0:
256,192,110790,1,8,0:0:0:0:
256,192,111623,1,0,0:0:0:0:
256,192,112040,1,0,0:0:0:0:
256,192,112248,1,0,0:0:0:0:
256,192,112457,1,8,0:0:0:0:
256,192,112873,1,8,0:0:0:0:
256,192,113290,1,0,0:0:0:0:
256,192,113707,1,0,0:0:0:0:
256,192,113915,1,8,0:0:0:0:
256,192,114123,1,0,0:0:0:0:
256,192,114353,1,0,0:0:0:0:
256,192,114584,1,8,0:0:0:0:
256,192,114815,1,8,0:0:0:0:
256,192,115046,12,8,116084,0:0:0:0:
