osu file format v14

[General]
AudioFilename: senya+-+Cinderella+Avatar.mp3
AudioLeadIn: 0
PreviewTime: 54922
Countdown: 0
SampleSet: Soft
StackLeniency: 0.7
Mode: 3
LetterboxInBreaks: 0
SpecialStyle: 0
WidescreenStoryboard: 0

[Editor]
DistanceSpacing: 1.2
BeatDivisor: 4
GridSize: 32
TimelineZoom: 1.199999

[Metadata]
Title:Cinderella Avatar
TitleUnicode:シンデレラアバター
Artist:senya
ArtistUnicode:senya
Creator:Envory
Version:Mania.Hitsound
Source:東方風神録 ~ Mountain of Faith.
Tags:
BeatmapID:2104954
BeatmapSetID:665542

[Difficulty]
HPDrainRate:0
CircleSize:7
OverallDifficulty:0
ApproachRate:5
SliderMultiplier:1.4
SliderTickRate:1

[Events]
//Background and Video events
0,0,"696623.jpg",0,0
//Break Periods
//Storyboard Layer 0 (Background)
//Storyboard Layer 1 (Fail)
//Storyboard Layer 2 (Pass)
//Storyboard Layer 3 (Foreground)
//Storyboard Sound Samples

[TimingPoints]
716,413.793103448276,4,2,1,50,1,0
55336,-100,4,2,1,50,0,1
67750,-100,4,2,1,50,0,0
68578,-100,4,2,1,50,0,1
81819,-100,4,2,1,50,0,0
109957,416.666666666667,4,2,1,40,1,0
109957,-116.279069767442,4,2,1,40,0,0
114123,461.538461538462,4,2,1,30,1,0
114123,-117.647058823529,4,2,1,30,0,0
115046,480,4,2,1,20,1,0
115046,-125,4,2,1,20,0,0
115526,517.241379310345,4,2,1,10,1,0
115526,-135.135135135135,4,2,1,10,0,0
115784,600,4,2,1,10,1,0
115784,-133.333333333333,4,2,1,10,0,0

[HitObjects]
329,192,1543,5,0,0:0:0:30:S.wav
329,192,1647,1,0,0:0:0:30:S.wav
329,192,1750,1,0,0:0:0:30:S.wav
329,192,1853,1,0,0:0:0:30:S.wav
329,192,1957,1,0,0:0:0:30:S.wav
329,192,2060,1,0,0:0:0:30:S.wav
329,192,2164,1,0,0:0:0:30:S.wav
329,192,2267,1,0,0:0:0:30:S.wav
36,192,2371,1,2,0:0:0:0:
182,192,2371,1,4,0:0:0:0:
109,192,2784,1,8,0:0:0:0:
36,192,3198,1,2,0:0:0:0:
109,192,3612,1,8,0:0:0:0:
36,192,4026,1,2,0:0:0:0:
109,192,4440,1,8,0:0:0:0:
36,192,4853,1,2,0:0:0:0:
256,192,4957,1,0,0:0:0:20:S.wav
109,192,5267,1,8,0:0:0:0:
36,192,5681,1,2,0:0:0:0:
109,192,6095,1,8,0:0:0:0:
36,192,6509,1,2,0:0:0:0:
109,192,6922,1,8,0:0:0:0:
36,192,7336,1,2,0:0:0:0:
109,192,7750,1,8,0:0:0:0:
36,192,8164,1,2,0:0:0:0:
256,192,8267,1,0,0:0:0:20:S.wav
109,192,8578,1,8,0:0:0:0:
36,192,8784,1,2,0:0:0:0:
36,192,8991,1,2,0:0:0:0:
182,192,8991,1,4,0:0:0:0:
109,192,9405,1,8,0:0:0:0:
36,192,9819,1,2,0:0:0:0:
109,192,10233,1,8,0:0:0:0:
36,192,10647,1,2,0:0:0:0:
109,192,11060,1,8,0:0:0:0:
36,192,11474,1,2,0:0:0:0:
256,192,11578,1,0,0:0:0:20:S.wav
109,192,11888,1,8,0:0:0:0:
36,192,12302,1,2,0:0:0:0:
182,192,12302,1,4,0:0:0:0:
109,192,12716,1,8,0:0:0:0:
36,192,13129,1,2,0:0:0:0:
182,192,13129,1,4,0:0:0:0:
109,192,13543,1,8,0:0:0:0:
36,192,13957,1,2,0:0:0:0:
182,192,13957,1,4,0:0:0:0:
109,192,14371,1,8,0:0:0:0:
182,192,14371,1,4,0:0:0:0:
182,192,14578,1,4,0:0:0:0:
36,192,14784,1,2,0:0:0:0:
182,192,14784,1,4,0:0:0:0:
329,192,14888,1,0,0:0:0:30:S.wav
329,192,14991,1,0,0:0:0:30:S.wav
182,192,14991,1,4,0:0:0:0:
329,192,15095,1,0,0:0:0:30:S.wav
36,192,15198,1,2,0:0:0:0:
182,192,15198,1,4,0:0:0:0:
36,192,15302,1,2,0:0:0:0:
329,192,15302,1,0,0:0:0:30:S.wav
329,192,15405,1,0,0:0:0:30:S.wav
182,192,15405,1,4,0:0:0:0:
36,192,15405,1,2,0:0:0:0:
36,192,15509,1,2,0:0:0:0:
329,192,15509,1,0,0:0:0:30:S.wav
182,192,15612,1,4,0:0:0:0:
36,192,15612,1,2,0:0:0:0:
109,192,16026,1,8,0:0:0:0:
36,192,16440,1,2,0:0:0:0:
109,192,16853,1,8,0:0:0:0:
256,192,16957,1,0,0:0:0:20:S.wav
36,192,17267,1,2,0:0:0:0:
109,192,17681,1,8,0:0:0:0:
36,192,18095,1,2,0:0:0:0:
109,192,18509,1,8,0:0:0:0:
36,192,18922,1,2,0:0:0:0:
109,192,19336,1,8,0:0:0:0:
36,192,19750,1,2,0:0:0:0:
109,192,20164,1,8,0:0:0:0:
36,192,20578,1,2,0:0:0:0:
109,192,20991,1,8,0:0:0:0:
36,192,21405,1,2,0:0:0:0:
256,192,21509,1,0,0:0:0:20:S.wav
109,192,21819,1,8,0:0:0:0:
36,192,22026,1,2,0:0:0:0:
182,192,22233,1,4,0:0:0:0:
36,192,22233,1,2,0:0:0:0:
109,192,22647,1,8,0:0:0:0:
36,192,23060,1,2,0:0:0:0:
109,192,23474,1,8,0:0:0:0:
36,192,23888,1,2,0:0:0:0:
109,192,24302,1,8,0:0:0:0:
36,192,24716,1,2,0:0:0:0:
256,192,24819,1,0,0:0:0:20:S.wav
109,192,25129,1,8,0:0:0:0:
36,192,25543,1,2,0:0:0:0:
109,192,25957,1,8,0:0:0:0:
36,192,26371,1,2,0:0:0:0:
109,192,26784,1,8,0:0:0:0:
182,192,27198,1,4,0:0:0:0:
36,192,27198,1,2,0:0:0:0:
36,192,27405,1,2,0:0:0:0:
182,192,27405,1,4,0:0:0:0:
36,192,27612,1,2,0:0:0:0:
182,192,27612,1,4,0:0:0:0:
36,192,27716,1,2,0:0:0:0:
182,192,27716,1,4,0:0:0:0:
36,192,27922,1,2,0:0:0:0:
182,192,27922,1,4,0:0:0:0:
329,192,28129,1,0,0:0:0:30:S.wav
329,192,28233,1,0,0:0:0:30:S.wav
329,192,28336,1,0,0:0:0:30:S.wav
182,192,28440,1,4,0:0:0:0:
36,192,28440,1,2,0:0:0:0:
329,192,28440,1,0,0:0:0:30:S.wav
329,192,28543,1,0,0:0:0:50:S.wav
36,192,28543,1,2,0:0:0:0:
36,192,28647,1,2,0:0:0:0:
329,192,28647,1,0,0:0:0:50:S.wav
329,192,28750,1,0,0:0:0:50:S.wav
36,192,28750,1,2,0:0:0:0:
182,192,28853,1,4,0:0:0:0:
36,192,28853,1,2,0:0:0:0:
109,192,29267,1,8,0:0:0:0:
36,192,29681,1,2,0:0:0:0:
109,192,30095,1,8,0:0:0:0:
36,192,30509,1,2,0:0:0:0:
109,192,30922,1,8,0:0:0:0:
36,192,31336,1,2,0:0:0:0:
109,192,31750,1,8,0:0:0:0:
36,192,32164,1,2,0:0:0:0:
109,192,32578,1,8,0:0:0:0:
36,192,32991,1,2,0:0:0:0:
109,192,33405,1,8,0:0:0:0:
36,192,33819,1,2,0:0:0:0:
109,192,34233,1,8,0:0:0:0:
36,192,34647,1,2,0:0:0:0:
109,192,35060,1,8,0:0:0:0:
36,192,35267,1,2,0:0:0:0:
182,192,35474,1,4,0:0:0:0:
36,192,35474,1,2,0:0:0:0:
109,192,35888,1,8,0:0:0:0:
36,192,36302,1,2,0:0:0:0:
109,192,36716,1,8,0:0:0:0:
36,192,37129,1,2,0:0:0:0:
109,192,37543,1,8,0:0:0:0:
36,192,37957,1,2,0:0:0:0:
109,192,38371,1,8,0:0:0:0:
36,192,38784,1,2,0:0:0:0:
109,192,39198,1,8,0:0:0:0:
36,192,39612,1,2,0:0:0:0:
109,192,40026,1,8,0:0:0:0:
182,192,40440,1,4,0:0:0:0:
36,192,40440,1,2,0:0:0:0:
329,192,40543,1,0,0:0:0:30:S.wav
109,192,40853,1,8,0:0:0:0:
329,192,41060,1,0,0:0:0:30:S.wav
329,192,41164,1,0,0:0:0:30:S.wav
36,192,41267,1,2,0:0:0:0:
182,192,41267,1,4,0:0:0:0:
329,192,41474,1,0,0:0:0:30:S.wav
329,192,41578,1,0,0:0:0:30:S.wav
182,192,41578,1,4,0:0:0:0:
109,192,41681,1,8,0:0:0:0:
182,192,41681,1,4,0:0:0:0:
329,192,41784,1,0,0:0:0:30:S.wav
182,192,41888,1,4,0:0:0:0:
329,192,41888,1,0,0:0:0:30:S.wav
329,192,41991,1,0,0:0:0:30:S.wav
36,192,42095,1,2,0:0:0:0:
182,192,42095,1,4,0:0:0:0:
109,192,42509,1,8,0:0:0:0:
36,192,42922,1,2,0:0:0:0:
109,192,43336,1,8,0:0:0:0:
36,192,43750,1,2,0:0:0:0:
109,192,44164,1,8,0:0:0:0:
36,192,44578,1,2,0:0:0:0:
109,192,44991,1,8,0:0:0:0:
36,192,45405,1,2,0:0:0:0:
109,192,45819,1,8,0:0:0:0:
36,192,46233,1,2,0:0:0:0:
109,192,46647,1,8,0:0:0:0:
36,192,47060,1,2,0:0:0:0:
182,192,47060,1,4,0:0:0:0:
109,192,47474,1,8,0:0:0:0:
182,192,47474,1,4,0:0:0:0:
36,192,47888,1,2,0:0:0:0:
109,192,48302,1,8,0:0:0:0:
182,192,48302,1,4,0:0:0:0:
36,192,48716,1,2,0:0:0:0:
182,192,48716,1,4,0:0:0:0:
109,192,49129,1,8,0:0:0:0:
36,192,49543,1,2,0:0:0:0:
109,192,49957,1,8,0:0:0:0:
36,192,50371,1,2,0:0:0:0:
109,192,50784,1,8,0:0:0:0:
36,192,51198,1,2,0:0:0:0:
109,192,51612,1,8,0:0:0:0:
182,192,52026,1,4,0:0:0:0:
36,192,52026,1,2,0:0:0:0:
329,192,52129,1,0,0:0:0:30:S.wav
329,192,52233,1,0,0:0:0:30:S.wav
329,192,52336,1,0,0:0:0:30:S.wav
329,192,52440,1,8,0:0:0:30:S.wav
109,192,52440,1,8,0:0:0:0:
329,192,52543,1,0,0:0:0:30:S.wav
329,192,52647,1,0,0:0:0:30:S.wav
329,192,52750,1,0,0:0:0:30:S.wav
36,192,52853,1,2,0:0:0:0:
182,192,52853,1,4,0:0:0:0:
329,192,52957,1,0,0:0:0:30:S.wav
329,192,53060,1,0,0:0:0:30:S.wav
329,192,53164,1,0,0:0:0:30:S.wav
109,192,53267,1,8,0:0:0:0:
329,192,53267,1,8,0:0:0:30:S.wav
182,192,53267,1,4,0:0:0:0:
329,192,53371,1,0,0:0:0:30:S.wav
329,192,53474,1,0,0:0:0:30:S.wav
182,192,53474,1,4,0:0:0:0:
329,192,53578,1,0,0:0:0:30:S.wav
36,192,53681,1,2,0:0:0:0:
182,192,53681,1,4,0:0:0:0:
329,192,53784,1,0,0:0:0:30:S.wav
329,192,53888,1,0,0:0:0:30:S.wav
182,192,53888,1,4,0:0:0:0:
329,192,53991,1,0,0:0:0:30:S.wav
109,192,54095,1,8,0:0:0:0:
329,192,54095,1,8,0:0:0:30:S.wav
329,192,54198,1,0,0:0:0:30:S.wav
329,192,54302,1,0,0:0:0:30:S.wav
329,192,54405,1,0,0:0:0:30:S.wav
36,192,54509,1,2,0:0:0:0:
182,192,54509,1,4,0:0:0:0:
329,192,54612,1,0,0:0:0:30:S.wav
329,192,54716,1,0,0:0:0:30:S.wav
182,192,54716,1,4,0:0:0:0:
329,192,54819,1,0,0:0:0:30:S.wav
109,192,54922,1,8,0:0:0:0:
36,192,55336,1,2,0:0:0:0:
182,192,55336,1,4,0:0:0:0:
109,192,55750,1,8,0:0:0:0:
36,192,56164,1,2,0:0:0:0:
109,192,56578,1,8,0:0:0:0:
36,192,56991,1,2,0:0:0:0:
109,192,57405,1,8,0:0:0:0:
36,192,57819,1,2,0:0:0:0:
256,192,57922,1,0,0:0:0:20:S.wav
109,192,58233,1,8,0:0:0:0:
36,192,58647,1,2,0:0:0:0:
109,192,59060,1,8,0:0:0:0:
36,192,59474,1,2,0:0:0:0:
109,192,59888,1,8,0:0:0:0:
36,192,60302,1,2,0:0:0:0:
109,192,60716,1,8,0:0:0:0:
36,192,61129,1,2,0:0:0:0:
256,192,61233,1,0,0:0:0:20:S.wav
109,192,61543,1,8,0:0:0:0:
36,192,61750,1,2,0:0:0:0:
36,192,61957,1,2,0:0:0:0:
182,192,61957,1,4,0:0:0:0:
109,192,62371,1,8,0:0:0:0:
36,192,62784,1,2,0:0:0:0:
109,192,63198,1,8,0:0:0:0:
36,192,63612,1,2,0:0:0:0:
109,192,64026,1,8,0:0:0:0:
36,192,64440,1,2,0:0:0:0:
256,192,64543,1,0,0:0:0:20:S.wav
109,192,64853,1,8,0:0:0:0:
36,192,65267,1,2,0:0:0:0:
182,192,65267,1,4,0:0:0:0:
109,192,65681,1,8,0:0:0:0:
36,192,66095,1,2,0:0:0:0:
182,192,66095,1,4,0:0:0:0:
109,192,66509,1,8,0:0:0:0:
36,192,66922,1,2,0:0:0:0:
182,192,66922,1,4,0:0:0:0:
109,192,67336,1,8,0:0:0:0:
182,192,67336,1,4,0:0:0:0:
182,192,67543,1,4,0:0:0:0:
36,192,67750,1,2,0:0:0:0:
182,192,67750,1,4,0:0:0:0:
329,192,67853,1,0,0:0:0:30:S.wav
329,192,67957,1,0,0:0:0:30:S.wav
182,192,67957,1,4,0:0:0:0:
329,192,68060,1,0,0:0:0:30:S.wav
36,192,68164,1,2,0:0:0:0:
182,192,68164,1,4,0:0:0:0:
36,192,68267,1,2,0:0:0:0:
329,192,68267,1,0,0:0:0:30:S.wav
182,192,68371,1,4,0:0:0:0:
329,192,68371,1,0,0:0:0:30:S.wav
36,192,68371,1,2,0:0:0:0:
36,192,68474,1,2,0:0:0:0:
329,192,68474,1,0,0:0:0:30:S.wav
182,192,68578,1,4,0:0:0:0:
36,192,68578,1,2,0:0:0:0:
109,192,68991,1,8,0:0:0:0:
36,192,69405,1,2,0:0:0:0:
109,192,69819,1,8,0:0:0:0:
36,192,70233,1,2,0:0:0:0:
109,192,70647,1,8,0:0:0:0:
36,192,71060,1,2,0:0:0:0:
256,192,71164,1,0,0:0:0:20:S.wav
109,192,71474,1,8,0:0:0:0:
36,192,71888,1,2,0:0:0:0:
109,192,72302,1,8,0:0:0:0:
36,192,72716,1,2,0:0:0:0:
109,192,73129,1,8,0:0:0:0:
36,192,73543,1,2,0:0:0:0:
109,192,73957,1,8,0:0:0:0:
36,192,74371,1,2,0:0:0:0:
256,192,74474,1,0,0:0:0:20:S.wav
109,192,74784,1,8,0:0:0:0:
36,192,74991,1,2,0:0:0:0:
182,192,75198,1,4,0:0:0:0:
36,192,75198,1,2,0:0:0:0:
109,192,75612,1,8,0:0:0:0:
36,192,76026,1,2,0:0:0:0:
109,192,76440,1,8,0:0:0:0:
36,192,76853,1,2,0:0:0:0:
109,192,77267,1,8,0:0:0:0:
36,192,77681,1,2,0:0:0:0:
256,192,77784,1,0,0:0:0:20:S.wav
109,192,78095,1,8,0:0:0:0:
36,192,78509,1,2,0:0:0:0:
182,192,78509,1,4,0:0:0:0:
109,192,78922,1,8,0:0:0:0:
36,192,79336,1,2,0:0:0:0:
182,192,79336,1,4,0:0:0:0:
109,192,79750,1,8,0:0:0:0:
36,192,80164,1,2,0:0:0:0:
182,192,80164,1,4,0:0:0:0:
109,192,80578,1,8,0:0:0:0:
182,192,80578,1,4,0:0:0:0:
182,192,80784,1,4,0:0:0:0:
36,192,80991,1,2,0:0:0:0:
182,192,80991,1,4,0:0:0:0:
329,192,81095,1,0,0:0:0:30:S.wav
329,192,81198,1,0,0:0:0:30:S.wav
182,192,81198,1,4,0:0:0:0:
329,192,81302,1,0,0:0:0:30:S.wav
36,192,81405,1,2,0:0:0:0:
182,192,81405,1,4,0:0:0:0:
36,192,81509,1,2,0:0:0:0:
329,192,81509,1,0,0:0:0:30:S.wav
329,192,81612,1,0,0:0:0:30:S.wav
182,192,81612,1,4,0:0:0:0:
36,192,81612,1,2,0:0:0:0:
36,192,81716,1,2,0:0:0:0:
329,192,81716,1,0,0:0:0:30:S.wav
182,192,81819,1,4,0:0:0:0:
36,192,81819,1,2,0:0:0:0:
109,192,82233,1,8,0:0:0:0:
36,192,82647,1,2,0:0:0:0:
109,192,83060,1,8,0:0:0:0:
36,192,83474,1,2,0:0:0:0:
109,192,83888,1,8,0:0:0:0:
36,192,84302,1,2,0:0:0:0:
256,192,84405,1,0,0:0:0:20:S.wav
109,192,84716,1,8,0:0:0:0:
36,192,85129,1,2,0:0:0:0:
109,192,85543,1,8,0:0:0:0:
36,192,85957,1,2,0:0:0:0:
109,192,86371,1,8,0:0:0:0:
36,192,86784,1,2,0:0:0:0:
109,192,87198,1,8,0:0:0:0:
36,192,87612,1,2,0:0:0:0:
256,192,87716,1,0,0:0:0:20:S.wav
109,192,88026,1,8,0:0:0:0:
36,192,88233,1,2,0:0:0:0:
182,192,88440,1,4,0:0:0:0:
36,192,88440,1,2,0:0:0:0:
109,192,88853,1,8,0:0:0:0:
36,192,89267,1,2,0:0:0:0:
109,192,89681,1,8,0:0:0:0:
36,192,90095,1,2,0:0:0:0:
109,192,90509,1,8,0:0:0:0:
36,192,90922,1,2,0:0:0:0:
109,192,91336,1,8,0:0:0:0:
36,192,91750,1,2,0:0:0:0:
182,192,91750,1,4,0:0:0:0:
109,192,92164,1,8,0:0:0:0:
36,192,92578,1,2,0:0:0:0:
182,192,92578,1,4,0:0:0:0:
109,192,92991,1,8,0:0:0:0:
36,192,93405,1,2,0:0:0:0:
182,192,93405,1,4,0:0:0:0:
109,192,93819,1,8,0:0:0:0:
182,192,93819,1,4,0:0:0:0:
182,192,94026,1,4,0:0:0:0:
36,192,94233,1,2,0:0:0:0:
182,192,94233,1,4,0:0:0:0:
329,192,94336,1,0,0:0:0:30:S.wav
329,192,94440,1,0,0:0:0:30:S.wav
182,192,94440,1,4,0:0:0:0:
329,192,94543,1,0,0:0:0:30:S.wav
36,192,94647,1,2,0:0:0:0:
182,192,94647,1,4,0:0:0:0:
36,192,94750,1,2,0:0:0:0:
329,192,94750,1,0,0:0:0:30:S.wav
329,192,94853,1,0,0:0:0:30:S.wav
182,192,94853,1,4,0:0:0:0:
36,192,94853,1,2,0:0:0:0:
36,192,94957,1,2,0:0:0:0:
329,192,94957,1,0,0:0:0:30:S.wav
182,192,95060,1,4,0:0:0:0:
36,192,95060,1,2,0:0:0:0:
109,192,95474,1,8,0:0:0:0:
36,192,95888,1,2,0:0:0:0:
109,192,96302,1,8,0:0:0:0:
36,192,96716,1,2,0:0:0:0:
109,192,97129,1,8,0:0:0:0:
36,192,97543,1,2,0:0:0:0:
256,192,97647,1,0,0:0:0:20:S.wav
109,192,97957,1,8,0:0:0:0:
36,192,98371,1,2,0:0:0:0:
109,192,98784,1,8,0:0:0:0:
36,192,99198,1,2,0:0:0:0:
109,192,99612,1,8,0:0:0:0:
36,192,100026,1,2,0:0:0:0:
109,192,100440,1,8,0:0:0:0:
36,192,100853,1,2,0:0:0:0:
256,192,100957,1,0,0:0:0:20:S.wav
109,192,101267,1,8,0:0:0:0:
36,192,101474,1,2,0:0:0:0:
36,192,101681,1,2,0:0:0:0:
182,192,101681,1,4,0:0:0:0:
109,192,102095,1,8,0:0:0:0:
36,192,102509,1,2,0:0:0:0:
109,192,102922,1,8,0:0:0:0:
36,192,103336,1,2,0:0:0:0:
109,192,103750,1,8,0:0:0:0:
36,192,104164,1,2,0:0:0:0:
256,192,104267,1,0,0:0:0:20:S.wav
109,192,104578,1,8,0:0:0:0:
36,192,104991,1,2,0:0:0:0:
182,192,104991,1,4,0:0:0:0:
109,192,105405,1,8,0:0:0:0:
36,192,105819,1,2,0:0:0:0:
182,192,105819,1,4,0:0:0:0:
109,192,106233,1,8,0:0:0:0:
36,192,106647,1,2,0:0:0:0:
182,192,106647,1,4,0:0:0:0:
109,192,107060,1,8,0:0:0:0:
182,192,107060,1,4,0:0:0:0:
182,192,107267,1,4,0:0:0:0:
36,192,107474,1,2,0:0:0:0:
182,192,107474,1,4,0:0:0:0:
329,192,107578,1,0,0:0:0:30:S.wav
329,192,107681,1,0,0:0:0:30:S.wav
182,192,107681,1,4,0:0:0:0:
329,192,107784,1,0,0:0:0:30:S.wav
36,192,107888,1,2,0:0:0:0:
182,192,107888,1,4,0:0:0:0:
36,192,107991,1,2,0:0:0:0:
329,192,107991,1,0,0:0:0:30:S.wav
329,192,108095,1,0,0:0:0:30:S.wav
182,192,108095,1,4,0:0:0:0:
36,192,108095,1,2,0:0:0:0:
36,192,108198,1,2,0:0:0:0:
329,192,108198,1,0,0:0:0:30:S.wav
182,192,108302,1,4,0:0:0:0:
36,192,108302,1,2,0:0:0:0:
