osu file format v14

[General]
AudioFilename: senya+-+Cinderella+Avatar.mp3
AudioLeadIn: 0
PreviewTime: 54922
Countdown: 0
SampleSet: Soft
StackLeniency: 0.7
Mode: 3
LetterboxInBreaks: 0
SpecialStyle: 0
WidescreenStoryboard: 1

[Editor]
DistanceSpacing: 1.2
BeatDivisor: 4
GridSize: 32
TimelineZoom: 2.699999

[Metadata]
Title:Cinderella Avatar
TitleUnicode:シンデレラアバター
Artist:senya
ArtistUnicode:senya
Creator:Envory
Version:Ly0's Normal (remapping)
Source:東方風神録 ~ Mountain of Faith.
Tags:yuuhei satellite th10 native moriya suwako iceon kamase-tora 幽閉サテライト ネイティブフェイス 東方風神録 Verniy_Chan FAMoss yuzu__rinrin [R] atian540 - Ly0572 - Syadow-
BeatmapID:1409638
BeatmapSetID:665542

[Difficulty]
HPDrainRate:7
CircleSize:4
OverallDifficulty:7.5
ApproachRate:5
SliderMultiplier:1.4
SliderTickRate:1

[Events]
//Background and Video events
0,0,"696623.jpg",0,0
//Break Periods
//Storyboard Layer 0 (Background)
//Storyboard Layer 1 (Fail)
//Storyboard Layer 2 (Pass)
//Storyboard Layer 3 (Foreground)
//Storyboard Layer 4 (Overlay)
//Storyboard Sound Samples
Sample,14991,0,"S.wav",30
Sample,15405,0,"S.wav",30
Sample,28440,0,"S.wav",30
Sample,28647,0,"S.wav",50

[TimingPoints]
716,413.793103448276,4,2,1,50,1,0
55336,-100,4,2,1,50,0,1
67750,-100,4,2,1,50,0,0
68578,-100,4,2,1,50,0,1
81819,-100,4,2,1,50,0,0
95060,-100,4,2,1,50,0,1
108302,-100,4,2,1,50,0,0
109957,416.666666666667,4,2,1,40,1,0
109957,-116.279069767442,4,2,1,40,0,0
114123,461.538461538462,4,2,1,30,1,0
114123,-117.647058823529,4,2,1,30,0,0
115046,480,4,2,1,20,1,0
115046,-125,4,2,1,20,0,0
115526,517.241379310345,4,2,1,10,1,0
115526,-135.135135135135,4,2,1,10,0,0
115784,600,4,2,1,10,1,0
115784,-133.333333333333,4,2,1,10,0,0

[HitObjects]
64,192,819,128,0,1543:0:0:0:0:
448,192,1543,1,0,0:0:0:30:S.wav
320,192,1647,1,0,0:0:0:30:S.wav
192,192,1750,1,0,0:0:0:30:S.wav
64,192,1853,1,0,0:0:0:30:S.wav
448,192,1957,1,0,0:0:0:30:S.wav
320,192,2060,1,0,0:0:0:30:S.wav
192,192,2164,1,0,0:0:0:30:S.wav
64,192,2267,1,0,0:0:0:30:S.wav
192,192,2371,1,2,0:0:0:0:
448,192,2371,1,4,0:0:0:0:
320,192,2578,1,0,0:0:0:0:
64,192,2784,1,8,0:0:0:0:
448,192,2784,1,0,0:0:0:0:
192,192,3198,1,2,0:0:0:0:
320,192,3405,1,0,0:0:0:0:
64,192,3612,1,8,0:0:0:0:
448,192,3612,1,0,0:0:0:0:
192,192,4026,1,2,0:0:0:0:
448,192,4233,1,0,0:0:0:0:
64,192,4440,1,8,0:0:0:0:
320,192,4440,1,0,0:0:0:0:
320,192,4853,1,2,0:0:0:0:
64,192,5060,1,0,0:0:0:0:
192,192,5267,1,8,0:0:0:0:
448,192,5267,1,0,0:0:0:0:
64,192,5681,1,2,0:0:0:0:
448,192,5888,1,0,0:0:0:0:
192,192,6095,1,8,0:0:0:0:
320,192,6095,1,0,0:0:0:0:
448,192,6509,1,2,0:0:0:0:
64,192,6716,1,0,0:0:0:0:
192,192,6922,1,8,0:0:0:0:
320,192,6922,1,0,0:0:0:0:
64,192,7336,1,2,0:0:0:0:
192,192,7543,1,0,0:0:0:0:
320,192,7750,1,8,0:0:0:0:
448,192,7750,1,0,0:0:0:0:
192,192,8164,1,2,0:0:0:0:
320,192,8371,1,0,0:0:0:0:
64,192,8578,1,8,0:0:0:0:
448,192,8578,1,0,0:0:0:0:
448,192,8784,1,2,0:0:0:0:
64,192,8991,1,2,0:0:0:0:
192,192,8991,1,4,0:0:0:0:
320,192,9198,1,0,0:0:0:0:
64,192,9405,1,8,0:0:0:0:
448,192,9405,1,0,0:0:0:0:
320,192,9819,1,2,0:0:0:0:
192,192,10026,1,0,0:0:0:0:
64,192,10233,1,8,0:0:0:0:
448,192,10233,1,0,0:0:0:0:
448,192,10647,1,2,0:0:0:0:
320,192,10853,1,0,0:0:0:0:
64,192,11060,1,8,0:0:0:0:
192,192,11060,1,0,0:0:0:0:
320,192,11474,1,2,0:0:0:0:
64,192,11681,1,0,0:0:0:0:
192,192,11888,1,8,0:0:0:0:
448,192,11888,1,0,0:0:0:0:
192,192,12302,1,2,0:0:0:0:
320,192,12302,1,4,0:0:0:0:
320,192,12509,1,0,0:0:0:0:
64,192,12716,1,8,0:0:0:0:
448,192,12716,1,0,0:0:0:0:
192,192,13129,1,2,0:0:0:0:
320,192,13129,1,4,0:0:0:0:
192,192,13336,1,0,0:0:0:0:
64,192,13543,1,8,0:0:0:0:
448,192,13543,1,0,0:0:0:0:
192,192,13957,1,2,0:0:0:0:
320,192,13957,1,4,0:0:0:0:
448,192,14164,1,0,0:0:0:0:
192,192,14371,1,8,0:0:0:0:
320,192,14371,1,4,0:0:0:0:
64,192,14578,1,4,0:0:0:0:
320,192,14784,1,2,0:0:0:0:
448,192,14784,1,4,0:0:0:0:
192,192,14991,1,4,0:0:0:0:
64,192,15198,1,2,0:0:0:0:
448,192,15198,1,4,0:0:0:0:
320,192,15405,1,6,0:0:0:0:
64,192,15612,1,4,0:0:0:0:
192,192,15612,1,2,0:0:0:0:
448,192,15819,1,0,0:0:0:0:
64,192,16026,1,8,0:0:0:0:
320,192,16026,1,0,0:0:0:0:
192,192,16440,1,2,0:0:0:0:
320,192,16647,1,0,0:0:0:0:
64,192,16853,1,8,0:0:0:0:
448,192,16853,1,0,0:0:0:0:
320,192,17267,1,2,0:0:0:0:
192,192,17474,1,0,0:0:0:0:
64,192,17681,1,8,0:0:0:0:
448,192,17681,1,0,0:0:0:0:
192,192,18095,1,2,0:0:0:0:
320,192,18302,1,0,0:0:0:0:
192,192,18509,1,8,0:0:0:0:
448,192,18509,1,0,0:0:0:0:
320,192,18922,1,2,0:0:0:0:
192,192,19129,1,0,0:0:0:0:
64,192,19336,1,8,0:0:0:0:
320,192,19336,1,0,0:0:0:0:
192,192,19750,1,2,0:0:0:0:
448,192,19957,1,0,0:0:0:0:
64,192,20164,1,8,0:0:0:0:
320,192,20164,1,0,0:0:0:0:
320,192,20578,1,2,0:0:0:0:
64,192,20784,1,0,0:0:0:0:
192,192,20991,1,8,0:0:0:0:
448,192,20991,1,0,0:0:0:0:
64,192,21405,1,2,0:0:0:0:
448,192,21405,1,0,0:0:0:0:
320,192,21612,1,0,0:0:0:0:
192,192,21819,1,8,0:0:0:0:
192,192,22026,1,2,0:0:0:0:
64,192,22233,1,4,0:0:0:0:
448,192,22233,1,2,0:0:0:0:
320,192,22440,1,0,0:0:0:0:
64,192,22647,1,8,0:0:0:0:
192,192,22647,1,0,0:0:0:0:
448,192,23060,1,2,0:0:0:0:
320,192,23267,1,0,0:0:0:0:
192,192,23474,1,8,0:0:0:0:
448,192,23474,1,0,0:0:0:0:
64,192,23888,1,2,0:0:0:0:
192,192,24095,1,0,0:0:0:0:
64,192,24302,1,8,0:0:0:0:
320,192,24302,1,0,0:0:0:0:
448,192,24716,1,2,0:0:0:0:
192,192,24922,1,0,0:0:0:0:
64,192,25129,1,8,0:0:0:0:
320,192,25129,1,0,0:0:0:0:
64,192,25543,1,2,0:0:0:0:
320,192,25750,1,0,0:0:0:0:
192,192,25957,1,8,0:0:0:0:
448,192,25957,1,0,0:0:0:0:
64,192,26371,1,2,0:0:0:0:
448,192,26578,1,0,0:0:0:0:
192,192,26784,1,8,0:0:0:0:
320,192,26784,1,0,0:0:0:0:
320,192,27198,1,4,0:0:0:0:
448,192,27198,1,2,0:0:0:0:
320,192,27405,1,2,0:0:0:0:
448,192,27405,1,4,0:0:0:0:
64,192,27612,1,2,0:0:0:0:
192,192,27612,1,4,0:0:0:0:
320,192,27716,1,2,0:0:0:0:
448,192,27716,1,4,0:0:0:0:
64,192,27922,128,2,28233:0:0:0:0:
192,192,27922,1,4,0:0:0:0:
192,192,28233,128,0,28440:0:0:0:30:S.wav
320,192,28440,128,6,28647:0:0:0:0:
448,192,28647,128,2,28853:0:0:0:0:
64,192,28853,1,4,0:0:0:0:
192,192,28853,1,2,0:0:0:0:
320,192,29060,1,0,0:0:0:0:
64,192,29267,1,8,0:0:0:0:
448,192,29267,1,0,0:0:0:0:
192,192,29474,1,0,0:0:0:0:
320,192,29681,1,2,0:0:0:0:
448,192,29888,1,0,0:0:0:0:
64,192,30095,1,8,0:0:0:0:
192,192,30095,1,0,0:0:0:0:
320,192,30302,1,0,0:0:0:0:
448,192,30509,1,2,0:0:0:0:
320,192,30716,1,0,0:0:0:0:
64,192,30922,1,8,0:0:0:0:
448,192,30922,1,0,0:0:0:0:
192,192,31129,1,0,0:0:0:0:
320,192,31336,1,2,0:0:0:0:
448,192,31543,1,0,0:0:0:0:
192,192,31750,1,8,0:0:0:0:
320,192,31750,1,0,0:0:0:0:
64,192,31957,1,0,0:0:0:0:
192,192,32164,1,2,0:0:0:0:
320,192,32371,1,0,0:0:0:0:
64,192,32578,1,8,0:0:0:0:
448,192,32578,1,0,0:0:0:0:
192,192,32784,1,0,0:0:0:0:
320,192,32991,1,2,0:0:0:0:
192,192,33198,1,0,0:0:0:0:
64,192,33405,1,8,0:0:0:0:
448,192,33405,1,0,0:0:0:0:
320,192,33612,1,0,0:0:0:0:
192,192,33819,1,2,0:0:0:0:
64,192,34026,1,0,0:0:0:0:
320,192,34233,1,8,0:0:0:0:
448,192,34233,1,0,0:0:0:0:
192,192,34440,1,0,0:0:0:0:
64,192,34647,1,2,0:0:0:0:
320,192,34853,1,0,0:0:0:0:
448,192,34853,1,0,0:0:0:0:
192,192,35060,1,8,0:0:0:0:
192,192,35267,1,2,0:0:0:0:
64,192,35474,1,4,0:0:0:0:
448,192,35474,1,2,0:0:0:0:
64,192,35888,1,8,0:0:0:0:
192,192,35888,1,0,0:0:0:0:
320,192,36095,1,0,0:0:0:0:
448,192,36302,1,2,0:0:0:0:
192,192,36509,1,0,0:0:0:0:
64,192,36716,1,8,0:0:0:0:
320,192,36716,1,0,0:0:0:0:
448,192,36922,1,0,0:0:0:0:
64,192,37129,1,2,0:0:0:0:
320,192,37336,1,0,0:0:0:0:
192,192,37543,1,8,0:0:0:0:
448,192,37543,1,0,0:0:0:0:
320,192,37750,1,0,0:0:0:0:
64,192,37957,1,2,0:0:0:0:
192,192,38164,1,0,0:0:0:0:
64,192,38371,1,8,0:0:0:0:
320,192,38371,1,0,0:0:0:0:
448,192,38578,1,0,0:0:0:0:
320,192,38784,1,2,0:0:0:0:
64,192,38991,1,0,0:0:0:0:
192,192,39198,1,8,0:0:0:0:
448,192,39198,1,0,0:0:0:0:
320,192,39405,1,0,0:0:0:0:
64,192,39612,1,2,0:0:0:0:
448,192,39612,1,0,0:0:0:0:
192,192,39819,1,0,0:0:0:0:
320,192,40026,1,8,0:0:0:0:
448,192,40233,1,0,0:0:0:0:
64,192,40440,1,4,0:0:0:0:
192,192,40440,128,2,42095:0:0:0:0:
320,192,41267,128,6,42095:0:0:0:0:
64,192,42095,1,2,0:0:0:0:
448,192,42095,1,4,0:0:0:0:
448,192,42302,1,0,0:0:0:0:
192,192,42509,1,8,0:0:0:0:
320,192,42509,1,0,0:0:0:0:
448,192,42922,1,2,0:0:0:0:
64,192,43129,1,0,0:0:0:0:
192,192,43336,1,8,0:0:0:0:
320,192,43336,1,0,0:0:0:0:
64,192,43750,1,2,0:0:0:0:
192,192,43957,1,0,0:0:0:0:
320,192,44164,1,8,0:0:0:0:
448,192,44164,1,0,0:0:0:0:
192,192,44578,1,2,0:0:0:0:
64,192,44784,1,0,0:0:0:0:
192,192,44991,1,8,0:0:0:0:
448,192,44991,1,0,0:0:0:0:
448,192,45405,1,2,0:0:0:0:
320,192,45612,1,0,0:0:0:0:
64,192,45819,1,8,0:0:0:0:
192,192,45819,1,0,0:0:0:0:
320,192,46233,1,2,0:0:0:0:
448,192,46440,1,0,0:0:0:0:
64,192,46647,1,8,0:0:0:0:
320,192,46647,1,0,0:0:0:0:
64,192,47060,1,2,0:0:0:0:
448,192,47060,1,4,0:0:0:0:
192,192,47267,1,0,0:0:0:0:
64,192,47474,1,8,0:0:0:0:
320,192,47474,1,4,0:0:0:0:
64,192,47888,1,2,0:0:0:0:
448,192,47888,1,0,0:0:0:0:
320,192,48095,1,0,0:0:0:0:
192,192,48302,1,8,0:0:0:0:
448,192,48302,1,4,0:0:0:0:
64,192,48509,1,0,0:0:0:0:
192,192,48716,1,2,0:0:0:0:
320,192,48716,1,4,0:0:0:0:
448,192,48922,1,0,0:0:0:0:
64,192,49129,1,8,0:0:0:0:
320,192,49129,1,0,0:0:0:0:
192,192,49543,1,2,0:0:0:0:
320,192,49750,1,0,0:0:0:0:
64,192,49957,1,8,0:0:0:0:
192,192,49957,1,0,0:0:0:0:
320,192,50371,1,2,0:0:0:0:
192,192,50578,1,0,0:0:0:0:
64,192,50784,1,8,0:0:0:0:
448,192,50784,1,0,0:0:0:0:
320,192,51198,1,2,0:0:0:0:
192,192,51405,1,0,0:0:0:0:
320,192,51612,1,8,0:0:0:0:
448,192,51612,1,0,0:0:0:0:
64,192,52026,1,4,0:0:0:0:
192,192,52026,128,2,52853:0:0:0:0:
320,192,52853,128,6,53681:0:0:0:0:
448,192,53681,128,6,54922:0:0:0:0:
192,192,55336,1,2,0:0:0:0:
320,192,55336,1,4,0:0:0:0:
64,192,55543,1,0,0:0:0:0:
192,192,55750,1,8,0:0:0:0:
448,192,55750,1,0,0:0:0:0:
320,192,55957,1,0,0:0:0:0:
64,192,56164,1,2,0:0:0:0:
192,192,56371,1,0,0:0:0:0:
320,192,56578,1,8,0:0:0:0:
448,192,56578,1,0,0:0:0:0:
64,192,56784,1,0,0:0:0:0:
192,192,56991,1,2,0:0:0:0:
320,192,57198,1,0,0:0:0:0:
64,192,57405,1,8,0:0:0:0:
448,192,57405,1,0,0:0:0:0:
192,192,57612,1,0,0:0:0:0:
320,192,57819,1,2,0:0:0:0:
448,192,57819,1,0,0:0:0:0:
64,192,58026,1,0,0:0:0:0:
192,192,58233,1,8,0:0:0:0:
320,192,58233,1,0,0:0:0:0:
448,192,58440,1,0,0:0:0:0:
320,192,58647,1,2,0:0:0:0:
192,192,58853,1,0,0:0:0:0:
64,192,59060,1,8,0:0:0:0:
448,192,59060,1,0,0:0:0:0:
320,192,59267,1,0,0:0:0:0:
192,192,59474,1,2,0:0:0:0:
448,192,59681,1,0,0:0:0:0:
64,192,59888,1,8,0:0:0:0:
320,192,59888,1,0,0:0:0:0:
192,192,60095,1,0,0:0:0:0:
448,192,60302,1,2,0:0:0:0:
320,192,60509,1,0,0:0:0:0:
64,192,60716,1,8,0:0:0:0:
192,192,60716,1,0,0:0:0:0:
448,192,60922,1,0,0:0:0:0:
64,192,61129,1,2,0:0:0:0:
320,192,61129,1,0,0:0:0:0:
192,192,61336,1,0,0:0:0:0:
448,192,61543,1,8,0:0:0:0:
448,192,61750,1,2,0:0:0:0:
64,192,61957,1,2,0:0:0:0:
192,192,61957,1,4,0:0:0:0:
448,192,62164,1,0,0:0:0:0:
192,192,62371,1,8,0:0:0:0:
320,192,62371,1,0,0:0:0:0:
64,192,62578,1,0,0:0:0:0:
192,192,62784,1,2,0:0:0:0:
320,192,62991,1,0,0:0:0:0:
64,192,63198,1,8,0:0:0:0:
448,192,63198,1,0,0:0:0:0:
192,192,63405,1,0,0:0:0:0:
320,192,63612,1,2,0:0:0:0:
64,192,63819,1,0,0:0:0:0:
192,192,64026,1,8,0:0:0:0:
448,192,64026,1,0,0:0:0:0:
320,192,64233,1,0,0:0:0:0:
64,192,64440,1,2,0:0:0:0:
192,192,64647,1,0,0:0:0:0:
320,192,64853,1,8,0:0:0:0:
448,192,64853,1,0,0:0:0:0:
192,192,65060,1,0,0:0:0:0:
64,192,65267,1,2,0:0:0:0:
448,192,65267,1,4,0:0:0:0:
320,192,65474,1,0,0:0:0:0:
64,192,65681,1,8,0:0:0:0:
192,192,65681,1,0,0:0:0:0:
64,192,66095,1,2,0:0:0:0:
448,192,66095,1,4,0:0:0:0:
192,192,66302,1,0,0:0:0:0:
320,192,66509,1,8,0:0:0:0:
448,192,66509,1,0,0:0:0:0:
192,192,66716,1,0,0:0:0:0:
64,192,66922,1,2,0:0:0:0:
448,192,66922,1,4,0:0:0:0:
192,192,67336,1,8,0:0:0:0:
320,192,67336,1,4,0:0:0:0:
320,192,67750,128,6,68578:0:0:0:0:
448,192,68164,128,6,68578:0:0:0:0:
64,192,68578,1,4,0:0:0:0:
192,192,68578,1,2,0:0:0:0:
448,192,68784,1,0,0:0:0:0:
64,192,68991,1,8,0:0:0:0:
320,192,68991,1,0,0:0:0:0:
192,192,69198,1,0,0:0:0:0:
448,192,69405,1,2,0:0:0:0:
320,192,69612,1,0,0:0:0:0:
64,192,69819,1,8,0:0:0:0:
192,192,69819,1,0,0:0:0:0:
448,192,70026,1,0,0:0:0:0:
320,192,70233,1,2,0:0:0:0:
192,192,70440,1,0,0:0:0:0:
64,192,70647,1,8,0:0:0:0:
448,192,70647,1,0,0:0:0:0:
320,192,70853,1,0,0:0:0:0:
64,192,71060,1,2,0:0:0:0:
192,192,71060,1,0,0:0:0:0:
448,192,71267,1,0,0:0:0:0:
192,192,71474,1,8,0:0:0:0:
320,192,71474,1,0,0:0:0:0:
64,192,71681,1,0,0:0:0:0:
192,192,71888,1,2,0:0:0:0:
320,192,72095,1,0,0:0:0:0:
64,192,72302,1,8,0:0:0:0:
448,192,72302,1,0,0:0:0:0:
192,192,72509,1,0,0:0:0:0:
320,192,72716,1,2,0:0:0:0:
64,192,72922,1,0,0:0:0:0:
192,192,73129,1,8,0:0:0:0:
448,192,73129,1,0,0:0:0:0:
320,192,73336,1,0,0:0:0:0:
64,192,73543,1,2,0:0:0:0:
192,192,73750,1,0,0:0:0:0:
320,192,73957,1,8,0:0:0:0:
448,192,73957,1,0,0:0:0:0:
64,192,74164,1,0,0:0:0:0:
192,192,74371,1,2,0:0:0:0:
448,192,74371,1,0,0:0:0:0:
320,192,74578,1,0,0:0:0:0:
64,192,74784,1,8,0:0:0:0:
64,192,74991,1,2,0:0:0:0:
320,192,75198,1,4,0:0:0:0:
448,192,75198,1,2,0:0:0:0:
64,192,75405,1,0,0:0:0:0:
192,192,75612,1,8,0:0:0:0:
320,192,75612,1,0,0:0:0:0:
448,192,75819,1,0,0:0:0:0:
320,192,76026,1,2,0:0:0:0:
192,192,76233,1,0,0:0:0:0:
64,192,76440,1,8,0:0:0:0:
448,192,76440,1,0,0:0:0:0:
320,192,76647,1,0,0:0:0:0:
192,192,76853,1,2,0:0:0:0:
448,192,77060,1,0,0:0:0:0:
64,192,77267,1,8,0:0:0:0:
320,192,77267,1,0,0:0:0:0:
192,192,77474,1,0,0:0:0:0:
448,192,77681,1,2,0:0:0:0:
320,192,77888,1,0,0:0:0:0:
64,192,78095,1,8,0:0:0:0:
192,192,78095,1,0,0:0:0:0:
320,192,78302,1,0,0:0:0:0:
64,192,78509,1,2,0:0:0:0:
448,192,78509,1,4,0:0:0:0:
192,192,78716,1,0,0:0:0:0:
320,192,78922,1,8,0:0:0:0:
64,192,79336,1,2,0:0:0:0:
448,192,79336,1,4,0:0:0:0:
320,192,79543,1,0,0:0:0:0:
192,192,79750,1,8,0:0:0:0:
320,192,79957,1,0,0:0:0:0:
64,192,80164,1,2,0:0:0:0:
448,192,80164,1,4,0:0:0:0:
192,192,80578,1,12,0:0:0:0:
448,192,80991,128,6,81819:0:0:0:0:
64,192,81405,128,6,81819:0:0:0:0:
192,192,81819,1,4,0:0:0:0:
320,192,81819,1,2,0:0:0:0:
64,192,82026,1,0,0:0:0:0:
192,192,82233,1,8,0:0:0:0:
448,192,82233,1,0,0:0:0:0:
320,192,82647,1,2,0:0:0:0:
448,192,82853,1,0,0:0:0:0:
64,192,83060,1,8,0:0:0:0:
320,192,83060,1,0,0:0:0:0:
192,192,83474,1,2,0:0:0:0:
320,192,83681,1,0,0:0:0:0:
64,192,83888,1,8,0:0:0:0:
192,192,83888,1,0,0:0:0:0:
320,192,84302,1,2,0:0:0:0:
192,192,84509,1,0,0:0:0:0:
64,192,84716,1,8,0:0:0:0:
448,192,84716,1,0,0:0:0:0:
320,192,85129,1,2,0:0:0:0:
192,192,85336,1,0,0:0:0:0:
320,192,85543,1,8,0:0:0:0:
448,192,85543,1,0,0:0:0:0:
192,192,85957,1,2,0:0:0:0:
320,192,86164,1,0,0:0:0:0:
64,192,86371,1,8,0:0:0:0:
448,192,86371,1,0,0:0:0:0:
192,192,86784,1,2,0:0:0:0:
64,192,86991,1,0,0:0:0:0:
320,192,87198,1,8,0:0:0:0:
448,192,87198,1,0,0:0:0:0:
192,192,87612,1,2,0:0:0:0:
448,192,87819,1,0,0:0:0:0:
64,192,88026,1,8,0:0:0:0:
320,192,88026,1,0,0:0:0:0:
64,192,88233,1,2,0:0:0:0:
192,192,88440,1,4,0:0:0:0:
448,192,88440,1,2,0:0:0:0:
320,192,88647,1,0,0:0:0:0:
64,192,88853,1,8,0:0:0:0:
192,192,88853,1,0,0:0:0:0:
320,192,89267,1,2,0:0:0:0:
448,192,89474,1,0,0:0:0:0:
64,192,89681,1,8,0:0:0:0:
192,192,89681,1,0,0:0:0:0:
320,192,90095,1,2,0:0:0:0:
64,192,90302,1,0,0:0:0:0:
192,192,90509,1,8,0:0:0:0:
448,192,90509,1,0,0:0:0:0:
320,192,90922,1,2,0:0:0:0:
448,192,91129,1,0,0:0:0:0:
64,192,91336,1,8,0:0:0:0:
192,192,91336,1,0,0:0:0:0:
64,192,91750,1,2,0:0:0:0:
448,192,91750,1,4,0:0:0:0:
192,192,92164,1,8,0:0:0:0:
64,192,92578,1,2,0:0:0:0:
448,192,92578,1,4,0:0:0:0:
320,192,92991,1,8,0:0:0:0:
64,192,93405,1,2,0:0:0:0:
448,192,93405,1,4,0:0:0:0:
320,192,93612,1,0,0:0:0:0:
192,192,93819,1,12,0:0:0:0:
64,192,94026,1,4,0:0:0:0:
448,192,94233,128,6,95060:0:0:0:0:
64,192,94647,128,6,95060:0:0:0:0:
192,192,95060,1,4,0:0:0:0:
320,192,95060,1,2,0:0:0:0:
448,192,95267,1,0,0:0:0:0:
64,192,95474,1,8,0:0:0:0:
320,192,95474,1,0,0:0:0:0:
192,192,95681,1,0,0:0:0:0:
448,192,95888,1,2,0:0:0:0:
320,192,96095,1,0,0:0:0:0:
64,192,96302,1,8,0:0:0:0:
192,192,96302,1,0,0:0:0:0:
448,192,96509,1,0,0:0:0:0:
320,192,96716,1,2,0:0:0:0:
192,192,96922,1,0,0:0:0:0:
64,192,97129,1,8,0:0:0:0:
448,192,97129,1,0,0:0:0:0:
320,192,97336,1,0,0:0:0:0:
64,192,97543,1,2,0:0:0:0:
192,192,97543,1,0,0:0:0:0:
448,192,97750,1,0,0:0:0:0:
192,192,97957,1,8,0:0:0:0:
320,192,97957,1,0,0:0:0:0:
64,192,98164,1,0,0:0:0:0:
192,192,98371,1,2,0:0:0:0:
320,192,98578,1,0,0:0:0:0:
64,192,98784,1,8,0:0:0:0:
448,192,98784,1,0,0:0:0:0:
192,192,98991,1,0,0:0:0:0:
320,192,99198,1,2,0:0:0:0:
64,192,99405,1,0,0:0:0:0:
192,192,99612,1,8,0:0:0:0:
448,192,99612,1,0,0:0:0:0:
320,192,99819,1,0,0:0:0:0:
64,192,100026,1,2,0:0:0:0:
192,192,100233,1,0,0:0:0:0:
320,192,100440,1,8,0:0:0:0:
448,192,100440,1,0,0:0:0:0:
64,192,100647,1,0,0:0:0:0:
192,192,100853,1,2,0:0:0:0:
448,192,100853,1,0,0:0:0:0:
320,192,101060,1,0,0:0:0:0:
64,192,101267,1,8,0:0:0:0:
64,192,101474,1,2,0:0:0:0:
320,192,101681,1,2,0:0:0:0:
448,192,101681,1,4,0:0:0:0:
64,192,101888,1,0,0:0:0:0:
192,192,102095,1,8,0:0:0:0:
320,192,102095,1,0,0:0:0:0:
448,192,102302,1,0,0:0:0:0:
320,192,102509,1,2,0:0:0:0:
192,192,102716,1,0,0:0:0:0:
64,192,102922,1,8,0:0:0:0:
448,192,102922,1,0,0:0:0:0:
320,192,103129,1,0,0:0:0:0:
192,192,103336,1,2,0:0:0:0:
448,192,103543,1,0,0:0:0:0:
64,192,103750,1,8,0:0:0:0:
320,192,103750,1,0,0:0:0:0:
192,192,103957,1,0,0:0:0:0:
448,192,104164,1,2,0:0:0:0:
320,192,104371,1,0,0:0:0:0:
64,192,104578,1,8,0:0:0:0:
192,192,104578,1,0,0:0:0:0:
320,192,104784,1,0,0:0:0:0:
64,192,104991,1,2,0:0:0:0:
448,192,104991,1,4,0:0:0:0:
192,192,105198,1,0,0:0:0:0:
320,192,105405,1,8,0:0:0:0:
448,192,105405,1,0,0:0:0:0:
64,192,105819,1,2,0:0:0:0:
448,192,105819,1,4,0:0:0:0:
320,192,106026,1,0,0:0:0:0:
64,192,106233,1,8,0:0:0:0:
192,192,106233,1,0,0:0:0:0:
320,192,106440,1,0,0:0:0:0:
64,192,106647,1,2,0:0:0:0:
448,192,106647,1,4,0:0:0:0:
64,192,106957,1,0,0:0:0:0:
192,192,106957,1,0,0:0:0:0:
320,192,107267,1,4,0:0:0:0:
448,192,107267,1,0,0:0:0:0:
192,192,107474,128,6,108302:0:0:0:0:
64,192,107888,128,6,108302:0:0:0:0:
320,192,108302,1,4,0:0:0:0:
448,192,108302,1,2,0:0:0:0:
64,192,109957,1,0,0:0:0:0:
192,192,110164,1,0,0:0:0:0:
320,192,110371,1,0,0:0:0:0:
448,192,110578,1,0,0:0:0:0:
192,192,110784,1,0,0:0:0:0:
320,192,110991,1,0,0:0:0:0:
64,192,111198,1,0,0:0:0:0:
192,192,111405,1,0,0:0:0:0:
320,192,111612,1,0,0:0:0:0:
448,192,111819,1,0,0:0:0:0:
64,192,112026,1,0,0:0:0:0:
192,192,112233,1,0,0:0:0:0:
448,192,112440,128,0,112853:0:0:0:0:
320,192,112853,128,0,113267:0:0:0:0:
192,192,113267,128,0,113681:0:0:0:0:
64,192,113681,1,0,0:0:0:0:
448,192,113888,1,0,0:0:0:0:
320,192,114095,1,0,0:0:0:0:
192,192,114353,1,0,0:0:0:0:
64,192,114612,1,0,0:0:0:0:
448,192,114819,1,0,0:0:0:0:
320,192,115026,128,0,115755:0:0:0:0:
192,192,115332,1,0,0:0:0:0:
64,192,115513,1,0,0:0:0:0:
448,192,115755,128,0,116118:0:0:0:0:
64,192,116118,1,0,0:0:0:0:
